#TITLE:MERA MERA;
#SUBTITLE:;
#ARTIST:Mori Calliope;
#TITLETRANSLIT:;
#SUBTITLETRANSLIT:;
#ARTISTTRANSLIT:;
#GENRE:Variety;
#CREDIT:;
#BANNER:MERA MERA.png;
#BACKGROUND:MERA MERA-bg.png;
#LYRICSPATH:;
#CDTITLE:../cdtitle.png;
#MUSIC:MERA MERA.ogg;
#OFFSET:1.327000;
#SAMPLESTART:8.349000;
#SAMPLELENGTH:15.000000;
#LASTBEATHINT:0.675800;
#SELECTABLE:YES;
#BPMS:0.000000=124.000000
;
#STOPS:80.000000=1.452000
;
#BGCHANGES:2.750=MERA MERA.avi=1.000=0=0=0=StretchNoLoop====,
99999=-nosongbg-=1.000=0=0=0 // don't automatically add -songbackground-
;
#KEYSOUNDS:;
#ATTACKS:;

//---------------dance-single - ----------------
#NOTES:
     dance-single:
     :
     Challenge:
     11:
     0.424352,0.465505,0.073044,0.048696,0.115653,244.000000,238.000000,6.000000,4.000000,36.000000,0.000000,0.424352,0.465505,0.073044,0.048696,0.115653,244.000000,238.000000,6.000000,4.000000,36.000000,0.000000:
0000
0000
0000
0000
,
0000
0000
0000
0000
,
0000
0000
0000
0000
,
0000
0000
0000
0000
,
0010
0000
0000
0100
0010
0000
0100
0000
0010
0000
0000
0000
MMMM
0000
0000
0000
,
0100
0010
1000
0001
0100
0100
0000
0010
,
1000
0100
0001
0100
0010
0010
0000
0001
,
1000
0010
1000
0100
0010
0010
0000
0001
,
1000
1000
0001
0001
1000
0001
0010
0001
,
0100
0010
1000
0001
0100
0100
0000
0010
,
1000
0100
0001
0100
0010
0010
0000
0001
,
1000
0010
1000
0100
0010
0010
0000
0001
,
0010
0100
0000
0010
0100
0000
1000
0000
0001
0000
1000
0000
1001
0000
0000
0000
,
0020
0000
0000
0000
0001
0000
0000
0000
0032
0000
0000
1003
0000
0000
1000
0000
,
0010
1000
0100
0010
0001
0000
MMMM
0000
,
0200
0000
0000
0000
1000
0000
0000
0000
2300
0000
0000
3001
0000
0000
0001
0000
,
0100
0001
0010
0100
1000
0000
MMMM
0000
,
1000
0000
0000
0000
1000
0000
0000
0000
0010
0000
0000
0010
0000
0000
0000
0000
,
0100
0001
1000
0000
0001
0100
0010
0000
,
1000
0100
0010
0001
1000
0100
0010
0001
,
1000
0000
0100
0000
1001
0000
0010
0001
,
0100
0000
0010
1000
0100
0000
1000
0010
,
0100
0100
1100
0000
0101
0000
1100
0001
,
0100
0000
0000
0000
0010
0100
0000
0010
0100
0000
0001
0000
1000
0000
0001
0000
,
1001
0000
0000
0000
0010
0000
0000
0010
0001
0000
1000
0000
0100
0000
1000
0000
,
0010
0100
0001
0001
1000
1000
0010
0100
,
0010
0000
0000
0000
1000
0000
0000
0100
0010
0000
0001
0000
0010
0000
0100
0000
,
0010
0001
1000
1000
0001
0001
0100
0010
,
1000
0000
0001
0000
0100
0000
0000
0100
0001
0000
1000
0000
0010
0000
1000
0000
,
0100
0000
0010
0000
0001
0000
0001
0000
1000
0000
1000
0000
0010
0100
0010
0000
,
1000
0000
0001
0000
0100
0000
0010
0000
MMMM
0000
0000
0000
0100
0010
0100
0000
,
1000
0001
0010
0100
0000
1000
MMMM
0000
,
0000
0000
0100
0000
0010
0000
1000
0000
0001
0000
0100
0000
0010
0000
0000
0010
,
0000
MMMM
0001
0001
1000
1000
0100
0010
,
0001
0000
0100
0000
0001
0000
0010
0000
1000
0000
0010
0000
0001
0000
0000
0001
,
0000
0000
0100
0000
0000
0100
0000
0000
0010
0000
1000
0000
0001
0000
0000
0000
,
MMMM
0000
0010
0000
0100
0000
0001
0000
1000
0000
0010
0000
0100
0000
0000
0100
,
0000
MMMM
1000
1000
0001
0001
0010
0100
,
1000
0000
0010
0000
1000
0000
0100
0000
0001
0000
0100
0000
1000
0000
0000
1000
,
0000
0000
0010
0000
0000
0010
0000
0000
0100
0000
0001
0000
1000
0000
0000
0000
,
MMMM
0100
0000
0000
;

//---------------dance-single - ----------------
#NOTES:
     dance-single:
     :
     Hard:
     12:
     0.525223,0.514505,0.243481,0.158263,0.243481,302.000000,282.000000,20.000000,13.000000,0.000000,0.000000,0.525223,0.514505,0.243481,0.158263,0.243481,302.000000,282.000000,20.000000,13.000000,0.000000,0.000000:
0000
0000
0000
0000
,
0000
0000
0000
0000
,
0000
0000
0000
0000
,
0000
0000
0000
0000
,
0010
0100
0000
0010
0100
0000
1000
0000
0001
0000
1000
0000
1001
0000
0000
0000
,
1000
0000
0001
0000
0010
0000
0100
0000
1000
0010
1000
0000
0000
0000
0001
0000
,
1000
0000
0001
0000
0100
0000
0010
0000
1000
0100
1000
0000
0000
0000
0001
0000
,
0010
0000
1000
0000
0010
0000
0001
0000
0010
0100
0010
0000
0000
0000
0001
0000
,
1000
0000
1000
0000
0010
0000
0010
0000
0100
0001
1000
0000
0100
0000
1000
0000
,
0001
0000
1000
0000
0010
0000
0100
0000
0001
0010
0001
0000
0000
0000
1000
0000
,
0001
0000
1000
0000
0100
0000
0010
0000
0001
0100
0001
0000
0000
0000
1000
0000
,
0010
0000
0001
0000
0010
0000
1000
0000
0010
0100
0010
0000
0000
0000
1000
0000
,
0001
0010
0000
0001
0010
0000
0100
0000
1000
0000
0001
0000
1001
0000
0000
0000
,
2000
0000
3100
0000
2000
0000
3010
0000
2000
0000
3100
0010
0000
0000
0001
0000
,
1000
0000
0100
0000
0010
0000
0001
0000
1000
0000
0100
0000
1100
0000
0100
1000
,
0002
0000
0013
0000
0002
0000
0103
0000
0002
0000
0013
0100
0000
0000
1000
0000
,
0001
0000
0010
0000
0100
0000
1000
0000
0100
0010
0000
0100
0010
0000
0001
0000
,
2000
0000
0000
0000
0100
0000
0000
0000
0100
0000
0000
3100
0000
0000
1000
0000
,
0001
1000
0100
1000
0001
1000
0010
1000
,
0001
0010
0001
0000
1000
0100
1000
0000
0010
0100
0010
0000
1000
0000
0001
0000
,
1000
0000
0000
0000
0010
0000
0000
0000
0110
0000
0000
0001
0010
0000
0100
0000
,
0010
0000
1000
0000
0010
0000
0100
0000
0110
0000
0000
0010
0100
0000
1000
0000
,
0100
0000
0010
0000
0110
0000
0000
0000
0101
0000
0000
1000
0100
0000
1000
0000
,
0010
0000
1000
0000
0100
0010
0000
0100
0010
0000
0001
0000
1000
0000
0001
0000
,
1001
0000
0000
0000
0101
0000
0000
0100
0001
0000
1000
0000
0010
0000
0100
0000
,
0001
0000
0100
0000
0010
1000
0010
0000
1000
0000
0001
0000
0010
0100
1000
0001
,
0200
0000
0300
0000
1010
0000
0000
0010
1000
0000
0001
0000
0010
0000
0100
0000
,
1000
0000
0100
0000
0010
0001
0010
0000
0001
0000
1000
0000
0020
0000
0230
0000
,
0302
0000
1003
0000
1100
0000
0000
0100
1000
0000
0001
0000
0100
0000
0010
0000
,
1000
0000
0010
0000
0110
0000
0020
0000
0030
0000
1000
0000
0100
0010
0001
0000
,
0100
0000
0001
0000
1000
0000
0020
0000
0100
0000
0030
0000
1000
0010
1000
0000
,
0100
0001
0100
1000
0000
0100
0010
0010
,
0100
0000
0000
0000
1000
0000
0010
0000
0001
0000
0010
0000
1000
0000
0000
0110
,
0000
0010
1000
0100
0001
0100
1000
1000
,
0100
0000
0010
0000
0001
0000
0010
0000
1000
0000
0010
0000
0001
0000
0000
0110
,
0000
0000
1000
0000
0000
1010
0000
0000
0100
0000
0001
0000
1000
0000
0000
0000
,
1001
0000
0000
0000
1000
0000
0100
0000
0001
0000
0100
0000
1000
0000
0000
0110
,
0000
0100
1000
0010
0001
0010
1000
1000
,
0010
0000
0100
0000
0001
0000
0100
0000
1000
0000
0100
0000
0001
0000
0000
0110
,
0000
0000
1000
0000
0000
1100
0000
0000
0010
0000
0001
0000
1000
0000
0000
0000
,
1001
0100
0000
0000
;

//---------------dance-double - ----------------
#NOTES:
     dance-double:
     :
     Hard:
     12:
     0.511310,0.514505,0.219133,0.085218,0.231307,294.000000,276.000000,18.000000,7.000000,0.000000,0.000000,0.511310,0.514505,0.219133,0.085218,0.231307,294.000000,276.000000,18.000000,7.000000,0.000000,0.000000:
00000000
00000000
00000000
00000000
,
00000000
00000000
00000000
00000000
,
00000000
00000000
00000000
00000000
,
00000000
00000000
00000000
00000000
,
00000100
00010000
00000000
00000100
00010000
00000000
00001000
00000000
00000010
00000000
00000100
00000000
00000110
00000000
00000000
00000000
,
00001000
00000000
00000001
00000000
00000010
00000000
00000100
00000000
00001000
00000100
00001000
00000000
00000000
00000000
00000010
00000000
,
00010000
00000000
00000100
00000000
00001000
00000000
00000010
00000000
00010000
00001000
00010000
00000000
00000000
00000000
00001000
00000000
,
00100000
00000000
00010000
00000000
01000000
00000000
00010000
00000000
10000000
01000000
10000000
00000000
00000000
00000000
00010000
00000000
,
00100000
00000000
01000000
00000000
00100000
00000000
00001000
00000000
00010000
00001000
00010000
00000000
01000000
00000000
10000000
00000000
,
00010000
00000000
10000000
00000000
01000000
00000000
00100000
00000000
00010000
00100000
00010000
00000000
00000000
00000000
01000000
00000000
,
00001000
00000000
00100000
00000000
00010000
00000000
01000000
00000000
00001000
00010000
00001000
00000000
00000000
00000000
00010000
00000000
,
00000100
00000000
00001000
00000000
00000010
00000000
00001000
00000000
00000001
00000010
00000001
00000000
00000000
00000000
00001000
00000000
,
00000100
00000010
00000000
00000100
00000010
00000000
00000100
00000000
00010000
00000000
00001000
00000000
00011000
00000000
00000000
00000000
,
00100000
00000000
00010000
00000000
01000000
00000000
00001000
00000000
00010000
00000000
00000000
00011000
00000000
00000000
00000100
00000000
,
00001000
00000010
00000100
00001000
00010000
00000000
00011000
00000000
,
00000100
00000000
00001000
00000000
00000010
00000000
00010000
00000000
00001000
00000000
00000000
00011000
00000000
00000000
00100000
00000000
,
00010000
00000000
01000000
00000000
00100000
00000000
00010000
00000000
00001000
00010000
00000000
00001000
00010000
00000000
00000100
00000000
,
00020000
00000000
00000000
00000000
00001000
00000000
00000000
00000000
00001000
00000000
00000000
00031000
00000000
00000000
00010000
00000000
,
00001000
00010000
01000000
00010000
00001000
00010000
00001000
00000100
,
00000001
00000100
00000001
00000000
00000100
00000000
00000010
00000000
00001000
00000100
00001000
00000000
00000100
00000000
00000010
00000000
,
00000001
00000000
00000000
00000000
00001000
00000000
00000000
00000000
00011000
00000000
00000000
00001000
00000100
00000000
00001000
00000000
,
00010000
00000000
00001000
00000000
00000010
00000000
00001000
00000000
00011000
00000000
00000000
00100000
01000000
00000000
10000000
00000000
,
00010000
00000000
00010000
00000000
00101000
00000000
00000000
00000000
00010010
00000000
00000000
00001000
00100000
00000000
00001000
00000000
,
00010000
00000000
00000010
00000000
00001000
00000001
00000000
00001000
00000001
00000000
00000010
00000000
00000100
00000000
00001000
00000000
,
00001100
00000000
00000000
00000000
00000101
00000000
00000000
00000100
00000001
00000000
00001000
00000000
00000100
00000000
00001000
00000000
,
00000010
00000000
00000100
00000000
00000010
00001000
00000010
00000000
00010000
00000000
00001000
00000000
00100000
00010000
00100000
00010000
,
00200000
00000000
00300000
00000000
11000000
00000000
00000000
01000000
10000000
00000000
00010000
00000000
10000000
00000000
00100000
00000000
,
00010000
00000000
00100000
00000000
10000000
00100000
10000000
00000000
00010000
00000000
00100000
00000000
02000000
00000000
03200000
00000000
,
00320000
00000000
10030000
00000000
10100000
00000000
00000000
00100000
10000000
00000000
00010000
00000000
00100000
00000000
00010000
00000000
,
01000000
00000000
00100000
00000000
01100000
00000000
00200000
00000000
00300000
00000000
10000000
00000000
01000000
00100000
01000000
00000000
,
10000000
00000000
00010000
00000000
00100000
00000000
00002000
00000000
00010000
00000000
00003000
00000000
00000100
00010000
00001000
00000000
,
00100000
00001000
00010000
00000010
00000000
00001000
00000010
00010000
,
00000100
00000000
00000000
00000000
00001000
00000000
00000010
00000000
00000001
00000000
00000010
00000000
00000100
00000000
00000000
00000110
,
00000000
00000001
00001000
00000100
00010000
00000010
00001000
00000010
,
00010000
00000000
00001000
00000000
00100000
00000000
00001000
00000000
01000000
00000000
00010000
00000000
10000000
00000000
00000000
10000000
,
00000000
00000000
01000000
00000000
00000000
01000000
00000000
00000000
00100000
00000000
00010000
00000000
10000000
00000000
00000000
00000000
,
10010000
00000000
00000000
00000000
00010000
00000000
00100000
00000000
10000000
00000000
00100000
00000000
01000000
00000000
00000000
01100000
,
00000000
10000000
00010000
01000000
00001000
00100000
00010000
00100000
,
00001000
00000000
00010000
00000000
00000010
00000000
00010000
00000000
00000100
00000000
00001000
00000000
00000001
00000000
00000000
00000001
,
00000000
00000000
00000100
00000000
00000000
00000100
00000000
00000000
00000010
00000000
00001000
00000000
00000001
00000000
00000000
00000000
,
00001001
00000100
00000000
00000000
;

//---------------dance-double - ----------------
#NOTES:
     dance-double:
     :
     Challenge:
     11:
     0.406961,0.441005,0.060870,0.060870,0.115653,234.000000,229.000000,5.000000,5.000000,72.000000,0.000000,0.406961,0.441005,0.060870,0.060870,0.115653,234.000000,229.000000,5.000000,5.000000,72.000000,0.000000:
// measure 0
00000000
00000000
00000000
00000000
,  // measure 1
00000000
00000000
00000000
00000000
,  // measure 2
00000000
00000000
00000000
00000000
,  // measure 3
00000000
00000000
00000000
00000000
,  // measure 4
00010000
00000000
00000000
00010000
00001000
00000000
00010000
00000000
00001000
00000000
00000000
00000000
MMMMMMMM
00000000
00000000
00000000
,  // measure 5
00000100
00001000
00000010
00010000
00001000
00000000
00000000
00000010
,  // measure 6
00001000
00000010
00000001
00000100
00000010
00000000
00000000
00001000
,  // measure 7
00000100
00010000
00001000
00010000
00100000
00000000
00000000
01000000
,  // measure 8
00010000
00100000
01000000
00100000
00001000
00001000
00010000
00001000
,  // measure 9
01000000
00010000
00100000
00001000
00010000
00000000
00000000
00100000
,  // measure 10
00010000
00100000
10000000
01000000
00100000
00000000
00000000
00010000
,  // measure 11
01000000
00001000
00010000
00001000
00000010
00000000
00000000
00000100
,  // measure 12
00010000
00001000
00000000
00010000
00001000
00000000
00000010
00000000
00000001
00000000
00001000
00000000
00001001
00000000
00000000
00000000
,  // measure 13
00000200
00000000
00000000
00000000
00001000
00000000
00000000
00000000
00020300
00000000
00000000
00031000
00000000
00000000
00001000
00000000
,  // measure 14
00100000
00010000
01000000
00001000
00010000
00000000
MMMMMMMM
00000000
,  // measure 15
00200000
00000000
00000000
00000000
00010000
00000000
00000000
00000000
00302000
00000000
00000000
00013000
00000000
00000000
00010000
00000000
,  // measure 16
00000100
00001000
00000010
00010000
00001000
00000000
MMMMMMMM
00000000
,  // measure 17
00001000
00000000
00000000
00000000
00001000
00000000
00000000
00000000
00010000
00000000
00000000
00010000
00000000
00000000
00000000
00000000
,  // measure 18
00001000
01000000
00010000
00000000
01000000
00100000
10000000
00000000
,  // measure 19
00100000
01000000
00001000
00010000
01000000
00100000
00001000
00010000
,  // measure 20
00000010
00000000
00010000
00000000
00011000
00000000
00000100
00001000
,  // measure 21
00000010
00000000
00001000
00000100
00010000
00000000
00001000
00010000
,  // measure 22
00100000
00100000
01010000
00000000
00011000
00000000
00100000
00010000
,  // measure 23
01000000
00000000
00000000
00000000
00001000
00010000
00000000
00001000
00010000
00000000
01000000
00000000
10000000
00000000
00010000
00000000
,  // measure 24
10010000
00000000
00000000
00000000
10000000
00000000
00000000
10000000
01000000
00000000
00100000
00000000
00010000
00000000
01000000
00000000
,  // measure 25
00100000
00000000
10000000
00000000
00010000
01000000
00010000
00000000
00100000
00000000
00000000
00000000
00001000
00000000
00010000
00000000
,  // measure 26
00000100
00000000
00000000
00000000
00010000
00000000
00000000
00010000
00001000
00000000
00010000
00000000
00000100
00000000
00010000
00000000
,  // measure 27
00000010
00000000
00000100
00000000
00000001
00000100
00000001
00000000
00001000
00000000
00000000
00000000
00000100
00000000
00010000
00000000
,  // measure 28
00001000
00000000
00000100
00000000
00000010
00000000
00000000
00000010
00000100
00000000
00000010
00000000
00001000
00000000
00000100
00000000
,  // measure 29
00000010
00000001
00001000
00002000
00003000
00000001
00000100
00000100
,  // measure 30
00001000
00010000
00001000
00001000
MMMMMMMM
00000000
01000000
01000000
,  // measure 31
00010000
00001000
00010000
00010000
00000000
00000010
MMMMMMMM
00000000
,  // measure 32
00000000
00000000
00001000
00000000
00010000
00000000
00000100
00000000
00001000
00000000
00000010
00000000
00010000
00000000
00000000
00010000
,  // measure 33
00000000
MMMMMMMM
00100000
00010000
10000000
00010000
01000000
00001000
,  // measure 34
00010000
00000000
00000100
00000000
00001000
00000000
00000010
00000000
00000001
00000000
00000010
00000000
00001000
00000000
00000000
00001000
,  // measure 35
00000000
00000000
00000100
00000000
00000000
00000100
00000000
00000000
00000010
00000000
00000001
00000000
00001000
00000000
00000000
00000000
,  // measure 36
MMMMMMMM
00000000
00010000
00000000
00001000
00000000
00100000
00000000
00010000
00000000
01000000
00000000
00001000
00000000
00000000
00001000
,  // measure 37
00000000
MMMMMMMM
00000100
00001000
00000001
00001000
00000010
00010000
,  // measure 38
00001000
00000000
00100000
00000000
00010000
00000000
01000000
00000000
10000000
00000000
01000000
00000000
00010000
00000000
00000000
00010000
,  // measure 39
00000000
00000000
00100000
00000000
00000000
00100000
00000000
00000000
01000000
00000000
10000000
00000000
00010000
00000000
00000000
00000000
,  // measure 40
MMMMMMMM
00001000
00000000
00000000
;

//---------------dance-single - ----------------
#NOTES:
     dance-single:
     :
     Medium:
     8:
     0.326960,0.367504,0.170437,0.146088,0.012174,188.000000,174.000000,14.000000,12.000000,0.000000,0.000000,0.326960,0.367504,0.170437,0.146088,0.012174,188.000000,174.000000,14.000000,12.000000,0.000000,0.000000:
0000
0000
0000
0000
,
0000
0000
0000
0000
,
0000
0000
0000
0000
,
0000
0000
0000
0000
,
0010
0000
0010
0100
0010
0000
1001
0000
,
1000
0100
0001
0000
1000
1000
0000
0000
,
0010
1000
0100
0000
0010
0010
0000
0000
,
0100
1000
0010
0000
0100
0100
0000
0000
,
0001
1000
0100
0000
0100
0000
0110
0000
,
0001
0100
1000
0000
0001
0001
0000
0000
,
0010
0001
0100
0000
0010
0010
0000
0000
,
0100
0001
0010
0000
0100
0100
0000
0000
,
0010
0000
0010
0100
0010
0000
1001
0000
,
2000
0000
0000
0000
3100
0000
0000
0000
0002
0000
0000
0103
0000
0000
0000
0000
,
1000
0000
0100
0010
0002
0000
0003
0000
,
0002
0000
0000
0000
0013
0000
0000
0000
2000
0000
0000
3010
0000
0000
0000
0000
,
0001
0000
0010
0100
2000
0000
3000
0000
,
1000
1000
0010
0000
,
0001
0000
0100
0000
1000
0010
1000
0000
,
0001
0100
0010
0000
1000
0100
0010
0000
,
0001
0100
1001
0010
,
0010
0100
0100
0010
,
0100
0010
0110
0000
1000
0000
0001
0000
,
0001
0000
0010
0000
0010
0100
0010
0000
,
1001
0000
0101
0000
1010
0000
0100
0010
,
1000
0000
0002
0000
0003
0000
0100
0001
,
0001
0000
1000
0000
1000
0000
0100
0010
,
0001
0010
0100
0100
0010
0000
1000
1000
,
0001
0000
1100
0000
0011
0000
0100
0010
,
0001
0000
2000
0000
3000
0000
0100
1000
,
1000
0000
0110
0000
0000
0000
0100
0001
,
0001
0010
0100
0110
,
0000
0000
1000
0100
0001
0100
1000
0000
,
1000
0000
0010
0001
0010
1000
0010
0000
,
0100
0000
0001
0100
1000
0100
0001
0000
,
0001
0010
0100
2002
,
3003
0000
0001
0010
1000
0010
0001
0000
,
0001
0000
0100
1000
0100
0001
0100
0000
,
0010
0000
1000
0010
0001
0010
1000
0000
,
1000
0100
0010
2002
,
3003
0100
0000
0000
;

//---------------dance-single - ----------------
#NOTES:
     dance-single:
     :
     Easy:
     5:
     0.213915,0.245003,0.097392,0.060870,0.000000,123.000000,115.000000,8.000000,5.000000,0.000000,0.000000,0.213915,0.245003,0.097392,0.060870,0.000000,123.000000,115.000000,8.000000,5.000000,0.000000,0.000000:
0000
0000
0000
0000
,
0000
0000
0000
0000
,
0000
0000
0000
0000
,
0000
0000
0000
0000
,
0000
0000
0000
0000
,
0001
0001
0001
0000
,
0100
1000
0010
0000
,
1000
0100
0001
0000
,
1000
1000
0001
1001
,
1000
1000
1000
0000
,
0100
0001
0010
0000
,
0001
0100
1000
0000
,
0001
0001
0001
1000
,
0100
0100
0100
0000
,
1000
0001
0100
0000
,
0010
0010
0010
0000
,
0100
0001
0010
0000
,
0100
0100
0100
0000
,
1000
1000
1000
0000
,
0001
0010
0100
1000
,
0001
0000
0011
0100
,
0100
0010
0010
0100
,
2000
3000
1010
0100
,
0100
0001
0000
0001
,
1001
0100
1000
0010
,
1000
0100
0000
0100
,
0011
0001
1000
0100
,
1000
0001
0000
0001
,
1000
0010
1000
0100
,
1000
0010
0000
0010
,
0100
0100
0000
0001
,
0010
0010
0000
0110
,
0000
1000
0100
0001
,
0000
0001
0010
1000
,
0100
0001
0100
1000
,
0000
0100
0100
2002
,
3003
0001
0010
1000
,
0000
1000
0100
0001
,
0010
1000
0010
0001
,
0000
0010
0010
2002
,
3003
0100
0000
0000
;

//---------------dance-single - ----------------
#NOTES:
     dance-single:
     :
     Beginner:
     2:
     0.080001,0.122501,0.000000,0.024348,0.000000,46.000000,46.000000,0.000000,2.000000,0.000000,0.000000,0.080001,0.122501,0.000000,0.024348,0.000000,46.000000,46.000000,0.000000,2.000000,0.000000,0.000000:
0000
0000
0000
0000
,
0000
0000
0000
0000
,
0000
0000
0000
0000
,
0000
0000
0000
0000
,
0000
0000
0000
0000
,
1000
0000
0000
0000
,
1000
0000
0000
0000
,
0010
0000
0000
0000
,
0001
0000
0000
0000
,
0001
0000
0000
0000
,
0001
0000
0000
0000
,
0010
0000
0000
0000
,
1000
0000
0000
0000
,
0010
0000
0010
0000
,
0010
0000
0000
0000
,
0100
0000
0100
0000
,
0100
0000
0000
0000
,
0010
0000
0000
0000
,
0010
0000
0000
0000
,
0001
0000
0001
0000
,
0001
0000
0000
0100
,
0000
1000
0000
0100
,
0000
1000
0000
1000
,
0000
1000
0000
0000
,
0000
0100
0000
0100
,
0000
0100
0000
0000
,
0000
1000
0000
1000
,
0000
1000
0000
0000
,
0000
0010
0000
0010
,
0000
0010
0000
0000
,
0000
0001
0000
0000
,
0000
0002
0000
0003
,
0000
0100
0000
0000
,
0000
0100
0000
0000
,
0000
1000
0000
0000
,
0000
1000
0000
1000
,
0000
0001
0000
0000
,
0000
0001
0000
0000
,
0000
0100
0000
0000
,
0000
0100
0000
0200
,
0000
0300
0000
0000
;

//---------------dance-double - ----------------
#NOTES:
     dance-double:
     :
     Medium:
     8:
     0.332177,0.367504,0.194785,0.073044,0.012174,191.000000,175.000000,16.000000,6.000000,0.000000,0.000000,0.332177,0.367504,0.194785,0.073044,0.012174,191.000000,175.000000,16.000000,6.000000,0.000000,0.000000:
00000000
00000000
00000000
00000000
,
00000000
00000000
00000000
00000000
,
00000000
00000000
00000000
00000000
,
00000000
00000000
00000000
00000000
,
00001000
00000000
00001000
00010000
00001000
00000000
00011000
00000000
,
00010000
00001000
00000010
00000000
00000001
00000000
00000000
00000000
,
00000010
00000100
00001000
00000000
00000010
00000000
00000000
00000000
,
00001000
00000100
00010000
00000000
00001000
00000000
00000000
00000000
,
00010000
00001000
00010000
00000000
00001000
00000000
00011000
00000000
,
00001000
00010000
00100000
00000000
10000000
00000000
00000000
00000000
,
00100000
01000000
00010000
00000000
00100000
00000000
00000000
00000000
,
00010000
01000000
00001000
00000000
00010000
00000000
00000000
00000000
,
00010000
00000000
00010000
00001000
00010000
00000000
00011000
00000000
,
00000100
00000000
00000000
00000000
00010000
00000000
00000000
00000000
00001000
00000000
00000000
00001000
00000000
00000000
00000000
00000000
,
00100000
00010000
01000000
00001000
00010000
00000000
00011000
00000000
,
01000000
00000000
00000000
00000000
00001000
00000000
00000000
00000000
00010000
00000000
00000000
00010000
00000000
00000000
00000000
00000000
,
00000010
00001000
00000100
00010000
00001000
00000000
00011000
00000000
,
00001000
00001000
00001000
00000000
,
00010000
00010000
01000000
01000000
,
10000000
01000000
00010000
00000000
00001000
00000100
00000001
00000000
,
00001000
00000001
00000110
00001000
,
00001000
00010000
00010000
00001000
,
00010000
01000000
10000000
00000000
01100000
00000000
00010000
00000000
,
00010000
00000000
00001000
00000000
00001000
00010000
00001000
00000000
,
00011000
00000000
00001010
00000000
00000101
00000000
00001000
00000100
,
00000010
00000000
00000200
00000000
00000300
00000000
00010000
00001000
,
00010000
00000000
00001000
00000000
00001000
00000000
00010000
00100000
,
01000000
00100000
00010000
00010000
00001000
00000000
00100000
00100000
,
00010000
00000000
00110000
00000000
11000000
00000000
00010000
01000000
,
00100000
00000000
20000000
00000000
30000000
00000000
00010000
00100000
,
01000000
00000000
11000000
00000000
00000000
00000000
01000000
00010000
,
00001000
00010000
00001000
00011000
,
00000000
00000000
00010000
00001000
00000010
00001000
00010000
00000000
,
00010000
00000000
00100000
00010000
00001000
00010000
00001000
00000010
,
00000001
00000000
00001000
00000010
00000100
00000001
00001000
00000000
,
00001000
00000000
00000100
00010000
00001000
00000000
00022000
00000000
,
00033000
00000000
00001000
00010000
01000000
00010000
00001000
00000000
,
00001000
00000000
00000100
00001000
00010000
00001000
00010000
01000000
,
10000000
00000000
00010000
01000000
00100000
10000000
00010000
00000000
,
00010000
00000000
00100000
00001000
00010000
00000000
00022000
00000000
,
00033000
00001000
00000000
00000000
;

//---------------dance-double - ----------------
#NOTES:
     dance-double:
     :
     Easy:
     5:
     0.215654,0.245003,0.109566,0.060870,0.000000,124.000000,115.000000,9.000000,5.000000,0.000000,0.000000,0.215654,0.245003,0.109566,0.060870,0.000000,124.000000,115.000000,9.000000,5.000000,0.000000,0.000000:
00000000
00000000
00000000
00000000
,
00000000
00000000
00000000
00000000
,
00000000
00000000
00000000
00000000
,
00000000
00000000
00000000
00000000
,
00000000
00000000
00000000
00000000
,
00010000
00010000
00010000
00000000
,
00001000
00001000
00000010
00000000
,
00000001
00000001
00000010
00000000
,
00000100
00000100
00010000
00011000
,
00001000
00001000
00001000
00000000
,
00010000
00010000
00100000
00000000
,
10000000
10000000
00100000
00000000
,
01000000
01000000
00001000
00011000
,
00001000
00001000
00001000
00000000
,
00010000
00001000
00000010
00000000
,
00000001
00000001
00000001
00000000
,
00000010
00001000
00010000
00000000
,
00001000
00001000
00001000
00000000
,
00100000
00100000
00100000
00000000
,
01000000
01000000
10000000
00010000
,
10000000
00000000
10010000
00100000
,
00100000
00010000
00010000
00001000
,
00000200
00000300
00001001
00000010
,
00000010
00001000
00000000
00010000
,
00011000
00100000
00010000
01000000
,
00001000
00010000
00000000
00010000
,
00011000
00000100
00001000
00000010
,
00010000
00001000
00000000
00001000
,
00010000
00000010
00001000
00000100
,
00010000
00001000
00000000
00001000
,
00010000
00100000
00000000
00100000
,
00010000
00001000
00000000
00011000
,
00000000
00000100
00000100
00000100
,
00000000
00010000
00001000
00010000
,
00001000
01000000
01000000
01000000
,
00000000
00010000
00100000
02200000
,
03300000
00100000
00100000
00100000
,
00000000
00001000
00010000
00001000
,
00010000
00000010
00000010
00000010
,
00000000
00001000
00000100
00000220
,
00000330
00000001
00000000
00000000
;
