#TITLE:M.I.L.F;
#SUBTITLE:;
#ARTIST:Kawai Sprite;
#TITLETRANSLIT:;
#SUBTITLETRANSLIT:;
#ARTISTTRANSLIT:;
#GENRE:Friday Night Funkin';
#CREDIT:;
#BANNER:M.I.L.F.png;
#BACKGROUND:../bg.png;
#LYRICSPATH:;
#CDTITLE:../cdtitle.png;
#MUSIC:M.I.L.F.ogg;
#OFFSET:-1.338000;
#SAMPLESTART:24.002001;
#SAMPLELENGTH:15.000000;
#SELECTABLE:YES;
#BPMS:0.000000=180.000000
;
#STOPS:
;
#BGCHANGES: -9.000=M.I.L.F.avi=1.000=0=0=0=StretchNoLoop====,
99999=-nosongbg-=1.000=0=0=0 // don't automatically add -songbackground-
;
#KEYSOUNDS:;
#ATTACKS:;

//---------------dance-single - ----------------
#NOTES:
     dance-single:
     :
     Hard:
     16:
     0.815894,0.934597,0.056150,0.561500,0.497329,712.000000,705.000000,7.000000,70.000000,0.000000,0.000000,0.815894,0.934597,0.056150,0.561500,0.497329,712.000000,705.000000,7.000000,70.000000,0.000000,0.000000:
// measure 0
0000
0000
0000
0000
,  // measure 1
1100
0000
0000
0000
0100
0000
0000
0000
0100
1000
0001
0010
0200
0000
1300
0000
,  // measure 2
0100
1000
0100
1000
0010
1000
0100
1000
,  // measure 3
0010
0000
0000
0000
0010
0000
0000
0000
0010
1000
0001
0100
0020
0000
1030
0000
,  // measure 4
0100
0000
1000
0000
0100
0000
1000
0000
0001
0000
0010
0000
0100
1000
0010
0000
,  // measure 5
0100
0000
0000
0000
0100
0000
0000
0000
0100
0001
1000
0010
0200
0000
0301
0000
,  // measure 6
0100
0001
0100
0001
0010
0001
0100
0001
,  // measure 7
0010
0000
0000
0000
0010
0000
0000
0000
0010
0001
1000
0100
0020
0000
0031
0000
,  // measure 8
0100
0000
0001
0000
0100
0000
0001
0000
1000
0000
0010
0000
0100
0001
0010
0000
,  // measure 9
0200
0000
0010
0000
0310
0000
0100
2000
,  // measure 10
0010
3000
1000
0002
0013
0001
1000
0002
,  // measure 11
0103
0000
0010
0100
0020
0000
0000
0000
2030
0000
0000
0000
3001
0000
0000
0000
,  // measure 12
0010
0000
0100
0000
1000
0000
1000
0000
0100
0000
0100
0000
0010
0001
0010
0001
,  // measure 13
0200
0000
0010
0000
0310
0000
0100
0002
,  // measure 14
0010
0003
0001
2000
3010
1000
0001
2000
,  // measure 15
3100
0000
0010
0100
0020
0000
0000
0000
0032
0000
0000
0000
1003
0000
0000
0000
,  // measure 16
0010
0000
0100
0000
0010
0000
0100
0000
0001
1000
0001
1000
0010
0100
0001
1000
,  // measure 17
0100
0010
0100
0010
0001
0000
0010
0000
0100
0000
1000
0010
0000
1000
0010
0000
,  // measure 18
0100
0000
0010
0000
1000
0000
0100
0000
0010
0000
0001
0100
0000
0001
0100
0000
,  // measure 19
0010
0000
1000
0001
1000
0000
0100
0000
0010
0000
1000
0010
0000
0001
0020
0000
,  // measure 20
0130
0000
1000
0000
0001
0000
1000
0000
0100
0000
0010
0100
0010
0000
0001
0000
,  // measure 21
0010
0100
0010
0100
1000
0000
0100
0000
0010
0000
0001
0100
0000
0001
0100
0000
,  // measure 22
0010
0000
0100
0000
0001
0000
0010
0000
0100
0000
1000
0010
0000
1000
0010
0000
,  // measure 23
0100
0000
0001
1000
0001
0000
0010
0000
0100
0000
0001
0100
0000
1000
0100
0000
,  // measure 24
0110
0000
1000
0000
1010
0000
0001
0000
0011
0000
0010
0100
1000
0000
0001
0000
,  // measure 25
2000
0000
0010
0000
3100
0000
1000
0001
,  // measure 26
0200
0000
0000
0000
2300
0000
0000
0000
3002
0000
0000
0000
0013
1000
0001
0000
,  // measure 27
1000
0100
1000
0010
0001
1000
0001
0010
,  // measure 28
1000
0100
0001
0100
2000
0000
3002
0000
,  // measure 29
2003
0000
0100
0000
3010
0000
1000
0001
,  // measure 30
0020
0000
0000
0000
2030
0000
0000
0000
3002
0000
0000
0000
0103
1000
0001
0000
,  // measure 31
1000
0010
1000
0100
0001
1000
0001
0100
,  // measure 32
1000
0000
1000
0000
0001
0000
0001
0000
0010
0001
0010
0001
1000
0100
1000
0001
,  // measure 33
0020
0000
0130
0010
0000
0100
0010
0002
,  // measure 34
0100
0003
0001
2000
3100
1000
0001
2000
,  // measure 35
3010
0000
0100
0010
0200
0000
0000
0000
0302
0000
0000
0000
1003
0000
0000
0000
,  // measure 36
0100
0010
0001
0001
0010
0010
0100
1000
,  // measure 37
0020
0000
0100
0000
0130
0000
0010
2000
,  // measure 38
0100
3000
1000
0002
0103
0001
1000
0002
,  // measure 39
0013
0000
0100
0010
0200
0000
0000
0000
2300
0000
0000
0000
3001
0000
0000
0000
,  // measure 40
0100
0010
0100
0010
1000
0100
0010
0001
,  // measure 41
0100
0000
0010
0000
0100
0000
0010
0000
0001
0000
0010
0000
1000
0010
1000
0000
,  // measure 42
0100
0000
0010
0000
0100
0000
0010
0000
1000
0000
0010
0000
0001
0010
0001
0000
,  // measure 43
1000
0100
1000
0000
0100
0010
0100
0000
1000
0100
1000
0000
0100
0010
0100
0000
,  // measure 44
1000
0100
1000
0000
0100
0001
0100
0000
0010
0100
1000
0000
0100
0010
0001
0000
,  // measure 45
0010
0000
0100
0000
0010
0000
0100
0000
0001
0000
0100
0000
1000
0100
1000
0000
,  // measure 46
0010
0000
0100
0000
0010
0000
0100
0000
1000
0000
0100
0000
0001
0100
0001
0000
,  // measure 47
1000
0010
1000
0000
0010
0100
0010
0000
1000
0010
1000
0000
0010
0100
0010
0000
,  // measure 48
1000
0010
1000
0000
0010
0001
0010
0000
0100
0010
1000
0000
0010
0100
0001
0000
,  // measure 49
0100
0010
0100
0010
1000
0000
0010
0000
0100
0000
0001
0010
0000
0001
0010
0000
,  // measure 50
0100
0000
0010
0000
0001
0000
0100
0000
0010
0000
1000
0100
0000
1000
0100
0000
,  // measure 51
0010
0000
0001
1000
0001
0000
0100
0000
0010
0000
0001
0010
0000
1000
0010
0000
,  // measure 52
1000
0000
0100
0000
0010
0100
0010
0000
0001
0000
0001
0010
0100
0000
1000
0000
,  // measure 53
0100
0010
0100
0010
0001
0000
0010
0000
0100
0000
1000
0010
0000
1000
0010
0000
,  // measure 54
0100
0000
0010
0000
1000
0000
0100
0000
0010
0000
0001
0100
0000
0001
0100
0000
,  // measure 55
0010
0000
1000
0001
1000
0000
0100
0000
0010
0000
1000
0010
0000
0001
0010
0000
,  // measure 56
0100
0000
0100
0000
1000
0000
1000
0000
0100
0010
0100
0010
0001
0100
0010
1000
,  // measure 57
0002
0000
0100
0000
0013
0000
0001
1000
,  // measure 58
0020
0000
0000
0000
0032
0000
0000
0000
2003
0000
0000
0000
3100
0001
1000
0000
,  // measure 59
0001
0010
0001
0100
1000
0001
1000
0100
,  // measure 60
0001
0010
1000
0010
0002
0000
2003
0000
,  // measure 61
3002
0000
0010
0000
0103
0000
0001
1000
,  // measure 62
0200
0000
0000
0000
0302
0000
0000
0000
2003
0000
0000
0000
3010
0001
1000
0000
,  // measure 63
0001
0100
0001
0010
1000
0001
1000
0010
,  // measure 64
0011
0000
0000
0000
0011
0000
0000
0000
1010
0000
0000
0000
0100
0001
1000
0000
,  // measure 65
0100
0000
0000
0000
0100
0000
0000
0000
0100
0000
1000
0001
0020
0000
0130
0000
,  // measure 66
1000
0000
0001
0000
1000
0000
0100
0000
1000
0000
0010
0100
0020
0000
0000
0000
,  // measure 67
0130
0000
0000
0000
0100
0000
0000
0000
0100
0000
0001
1000
0020
0000
0031
0000
,  // measure 68
0010
0000
0100
0000
0010
0000
1000
0000
0100
0000
0010
0001
1000
0000
0100
0000
,  // measure 69
0010
0000
0000
0000
0010
0000
0000
0000
0010
0000
0001
1000
0200
0000
0310
0000
,  // measure 70
0001
0000
1000
0000
0001
0000
0010
0000
0001
0000
0100
0010
0200
0000
0000
0000
,  // measure 71
0310
0000
0000
0000
0010
0000
0000
0000
0010
0000
1000
0001
0200
0000
1300
0000
,  // measure 72
0100
0000
0010
0000
0100
0000
0001
0000
0010
0000
0100
1000
0001
0000
0010
0000
,  // measure 73
0200
0000
0010
0000
0310
0000
0100
2000
,  // measure 74
0010
3000
1000
0002
0013
0001
1000
0002
,  // measure 75
0103
0000
0010
0100
0020
0000
0000
0000
2030
0000
0000
0000
3001
0000
0000
0000
,  // measure 76
0010
0000
0010
0000
0100
0000
0100
0000
1000
0000
1000
0000
0100
0010
0001
0000
,  // measure 77
0200
0000
0010
0000
0310
0000
0100
0002
,  // measure 78
0010
0003
0001
2000
3010
1000
0001
2000
,  // measure 79
3100
0000
0010
0100
0020
0000
0000
0000
0032
0000
0000
0000
1003
0000
0000
0000
,  // measure 80
0010
0010
0100
0100
0001
0001
0100
0010
,  // measure 81
1000
0010
0100
0002
0000
0000
1003
0000
0010
0000
0000
0010
0000
0000
0100
0000
,  // measure 82
0000
0000
0001
0000
0010
0000
1000
0000
0010
0000
0000
0010
0000
0000
0001
0000
,  // measure 83
0000
0001
0100
0010
1000
0000
0000
0100
0010
0000
0000
0010
0000
0000
0001
0000
,  // measure 84
0000
0000
0100
0000
0010
1000
0010
0000
0100
0000
0001
0010
0100
0000
1000
0000
,  // measure 85
0001
0010
0100
2000
0000
0000
3001
0000
0010
0000
0000
0010
0000
0000
0100
0000
,  // measure 86
0000
0000
1000
0000
0010
0000
0001
0000
0010
0000
0000
0010
0000
0000
1000
0000
,  // measure 87
0000
1000
0100
0010
0001
0000
0000
0100
0010
0000
0000
0010
0000
0000
1000
0000
,  // measure 88
0000
0000
0100
0000
0010
0001
0010
0000
0100
0000
1000
0010
0100
0000
0001
0000
,  // measure 89
0020
0000
0000
0000
0000
0030
0000
0000
;

//---------------dance-single - ----------------
#NOTES:
     dance-single:
     :
     Medium:
     12:
     0.578689,0.647029,0.120321,0.633693,0.048129,505.000000,490.000000,15.000000,79.000000,0.000000,0.000000,0.578689,0.647029,0.120321,0.633693,0.048129,505.000000,490.000000,15.000000,79.000000,0.000000,0.000000:
0000
0000
0000
0000
,
0100
0000
0100
0000
0100
1000
0002
0013
,
0000
0010
0000
0010
0100
1000
0001
0100
,
0010
0000
0010
0000
0010
1000
0002
0103
,
0000
0100
0000
0100
0010
1000
0001
0001
,
0010
0000
0010
0000
0010
0001
2000
3100
,
0000
0100
0000
0100
0010
0001
1000
0010
,
0100
0000
0100
0000
0100
0001
2000
3010
,
0000
0010
0000
0010
0100
0001
1000
0001
,
2000
0000
0000
0000
3000
0000
1000
0002
,
0000
0003
0000
0020
0030
0100
0000
2000
,
0000
3001
0200
0000
0302
0000
1003
0000
,
0010
0100
0010
0100
0001
0100
0010
0100
,
0002
0000
1000
0000
1003
0000
1000
0200
,
0000
1300
0000
0020
0030
0100
0000
0002
,
0000
1003
0200
0000
2300
0000
3001
0000
,
0010
0100
0010
0100
1000
0100
0001
0100
,
1000
0000
0010
0000
0100
0000
0001
0000
0010
0000
0000
0010
0000
0000
0010
0000
,
0000
0000
0001
0000
1000
0000
0100
0000
0010
0000
0000
0010
0000
0000
0010
0000
,
0001
0000
0100
0000
0010
0000
1000
0000
0001
0000
0000
0001
0000
0000
0002
0000
,
0000
0103
0001
0100
0010
1000
0100
0010
,
0001
0000
0010
0000
0100
0000
1000
0000
0010
0000
0000
0010
0000
0000
0010
0000
,
0000
0000
1000
0000
0001
0000
0100
0000
0010
0000
0000
0010
0000
0000
0010
0000
,
1000
0000
0100
0000
0010
0000
0001
0000
1000
0000
0000
1000
0000
0000
0002
0000
,
0103
0010
0100
0010
1000
0100
0010
0001
,
2000
0000
0100
0000
3100
0000
1000
0001
,
0020
0000
2030
0000
3200
0000
0301
1000
,
0100
0010
0100
0010
0001
0100
0001
0100
,
0010
1000
0100
0010
0002
0000
0203
0000
,
0302
0000
0010
0000
0013
0000
0001
1000
,
0200
0000
0302
0000
0023
0000
1030
0001
,
0010
0100
0010
0100
1000
0010
1000
0010
,
0100
0100
0100
0100
0200
0000
0302
0000
,
2003
0000
0000
0000
3000
0000
1000
0002
,
0000
0003
0000
0020
0030
0100
0000
2000
,
0000
3001
0200
0000
0302
0000
1003
0000
,
0010
0100
0010
0100
0001
0100
0010
0100
,
0002
0000
1000
0000
1003
0000
1000
0200
,
1000
0300
1000
0020
0030
0100
0000
0002
,
0000
1003
0200
0000
2300
0000
3001
0000
,
0010
0100
0010
0100
1000
0100
0001
0100
,
1000
0100
1000
0100
0010
0100
1000
0001
,
1000
0010
1000
0010
0100
0010
1000
0001
,
0011
0011
0101
0101
,
1100
0000
1100
0000
1010
0000
0010
1000
,
0001
0100
0001
0100
0010
0100
0001
1000
,
0001
0010
0001
0010
0100
0010
0001
1000
,
1010
1010
1100
1100
,
0010
0000
0010
0000
0010
0100
0010
0100
,
1000
0000
0100
0000
0010
0000
0001
0000
0100
0000
0000
0100
0000
0000
0100
0000
,
0001
0000
1000
0000
0010
0000
0100
0000
0010
0000
0000
0010
0000
0000
0010
0000
,
0000
0000
1000
0000
0100
0000
0010
0000
0001
0000
0000
0001
0000
0000
0100
0000
,
0010
0100
0010
0100
1000
0100
0001
0000
,
0001
0000
0100
0000
0010
0000
1000
0000
0100
0000
0000
0100
0000
0000
0100
0000
,
1000
0000
0001
0000
0010
0000
0100
0000
0010
0000
0000
0010
0000
0000
0010
0000
,
0000
0000
0001
0000
0100
0000
0010
0000
1000
0000
0000
1000
0000
0000
0100
0000
,
0010
0100
0010
0100
0001
0100
1000
0001
,
2000
0000
0100
0000
3100
0000
1000
0001
,
0020
0000
2030
0000
3200
0000
0301
1000
,
0100
0010
0100
0010
0001
0100
0001
0100
,
0010
1000
0100
0010
0002
0000
0203
0000
,
0302
0000
0010
0000
0013
0000
0001
1000
,
0200
0000
0302
0000
0023
0000
1030
0001
,
0010
0100
0010
0100
1000
0010
1000
0010
,
1010
1010
0011
0011
,
0100
0000
0100
0000
0100
1000
0002
0013
,
0000
0010
0000
0010
0000
0100
2000
0000
,
3010
0000
0010
0000
0010
0100
0002
1003
,
0100
0010
0100
0010
1000
0010
0001
0100
,
0010
0000
0010
0000
0010
1000
0002
0103
,
0000
0100
0000
0100
0000
0010
2000
0000
,
3100
0000
0100
0000
0100
0010
0002
1003
,
0010
0100
0010
0100
1000
0100
0001
0010
,
0002
0000
0010
0000
0013
0000
0001
0010
,
0002
0003
0100
0020
0030
1000
0000
0200
,
0000
0310
0200
0000
2300
0000
3001
0000
,
0100
0010
0100
0010
1000
0100
0010
0100
,
2000
0000
0010
0000
3010
0000
1000
0200
,
0000
0310
0000
0002
0003
0100
0000
0020
,
0000
0130
0020
0000
2030
0000
3001
0000
,
0010
0100
0010
0100
1000
0010
0100
0010
,
2000
0000
3100
0000
,
0200
0000
0301
0000
,
0002
0000
0013
0000
,
0020
0000
1030
0000
,
0002
0000
0013
0000
,
0020
0000
1030
0000
,
2000
0000
3100
0000
,
0200
0000
0301
0000
,
0020
0000
0000
0000
0000
0030
0000
0000
;

//---------------dance-single - ----------------
#NOTES:
     dance-single:
     :
     Easy:
     8:
     0.402218,0.503245,0.208557,0.312836,0.000000,351.000000,325.000000,26.000000,39.000000,0.000000,0.000000,0.402218,0.503245,0.208557,0.312836,0.000000,351.000000,325.000000,26.000000,39.000000,0.000000,0.000000:
0000
0000
0000
0000
,
1000
1000
1000
1000
,
0001
0001
0001
0001
,
0100
0100
0100
0100
,
0010
0000
0010
0000
0010
0000
0010
1000
,
0001
0101
0001
0011
,
0001
0101
0001
1001
,
1000
1100
1000
1010
,
0100
0100
0010
0010
,
2000
0000
3100
0000
,
0020
0030
0001
0000
,
2000
3000
0002
0003
,
0100
0010
0100
0010
,
2000
0010
3010
0010
,
0002
0010
0013
0010
,
1000
0100
0001
0100
,
1000
0000
1000
0000
1000
0001
1000
0001
,
1000
0100
0010
0011
,
0000
0001
0100
0001
,
1000
0010
0100
0100
,
2000
3100
0002
0103
,
0001
0010
0100
1100
,
0000
1000
0010
1000
,
0001
0100
0010
0010
,
0011
0011
1010
1010
,
0002
1000
1003
0001
,
1000
0100
0001
0100
,
1000
0010
1000
0010
,
0100
0001
0010
0100
,
2000
0001
3001
1000
,
0001
0010
1000
0010
,
0001
0100
0001
0100
,
0010
0010
0010
0000
2000
0000
3002
0000
,
2003
0000
3010
0000
,
0200
0300
0001
0000
,
2000
3000
0002
0003
,
0010
0100
0010
0100
,
2000
0100
3100
0100
,
0002
0100
0103
0100
,
1000
0010
0001
0010
,
1000
0000
0000
0000
,
0001
0001
0001
0001
,
1000
1000
1000
1000
,
0100
0100
0100
0100
,
0110
0110
0110
0110
,
1000
1000
1000
1000
,
0001
0001
0001
0001
,
0010
0010
0010
0010
,
0100
0000
0000
0000
,
1000
0100
0010
0011
,
0000
0001
0100
0001
,
1000
0010
0100
0100
,
2000
3100
0002
0103
,
0001
0010
0100
1100
,
0000
1000
0010
1000
,
0001
0100
0010
0010
,
1000
1000
1000
0000
0001
0100
0001
0000
,
2000
0000
3100
0000
,
0010
0010
0001
0000
,
1000
0010
0001
0010
,
1000
0100
0001
0100
,
2000
0000
3010
0000
,
0100
0100
0001
0000
,
1000
0100
0001
0100
,
1100
1100
0101
0101
,
0010
0000
0010
0000
0010
0100
0010
0000
,
1000
1000
1000
0002
,
0103
0000
0100
0000
0100
0010
0100
0000
,
0001
0100
0001
0000
1000
0000
0100
0010
,
0100
0000
0100
0000
0100
0010
0100
0000
,
1000
1000
1000
0002
,
0013
0000
0010
0000
0010
0100
0010
0000
,
0011
0011
1010
1010
,
2000
0100
3100
1000
,
0020
0130
0200
0310
,
1000
0100
0001
0100
,
1000
0000
0010
0000
1000
0000
0010
0100
,
0002
0010
0013
0001
,
0200
0310
0020
0130
,
0001
0010
1000
0010
,
0001
0010
0001
0000
1000
0100
1000
0001
,
2000
0000
3010
0000
,
0200
0000
0310
0000
,
0002
0000
0013
0000
,
0200
0000
0310
0000
,
2000
0000
3100
0000
,
0020
0000
0130
0000
,
0002
0000
0103
0000
,
0020
0000
0130
0000
,
2000
0000
0000
0000
0000
3000
0000
0000
;

//---------------dance-single - ----------------
#NOTES:
     dance-single:
     :
     Beginner:
     4:
     0.183347,0.251622,0.000000,0.136364,0.000000,160.000000,160.000000,0.000000,17.000000,0.000000,0.000000,0.183347,0.251622,0.000000,0.136364,0.000000,160.000000,160.000000,0.000000,17.000000,0.000000,0.000000:
0000
0000
0000
0000
,
0000
0000
0000
0000
,
0000
0000
0000
0000
,
0000
0000
0000
0000
,
0000
0000
0000
0000
,
1000
0000
1000
0000
,
1000
0000
1000
0000
,
0001
0000
0001
0000
,
0001
0000
0001
0000
,
2000
0000
0000
0000
,
0000
0000
0000
0000
,
3000
0000
0000
0000
,
0000
0000
0000
0000
,
0002
0000
0003
0000
,
0001
0000
0001
0000
,
0010
0000
0100
0000
,
1000
1000
1000
0000
,
0001
0001
0001
0000
,
0010
0000
0001
0000
,
0100
0000
1000
0000
,
0010
0000
0010
0000
,
1000
1000
1000
0000
,
0100
0000
1000
0000
,
0010
0000
0001
0000
,
0100
0100
0100
0000
,
0020
0000
0030
0000
,
0100
0000
0010
0000
,
0100
0100
0100
0000
,
0100
0100
0100
0000
,
0002
0000
0003
0000
,
1000
0000
0001
0000
,
1000
1000
1000
0000
,
1000
1000
1000
0000
,
0020
0000
0030
0000
,
2000
0000
3000
0000
,
0100
0000
0100
0000
,
0001
0000
0100
0000
,
0002
0000
0003
0000
,
0020
0000
0030
0000
,
1000
0000
1000
0000
,
0100
0000
0000
0000
,
1000
1000
1000
0000
,
1000
1000
1000
0000
,
0010
0000
0010
0000
,
0100
0000
0010
0000
,
0001
0001
0001
0000
,
0001
0001
0001
0000
,
0010
0000
0010
0000
,
0100
0000
0000
0000
,
1000
1000
1000
0000
,
0100
0000
1000
0000
,
0010
0000
0001
0000
,
0100
0000
0100
0000
,
0001
0001
0001
0000
,
0010
0000
0001
0000
,
0100
0000
1000
0000
,
0010
0010
0010
0000
,
0200
0000
0300
0000
,
0010
0000
0100
0000
,
0010
0010
0010
0000
,
0010
0010
0010
0000
,
2000
0000
3000
0000
,
0001
0000
1000
0000
,
0001
0001
0001
0000
,
0001
0001
0001
0000
,
1000
0000
1000
0000
,
1000
0000
1000
0000
,
0001
0000
0001
0000
,
0001
0001
0001
0000
,
0010
0000
0010
0000
,
0010
0000
0010
0000
,
0100
0000
0100
0000
,
0100
0100
0100
0000
,
0020
0000
0030
0000
,
1000
0000
1000
0000
,
0100
0000
0100
0000
,
0100
0100
0100
0000
,
2000
0000
3000
0000
,
0010
0000
0010
0000
,
0001
0000
1000
0000
,
0001
0001
0001
0000
,
2000
0000
0000
0000
,
3000
0000
0000
0000
,
0200
0000
0000
0000
,
0300
0000
0000
0000
,
0020
0000
0000
0000
,
0030
0000
0000
0000
,
0002
0000
0000
0000
,
0003
0000
0000
0000
,
2000
0000
0000
0000
0000
3000
0000
0000
;

//---------------dance-single - FNF Hard----------------
#NOTES:
     dance-single:
     :
     Edit:
     16:
     0.688697,0.898651,0.000000,0.649736,0.489307,601.000000,601.000000,0.000000,81.000000,0.000000,0.000000,0.688697,0.898651,0.000000,0.649736,0.489307,601.000000,601.000000,0.000000,81.000000,0.000000,0.000000:
// measure 0
0000
0000
0000
0000
,  // measure 1
0100
0000
0000
0000
0000
0000
0000
0000
0100
0000
0000
0000
0000
0000
0000
0000
0100
0000
1000
0000
0001
0000
0020
0000
0000
0030
0000
0000
0100
0000
0000
0000
,  // measure 2
0000
0100
0000
0100
0001
0100
1000
0100
,  // measure 3
0100
0000
0000
0000
0000
0000
0000
0000
0100
0000
0000
0000
0000
0000
0000
0000
0100
0000
1000
0000
0001
0000
0020
0000
0000
0030
0000
0000
0100
0000
0000
0000
,  // measure 4
0000
0000
0100
0000
0000
0000
0100
0000
0001
0000
0100
0000
0010
0001
1000
0000
,  // measure 5
0100
0000
0000
0000
0000
0000
0000
0000
0100
0000
0000
0000
0000
0000
0000
0000
0100
0000
1000
0000
0001
0000
0020
0000
0000
0030
0000
0000
0100
0000
0000
0000
,  // measure 6
0000
0100
0000
0100
0001
0100
1000
0100
,  // measure 7
0100
0000
0000
0000
0000
0000
0000
0000
0100
0000
0000
0000
0000
0000
0000
0000
0100
0000
1000
0000
0001
0000
0020
0000
0000
0030
0000
0000
0100
0000
0000
0000
,  // measure 8
0000
0000
0100
0000
0000
0000
0100
0000
0001
0000
0100
0000
0010
0001
1000
0000
,  // measure 9
0020
0000
0000
0000
0000
0000
0000
0000
0030
0000
0000
0000
0100
0000
0100
0002
,  // measure 10
0000
0000
0003
0000
0000
0001
0020
0000
0030
0000
1000
0000
0000
0000
0200
0000
,  // measure 11
0000
0300
1000
0001
0200
0000
0000
0300
0020
0000
0000
0030
1000
0000
0000
0000
,  // measure 12
0001
0000
0001
0010
1000
0000
0100
0000
0001
0000
0010
0000
1000
0000
0100
0000
,  // measure 13
0020
0000
0000
0000
0000
0000
0000
0000
0030
0000
0000
0000
0100
0000
0100
0002
,  // measure 14
0000
0000
0003
0000
0000
0001
0020
0000
0030
0000
1000
0000
0000
0000
0200
0000
,  // measure 15
0000
0300
1000
0001
0200
0000
0000
0300
0020
0000
0000
0030
1000
0000
0000
0000
,  // measure 16
0001
0000
0001
0010
1000
0000
0100
0000
0001
0000
0010
0000
1000
0000
0100
0000
,  // measure 17
0100
0001
1000
0001
0000
0000
0001
0000
0100
0000
0000
0100
0000
0000
1000
0000
,  // measure 18
0000
0000
0000
0000
0010
0000
0000
0000
0002
0003
0000
0000
0100
0000
0000
0000
0100
0000
0000
0000
0000
0000
0100
0000
0000
0000
0000
0000
0001
0000
0000
0000
,  // measure 19
0000
0100
0001
1000
0001
0000
0000
0001
0100
0000
0000
0100
0000
0000
0020
0000
,  // measure 20
0000
0000
0030
0000
0010
0000
0000
0000
0002
0003
0000
0000
0100
0000
0000
0000
1000
0000
0000
0000
0001
0000
0100
0000
1000
0000
0000
0000
0001
0000
0000
0000
,  // measure 21
0100
0001
1000
0001
0000
0000
0001
0000
0100
0000
0000
0100
0000
0000
1000
0000
,  // measure 22
0000
0000
0000
0000
0010
0000
0000
0000
0002
0003
0000
0000
0100
0000
0000
0000
0100
0000
0000
0000
0000
0000
0100
0000
0000
0000
0000
0000
0001
0000
0000
0000
,  // measure 23
0000
0100
0001
1000
0001
0000
0000
0001
0100
0000
0000
0100
0000
0000
0020
0000
,  // measure 24
0000
0000
0030
0000
0010
0000
0000
0000
0002
0003
0000
0000
0100
0000
0000
0000
1000
0000
0000
0000
0001
0000
0100
0000
1000
0000
0000
0000
0001
0000
0000
0000
,  // measure 25
0020
0000
0000
0000
0030
0000
0100
0001
,  // measure 26
2000
0000
0000
0000
3000
0000
0000
0000
0100
0000
0000
0000
0000
0000
0000
0000
0020
0000
0000
0000
0030
0000
0000
0000
1000
0000
0001
0000
0200
0300
0000
0000
,  // measure 27
0010
1000
0001
1000
0010
0001
1000
0001
,  // measure 28
0010
0000
0001
0000
0010
0000
1000
0000
0020
0000
0000
0030
0200
0000
0000
0300
,  // measure 29
0020
0000
0000
0000
0030
0000
0100
0001
,  // measure 30
2000
0000
0000
0000
3000
0000
0000
0000
0100
0000
0000
0000
0000
0000
0000
0000
0020
0000
0000
0000
0030
0000
0000
0000
1000
0000
0001
0000
0200
0300
0000
0000
,  // measure 31
0010
1000
0001
1000
0010
0001
1000
0001
,  // measure 32
0010
0000
0001
0000
0010
0000
1000
0000
0020
0000
0000
0030
0200
0000
0000
0300
,  // measure 33
0020
0000
0000
0000
0000
0000
0000
0000
0030
0000
0000
0000
0100
0000
0100
0002
,  // measure 34
0000
0000
0003
0000
0000
0001
0020
0000
0030
0000
1000
0000
0000
0000
0200
0000
,  // measure 35
0000
0300
1000
0001
0200
0000
0000
0300
0020
0000
0000
0030
1000
0000
0000
0000
,  // measure 36
0001
0010
1000
0100
0001
0010
1000
0100
,  // measure 37
0020
0000
0000
0000
0000
0000
0000
0000
0030
0000
0000
0000
0100
0000
0100
0002
,  // measure 38
0000
0000
0003
0000
0000
0001
0020
0000
0000
0030
1000
0000
0000
0000
0200
0000
,  // measure 39
0000
0300
1000
0001
0200
0000
0000
0300
0020
0000
0000
0030
1000
0000
0000
0000
,  // measure 40
0001
0010
1000
0100
0001
0010
1000
0100
,  // measure 41
1000
0000
0100
0000
0001
0000
0100
0000
0001
0000
0100
0000
1000
0001
0100
0000
,  // measure 42
1000
0000
0100
0000
0001
0000
0100
0000
0001
0000
0100
0000
1000
0001
0100
0000
,  // measure 43
0010
0001
0100
0000
0010
0001
0100
0000
0010
0001
0100
0000
0010
0001
0100
0000
,  // measure 44
0010
0001
0100
0000
0010
0001
0100
0000
0010
0001
0100
0000
0010
0001
0100
0000
,  // measure 45
1000
0000
0100
0000
0001
0000
0100
0000
0001
0000
0100
0000
1000
0001
0100
0000
,  // measure 46
1000
0000
0100
0000
0001
0000
0100
0000
0001
0000
0100
0000
1000
0001
0100
0000
,  // measure 47
0010
0001
0100
0000
0010
0001
0100
0000
0010
0001
0100
0000
0010
0001
0100
0000
,  // measure 48
0010
0001
0100
0000
0010
0001
0100
0000
0010
0001
0100
0000
0010
0001
0100
0000
,  // measure 49
0100
0001
1000
0001
0000
0000
0001
0000
0100
0000
0000
0100
0000
0000
1000
0000
,  // measure 50
0000
0000
0000
0000
0010
0000
0000
0000
0002
0003
0000
0000
0100
0000
0000
0000
0100
0000
0000
0000
0000
0000
0100
0000
0000
0000
0000
0000
0001
0000
0000
0000
,  // measure 51
0000
0100
0001
1000
0001
0000
0000
0001
0100
0000
0000
0100
0000
0000
0020
0000
,  // measure 52
0000
0030
0010
0000
0001
0100
1000
0000
0100
0000
0001
0100
1000
0000
0001
0000
,  // measure 53
0100
0001
1000
0001
0000
0000
0001
0000
0100
0000
0000
0100
0000
0000
1000
0000
,  // measure 54
0000
0000
0000
0000
0010
0000
0000
0000
0002
0003
0000
0000
0100
0000
0000
0000
0100
0000
0000
0000
0000
0000
0100
0000
0000
0000
0000
0000
0001
0000
0000
0000
,  // measure 55
0000
0100
0001
1000
0001
0000
0000
0001
0100
0000
0000
0100
0000
0000
0020
0000
,  // measure 56
0000
0030
0010
0000
0001
0100
1000
0000
0100
0000
0001
0100
1000
0000
0001
0000
,  // measure 57
0020
0000
0000
0000
0030
0000
0100
0001
,  // measure 58
2000
0000
0000
0000
3000
0000
0000
0000
0100
0000
0000
0000
0000
0000
0000
0000
0020
0000
0000
0000
0030
0000
0000
0000
1000
0000
0001
0000
0200
0300
0000
0000
,  // measure 59
0010
1000
0001
1000
0010
0001
1000
0001
,  // measure 60
0010
0000
0001
0000
0010
0000
1000
0000
0020
0000
0000
0030
0200
0000
0000
0300
,  // measure 61
0020
0000
0000
0000
0030
0000
0100
0001
,  // measure 62
2000
0000
0000
0000
3000
0000
0000
0000
0100
0000
0000
0000
0000
0000
0000
0000
0020
0000
0000
0000
0030
0000
0000
0000
1000
0000
0001
0000
0200
0300
0000
0000
,  // measure 63
0010
1000
0001
1000
0010
0001
1000
0001
,  // measure 64
0010
0000
0001
0000
0010
0000
1000
0000
0020
0000
0000
0030
0200
0000
0000
0300
,  // measure 65
0100
0000
0000
0000
0100
0000
0000
0000
0100
0000
1000
0001
0010
0000
0100
0000
,  // measure 66
0000
0000
0100
0000
0000
0000
0100
0000
0000
0000
0001
1000
0020
0000
0000
0030
,  // measure 67
0100
0000
0000
0000
0100
0000
0000
0000
0100
0000
0001
1000
0010
0000
0100
0000
,  // measure 68
1000
0000
0100
0000
0010
0000
0100
0000
0001
0000
0100
0010
0001
0000
1000
0000
,  // measure 69
0100
0000
0000
0000
0100
0000
0000
0000
0100
0000
1000
0001
0010
0000
0100
0000
,  // measure 70
0000
0000
0100
0000
0000
0000
0100
0000
0000
0000
0001
1000
0020
0000
0000
0030
,  // measure 71
0100
0000
0000
0000
0100
0000
0000
0000
0100
0000
0001
1000
0010
0000
0100
0000
,  // measure 72
1000
0000
0100
0000
0010
0000
0100
0000
0001
0000
0100
0010
0001
0000
1000
0000
,  // measure 73
0020
0000
0000
0000
0000
0000
0000
0000
0030
0000
0000
0000
0100
0000
0100
0002
,  // measure 74
0000
0000
0003
0000
0000
0001
0020
0000
0030
0000
1000
0000
0000
0000
0200
0000
,  // measure 75
0000
0300
1000
0001
0200
0000
0000
0300
0020
0000
0000
0030
1000
0000
0000
0000
,  // measure 76
0001
0000
0001
0010
1000
0000
0100
0000
0001
0000
0010
0000
1000
0000
0100
0000
,  // measure 77
0020
0000
0000
0000
0000
0000
0000
0000
0030
0000
0000
0000
0100
0000
0100
0002
,  // measure 78
0000
0000
0003
0000
0000
0001
0020
0000
0030
0000
1000
0000
0000
0000
0200
0000
,  // measure 79
0000
0300
1000
0001
0200
0000
0000
0300
0020
0000
0000
0030
1000
0000
0000
0000
,  // measure 80
0001
0000
0001
0010
1000
0000
0100
0000
0001
0000
0010
0000
1000
0000
0100
0000
,  // measure 81
0100
0001
1000
0001
0000
0000
0001
0000
0100
0000
0000
0100
0000
0000
1000
0000
,  // measure 82
0000
0000
0000
0000
0010
0000
0000
0000
0002
0003
0000
0000
0100
0000
0000
0000
0100
0000
0000
0000
0000
0000
0100
0000
0000
0000
0000
0000
0001
0000
0000
0000
,  // measure 83
0000
0100
0001
1000
0001
0000
0000
0001
0100
0000
0000
0100
0000
0000
0020
0000
,  // measure 84
0000
0030
0010
0000
0001
0100
1000
0000
0100
0000
0001
0100
1000
0000
0001
0000
,  // measure 85
0100
0001
1000
0001
0000
0000
0001
0000
0100
0000
0000
0100
0000
0000
1000
0000
,  // measure 86
0000
0000
0000
0000
0010
0000
0000
0000
0002
0003
0000
0000
0100
0000
0000
0000
0100
0000
0000
0000
0000
0000
0100
0000
0000
0000
0000
0000
0001
0000
0000
0000
,  // measure 87
0000
0100
0001
1000
0001
0000
0000
0001
0100
0000
0000
0100
0000
0000
0020
0000
,  // measure 88
0000
0030
0010
0000
0001
0100
1000
0000
0100
0000
0001
0100
1000
0000
0001
0000
,  // measure 89
0020
0000
0000
0000
0000
0030
0000
0000
;
