#VERSION:0.83;
#TITLE:M.I.L.F.;
#SUBTITLE:[B-Side Remix];
#ARTIST:Rozebud;
#TITLETRANSLIT:;
#SUBTITLETRANSLIT:;
#ARTISTTRANSLIT:;
#GENRE:Friday Night Funkin';
#ORIGIN:;
#CREDIT:;
#BANNER:M.I.L.F. [B-Side Remix].png;
#BACKGROUND:../bg.png;
#PREVIEWVID:;
#JACKET:M.I.L.F. [B-Side Remix]-jacket.png;
#CDIMAGE:;
#DISCIMAGE:;
#LYRICSPATH:;
#CDTITLE:../cdtitle.png;
#MUSIC:M.I.L.F. [B-Side Remix].ogg;
#OFFSET:-0.066000;
#SAMPLESTART:22.106001;
#SAMPLELENGTH:15.000000;
#SELECTABLE:YES;
#BPMS:0.000=98.000,
36.000=196.000,
100.000=98.000,
116.000=196.000,
212.000=98.000,
228.000=196.000,
292.000=98.000;
#STOPS:;
#DELAYS:;
#WARPS:;
#TIMESIGNATURES:0.000=4=4;
#TICKCOUNTS:0.000=4;
#COMBOS:0.000=1;
#SPEEDS:0.000=1.000=0.000=0;
#SCROLLS:0.000=1.000;
#FAKES:;
#LABELS:0.000=Song Start;
#BGCHANGES: -2.500=M.I.L.F. [B-Side Remix].avi=1.000=0=0=0=StretchNoLoop====,
99999=-nosongbg-=1.000=0=0=0 // don't automatically add -songbackground-
;
#KEYSOUNDS:;
#ATTACKS:
;

//---------------dance-single - FNF Hard----------------
#NOTEDATA:;
#CHARTNAME:;
#STEPSTYPE:dance-single;
#DESCRIPTION:FNF Hard;
#CHARTSTYLE:;
#DIFFICULTY:Edit;
#METER:19;
#RADARVALUES:0.952960,1.387709,0.000000,0.244865,1.458061,899.000000,899.000000,0.000000,33.000000,0.000000,0.000000,0.000000,0.000000,0.000000,0.952960,1.387709,0.000000,0.244865,1.458061,899.000000,899.000000,0.000000,33.000000,0.000000,0.000000,0.000000,0.000000,0.000000;
#CREDIT:led_light (FNF Hard);
#NOTES:
0000
0000
0000
0000
,
0010
0000
0000
0000
0010
0000
0000
0000
0010
1000
0100
0001
0000
0000
0010
0000
0000
0000
0010
0000
0000
0000
0010
0000
0100
0000
1000
0000
0001
0000
1000
0000
,
0010
0000
0000
0000
0010
0000
0000
0000
0010
1000
0100
0001
0000
0000
0010
0000
0000
0000
0010
0000
0000
0000
0010
0000
0100
0000
1000
0000
0001
0100
1000
0000
,
0100
0000
0000
0000
0100
0000
0000
0000
0100
0001
0010
1000
0000
0000
0100
0000
0000
0000
0100
0000
0000
0000
0100
0000
0001
0000
1000
0000
1000
0000
0010
0000
,
0100
0000
0000
0000
0100
0000
0000
0000
0100
0001
0010
1000
0000
0000
0100
0000
0000
0000
0100
0000
0000
0000
0100
0000
0001
0000
1000
0000
0010
0001
1000
0000
,
0002
0000
0000
0000
0000
0000
0000
0000
0000
0000
0000
0000
0000
0000
0000
0000
0003
0000
0000
0000
0000
0000
0000
0000
1000
0000
0000
0000
1000
0000
0020
0000
0000
0000
0000
0030
0100
0000
0000
0000
0000
0000
0000
0000
0010
0000
0001
0000
0000
0000
0000
0000
0100
0000
0000
0000
0000
0000
0000
0000
2000
0000
0000
0000
,
0000
3000
0001
0001
0100
0100
0100
0000
0010
0000
0010
0000
0001
0000
1000
0000
0100
0001
1000
0010
0001
0001
0100
0000
0001
0000
0010
0010
0100
0000
1000
0000
,
2000
0000
0000
0000
0000
0000
0000
0000
0000
0000
0000
0000
0000
0000
0000
0000
3000
0000
0000
0000
0000
0000
0000
0000
0001
0000
0000
0000
0001
0000
0200
0000
0000
0000
0000
0300
0010
0000
0000
0000
0000
0000
0000
0000
0100
0000
1000
0000
0000
0000
0000
0000
0010
0000
0000
0000
0000
0000
0000
0000
0002
0000
0000
0000
,
0000
0003
1000
1000
0010
0010
0010
0000
0100
0000
0100
0000
1000
0000
0001
0000
0010
1000
0001
0100
1000
1000
0010
0000
1000
0000
0100
0100
0010
0000
0001
0000
,
0001
0100
0010
1000
0000
1000
0001
0000
0010
0000
1000
0010
0100
0001
0010
0000
,
0000
0000
1000
1000
0001
0000
0100
0000
0010
0000
1000
0100
1000
0010
0001
0000
,
0000
0001
1000
0010
0100
0000
1000
1000
0010
0000
0000
0010
0010
0010
0001
0000
,
1000
0000
0100
0100
0001
0000
0010
0000
1000
0000
0001
0001
0100
1000
0010
0000
,
1000
0010
0100
0001
0000
0001
1000
0000
0100
0000
0001
0100
0010
1000
0100
0000
,
0000
0000
0001
0001
1000
0000
0010
0000
0100
0000
0001
0010
0001
0100
1000
0000
,
0000
1000
0001
0100
0010
0000
0001
0001
0100
0000
0000
0100
0100
0100
1000
0000
,
0001
0000
0010
0010
1000
0000
0100
0000
0001
0000
1000
1000
0010
0001
0100
0000
,
0002
0000
0000
0000
0003
1000
0100
0001
,
0010
0000
0010
0000
0001
0000
0000
0000
0001
0100
0001
0000
0010
0001
1000
0000
,
0010
0000
0001
0000
0100
0000
0010
0010
1000
0000
0001
0000
1000
0000
0001
0001
,
0010
0000
1000
0100
0010
0000
1000
0100
0010
0000
0010
0010
0001
0000
1000
0000
,
2000
0000
0000
0000
3000
0001
0010
1000
,
0100
0000
0100
0000
1000
0000
0000
0000
1000
0010
1000
0000
0100
1000
0001
0000
,
0100
0000
1000
0000
0010
0000
0100
0100
0001
0000
1000
0000
0001
0000
1000
1000
,
0100
0000
0001
0010
0100
0000
0001
0010
0100
0000
0100
0100
1000
0000
0001
0000
,
0002
0000
0000
0000
0000
0000
0000
0000
0000
0000
0003
0000
2000
0000
0000
0000
0000
3000
0000
0000
0000
0000
0000
0000
1000
0000
0000
0000
1000
0000
0020
0000
0000
0000
0000
0030
0100
0000
0000
0000
0000
0000
0000
0000
0010
0000
0001
0000
0000
0000
0000
0000
0100
0000
0000
0000
0000
0000
0000
0000
2000
0000
0000
0000
,
0000
3000
0001
0001
0100
0100
0100
0000
0010
0000
0010
0000
0001
0000
1000
0000
0100
0001
1000
0010
0001
0001
0100
0000
0001
0000
0010
0010
0100
0000
1000
0000
,
2000
0000
0000
0000
0000
0000
0000
0000
0000
0000
3000
0000
0002
0000
0000
0000
0000
0003
0000
0000
0000
0000
0000
0000
0001
0000
0000
0000
0001
0000
0200
0000
0000
0000
0000
0300
0010
0000
0000
0000
0000
0000
0000
0000
0100
0000
1000
0000
0000
0000
0000
0000
0010
0000
0000
0000
0000
0000
0000
0000
0002
0000
0000
0000
,
0000
0003
1000
1000
0010
0010
0010
0000
0100
0000
0100
0000
1000
0000
0001
0000
0010
1000
0001
0100
1000
1000
0010
0000
1000
0000
0100
0100
0010
0000
0001
0000
,
0010
0000
0000
0000
0010
0000
0000
0000
0010
1000
0100
0001
0000
0000
0010
0000
,
0000
0010
0000
0010
0100
1000
0001
1000
,
0010
0000
0000
0000
0010
0000
0000
0000
0010
1000
0100
0001
0000
0000
0010
0000
,
0000
0000
0010
0000
0000
0000
0010
0000
0100
0000
1000
0000
0001
0100
1000
0000
,
0100
0000
0000
0000
0100
0000
0000
0000
0100
0001
0010
1000
0000
0000
0100
0000
,
0000
0100
0000
0100
0001
1000
1000
0010
,
0100
0000
0000
0000
0100
0000
0000
0000
0100
0001
0010
1000
0000
0000
0100
0000
,
0000
0000
0100
0000
0000
0000
0100
0000
0001
0000
1000
0000
0010
0001
1000
0000
,
0100
0000
1000
0000
0001
0000
0100
0000
1000
0000
0001
0000
0100
1000
0001
0000
,
0100
0000
1000
0000
0001
0000
0100
0000
1000
0000
0001
0000
0100
1000
0001
0000
,
0010
0001
0100
1000
0010
0001
0100
1000
0010
0001
0100
1000
0100
0010
1000
1000
,
0010
0001
0100
1000
0010
0001
0100
1000
0010
0001
0100
1000
0010
0001
0100
1000
,
0010
0000
0001
0000
1000
0000
0010
0000
0001
0000
1000
0000
0010
0001
1000
0000
,
0010
0000
0001
0000
1000
0000
0010
0000
0001
0000
1000
0000
0010
0001
1000
0000
,
0100
1000
0010
0001
0100
1000
0010
0001
0100
1000
0010
0001
0010
0100
0001
0001
,
0100
1000
0010
0001
0100
1000
0010
0001
0100
1000
0010
0001
0100
1000
0010
0001
,
1000
0100
0001
0100
0000
0100
0001
0000
0010
0000
0100
0001
0100
0001
1000
0000
,
0000
0000
0100
1000
0001
0000
0100
0000
0010
0000
1000
0001
1000
0001
0100
0000
,
0000
1000
0100
0001
0100
0000
0100
0100
0010
0000
0000
0010
0010
0010
0001
0000
,
1000
0000
0100
0100
0010
0000
1000
0000
0100
0000
0100
0001
1000
0001
0010
0000
,
0001
0010
1000
0010
0000
0010
1000
0000
0100
0000
0010
1000
0010
1000
0001
0000
,
0000
0000
0010
0001
1000
0000
0010
0000
0100
0000
0001
1000
0001
1000
0010
0000
,
0000
0001
0010
1000
0010
0000
0010
0010
0100
0000
0000
0100
0100
0100
1000
0000
,
0001
0000
0010
0010
0100
0000
0001
0000
0010
0000
0010
1000
0001
1000
0100
0000
,
0002
0000
0000
0000
0003
0000
0100
1000
0100
0000
0000
0000
0001
0000
0000
1000
,
0000
0000
1000
0000
0010
0000
1000
0000
0010
0000
0000
0000
1000
0000
0100
0000
0001
0000
0100
0000
1000
0000
0001
0000
2000
0000
0000
3000
0020
0000
0000
0030
,
0200
0000
0000
0000
0300
0000
1000
1000
0010
0000
0100
0000
0100
0000
1000
0100
,
0010
0100
0100
1000
0100
0001
0100
0001
0010
0100
1000
0100
0100
0001
0010
0001
,
0020
0000
0000
0000
0030
0000
0010
0001
,
1000
0000
0000
0000
0001
0000
0000
0000
0100
0000
0000
0000
0001
0010
1000
0000
,
0010
0000
1000
1000
0100
0000
0001
0000
0100
0000
0010
0000
0100
0000
0010
0000
,
0001
0000
0010
0010
0001
0000
1000
0000
0010
0000
0010
0000
1000
0000
1000
1000
,
0002
0000
0000
0000
0003
0000
0200
0000
0000
0000
0300
0000
2000
0000
0000
0000
3000
0000
0100
0000
0000
1000
0000
0000
,
0001
0000
0000
0000
1000
0000
0000
0000
0010
0000
0000
0000
1000
0100
0001
0000
,
0100
0000
0001
0001
0010
0000
1000
0000
0010
0000
0100
0000
0010
0000
0100
0000
,
1000
0000
0100
0100
1000
0000
0001
0000
0100
0000
0100
0000
0001
0000
0001
0001
,
1000
0000
0010
0000
1000
0000
0000
0000
1000
0000
0100
0010
0001
0000
0200
0000
,
0000
0000
0300
0000
0000
0000
1000
0000
0000
1000
0000
0000
0000
0000
0000
0000
0000
0000
1000
0000
0000
0000
0000
0000
0000
0000
0000
0000
0000
0000
0010
0000
0000
0001
0000
0000
0100
0000
0000
0010
0000
0000
1000
0000
0000
0000
0000
0000
,
1000
0000
0001
0001
1000
0000
0100
0100
1000
0000
0100
0010
0001
0000
0010
0000
,
1000
0000
0010
0000
0100
0000
0001
0001
0100
0000
0001
1000
0001
0001
0100
0000
,
0001
0000
0100
0000
0001
0000
0000
0000
0001
0000
0010
0100
1000
0000
0020
0000
,
0000
0000
0030
0000
0000
0000
0001
0000
0000
0001
0000
0000
0000
0000
0000
0000
0000
0000
0001
0000
0000
0000
0000
0000
0000
0000
0000
0000
0000
0000
0100
0000
0000
1000
0000
0000
0010
0000
0000
0100
0000
0000
0001
0000
0000
0000
0000
0000
,
0001
0000
1000
1000
0001
0000
0010
0010
0001
0000
0010
0100
1000
0000
0100
0000
,
0001
0000
0100
0000
0010
0000
1000
1000
0010
0000
1000
0001
1000
1000
0010
0000
,
0002
0000
0000
0000
0000
0000
0000
0000
0000
0000
0000
0000
0000
0000
0000
0000
0003
0000
0000
0000
0000
0000
0000
0000
1000
0000
0000
0000
1000
0000
0020
0000
0000
0000
0000
0030
0100
0000
0000
0000
0000
0000
0000
0000
0010
0000
0001
0000
0000
0000
0000
0000
0100
0000
0000
0000
0000
0000
0000
0000
2000
0000
0000
0000
,
0000
3000
0001
0001
0100
0100
0100
0000
0010
0000
0010
0000
0001
0000
1000
0000
0100
0001
1000
0010
0001
0001
0100
0000
0001
0000
0010
0010
0100
0000
1000
0000
,
2000
0000
0000
0000
0000
0000
0000
0000
0000
0000
0000
0000
0000
0000
0000
0000
3000
0000
0000
0000
0000
0000
0000
0000
0001
0000
0000
0000
0001
0000
0200
0000
0000
0000
0000
0300
0010
0000
0000
0000
0000
0000
0000
0000
0100
0000
1000
0000
0000
0000
0000
0000
0010
0000
0000
0000
0000
0000
0000
0000
0002
0000
0000
0000
,
0000
0003
1000
1000
0010
0010
0010
0000
0100
0000
0100
0000
1000
0000
0001
0000
0010
1000
0001
0100
1000
1000
0010
0000
1000
0000
0100
0100
0010
0000
0001
0000
,
0001
0100
0010
1000
0000
1000
0001
0000
0010
0000
1000
0010
0100
0001
0010
0000
0000
0000
1000
1000
0001
0000
0100
0000
0010
0000
1000
0100
1000
0010
0001
0000
,
0000
0001
1000
0010
0100
0000
1000
1000
0010
0000
0000
0010
0010
0010
0001
0000
1000
0000
0100
0100
0001
0000
0010
0000
1000
0000
0001
0001
0100
1000
0010
0000
,
1000
0010
0100
0001
0000
0001
1000
0000
0100
0000
0001
0100
0010
1000
0100
0000
0000
0000
0001
0001
1000
0000
0010
0000
0100
0000
0001
0010
0001
0100
1000
0000
,
0000
1000
0001
0100
0010
0000
0001
0001
0100
0000
0000
0100
0100
0100
1000
0000
0001
0000
0010
0010
1000
0000
0100
0000
0001
0000
1000
1000
0010
0001
0010
0000
,
0200
0000
0000
0000
0000
0300
0000
0000
0000
0000
0000
0000
0000
0000
0000
0000
;

//---------------dance-single - ----------------
#NOTEDATA:;
#CHARTNAME:;
#STEPSTYPE:dance-single;
#DESCRIPTION:;
#CHARTSTYLE:;
#DIFFICULTY:Hard;
#METER:17;
#RADARVALUES:0.890419,1.206703,0.022260,0.393268,1.105604,840.000000,837.000000,3.000000,53.000000,0.000000,0.000000,0.000000,0.000000,0.000000,0.890419,1.206703,0.022260,0.393268,1.105604,840.000000,837.000000,3.000000,53.000000,0.000000,0.000000,0.000000,0.000000,0.000000;
#CREDIT:led_light;
#NOTES:
// measure 0
0000
0000
0000
0000
,  // measure 1
0100
0000
0000
0000
0000
0000
0000
0000
0100
0000
0000
0000
0000
0000
0000
0000
0100
0000
0000
0010
0000
0000
0200
0000
0000
0000
0000
0000
1300
0000
0000
0000
0000
0000
0000
0000
1000
0000
0000
0000
0000
0000
0000
0000
1000
0000
0000
0000
0100
0000
0000
0000
0010
0000
0000
0000
0001
0000
0000
0000
0100
0000
0000
0000
,  // measure 2
0010
0000
0000
0000
0000
0000
0000
0000
0010
0000
0000
0000
0000
0000
0000
0000
0010
0000
0000
0100
0000
0000
0020
0000
0000
0000
0000
0000
1030
0000
0000
0000
0000
0000
0000
0000
1000
0000
0000
0000
0000
0000
0000
0000
1000
0000
0000
0000
0010
0000
0000
0000
0100
0000
0000
0000
0001
0000
0000
0000
0010
0000
0000
0000
,  // measure 3
0100
0000
0000
0000
0000
0000
0000
0000
0100
0000
0000
0000
0000
0000
0000
0000
0100
0000
0000
0010
0000
0000
0200
0000
0000
0000
0000
0000
1300
0000
0000
0000
0000
0000
0000
0000
1000
0000
0000
0000
0000
0000
0000
0000
1000
0000
0000
0000
0100
0000
0000
0000
0010
0000
0000
0000
0001
0000
0000
0000
0100
0000
0000
0000
,  // measure 4
0010
0000
0000
0000
0000
0000
0000
0000
0010
0000
0000
0000
0000
0000
0000
0000
0010
0000
0000
0100
0000
0000
0020
0000
0000
0000
0000
0000
1030
0000
0000
0000
0000
0000
0000
0000
1000
0000
0000
0000
0000
0000
0000
0000
1000
0000
0000
0000
0010
0000
0000
0000
0100
0000
0000
0000
0001
0000
0000
0000
0010
0000
0000
0000
,  // measure 5
0200
0000
0000
0000
0310
0000
0001
0100
0020
0100
0030
0010
0000
1000
0000
0002
,  // measure 6
0000
0000
0103
0001
0100
0000
0001
0000
1000
0000
0100
0000
1000
0000
0000
0000
0100
0010
0100
0000
0010
0000
0001
0000
1000
0000
0001
0000
0100
0000
0010
0000
,  // measure 7
2000
0000
0000
0000
3001
0000
0100
0001
2000
0100
3000
1000
0000
0001
0000
0020
,  // measure 8
0000
0000
0130
1000
0100
0000
1000
0000
0001
0000
0100
0000
0001
0000
0000
0000
0100
0010
0100
0000
0010
0000
1000
0000
0001
0000
0100
0000
0010
0000
1000
0000
,  // measure 9
0001
0010
0001
0010
0100
0000
0001
0000
0100
0000
1000
0100
0010
0100
1000
0000
,  // measure 10
0001
0000
0100
0010
1000
0000
0010
0000
0100
0000
1000
0100
0010
0000
0100
0000
,  // measure 11
0001
0000
1000
0100
0010
0000
0100
0010
0001
0000
0000
0010
0100
0010
0200
0000
,  // measure 12
1300
0000
0100
1000
0100
0000
1000
0000
0001
0000
0100
0010
0100
0010
1000
0000
,  // measure 13
0001
0100
0001
0100
0010
0000
0001
0000
0010
0000
1000
0010
0100
0010
1000
0000
,  // measure 14
0001
0000
0010
0100
1000
0000
0100
0000
0010
0000
1000
0010
0100
0000
0010
0000
,  // measure 15
0001
0000
1000
0010
0100
0000
0010
0100
0001
0000
0000
0100
0010
0100
0020
0000
,  // measure 16
1030
0000
0010
1000
0010
0000
1000
0000
0001
0000
0010
0100
0010
0100
1000
0000
,  // measure 17
0002
0000
0100
0000
0103
0001
0100
0010
,  // measure 18
0001
0000
0001
0000
0010
0000
0000
0000
1000
0010
1000
0000
0100
1000
0100
0000
,  // measure 19
0010
0000
0001
0000
0100
0000
0001
0100
0001
0000
1000
0000
0100
0000
0010
0001
,  // measure 20
0010
0000
0100
0010
0100
0000
1000
0100
2000
0000
0000
0000
3002
0000
0000
0000
,  // measure 21
2003
0000
0010
0000
3010
1000
0010
0100
,  // measure 22
1000
0000
1000
0000
0100
0000
0000
0000
0001
0100
0001
0000
0010
0001
0010
0000
,  // measure 23
0100
0000
1000
0000
0010
0000
1000
0010
1000
0000
0001
0000
0010
0000
0100
1000
,  // measure 24
0100
0000
0010
0100
0010
0000
0001
0010
0002
0000
0000
0000
2003
0000
0000
0000
,  // measure 25
3020
0000
0000
0000
0130
0000
0001
0010
0200
0010
0300
0100
0000
1000
0000
0002
,  // measure 26
0000
0000
0013
0001
0010
0000
0001
0000
1000
0000
0010
0000
1000
0000
0000
0000
0010
0100
0010
0000
0100
0000
0001
0000
1000
0000
0001
0000
0010
0000
0100
0000
,  // measure 27
2000
0000
0000
0000
3001
0000
0010
0001
2000
0010
3000
1000
0000
0001
0000
0200
,  // measure 28
0000
0000
0310
1000
0010
0000
1000
0000
0001
0000
0010
0000
0001
0000
0000
0000
0010
0100
0010
0000
0100
0000
1000
0000
0001
0000
0010
0000
0100
0000
1000
0000
,  // measure 29
0100
0000
0000
0000
0000
0000
0000
0000
0100
0000
0000
0000
0000
0000
0000
0000
0100
0000
0000
0010
0000
0000
0200
0000
0000
0000
0000
0000
1300
0000
0000
0000
,  // measure 30
0000
1000
0000
1000
0100
0010
0001
0100
,  // measure 31
0010
0000
0000
0000
0000
0000
0000
0000
0010
0000
0000
0000
0000
0000
0000
0000
0010
0000
0000
0100
0000
0000
0020
0000
0000
0000
0000
0000
1030
0000
0000
0000
,  // measure 32
0000
0000
1000
0000
0000
0000
1000
0000
0010
0000
0100
0000
0001
0010
0100
0000
,  // measure 33
0010
0000
0000
0000
0000
0000
0000
0000
0010
0000
0000
0000
0000
0000
0000
0000
0010
0000
0000
0100
0000
0000
0020
0000
0000
0000
0000
0000
0031
0000
0000
0000
,  // measure 34
0000
0001
0000
0001
0010
0100
1000
0010
,  // measure 35
0100
0000
0100
0000
0100
0010
0100
0010
,  // measure 36
1000
0000
0001
0000
0100
0000
0001
0000
0100
0000
0010
0000
1000
0100
0010
0000
,  // measure 37
0100
0000
0001
0000
0100
0000
0001
0000
0100
0000
1000
0000
0100
0010
0100
0000
,  // measure 38
0010
0000
1000
0000
0010
0000
1000
0000
0010
0000
0001
0000
0010
0100
0010
0000
,  // measure 39
0001
0010
0001
0000
1000
0100
1000
0000
0001
0100
0001
0000
0100
0010
1000
0000
,  // measure 40
0001
0100
0001
0000
1000
0010
1000
0000
0001
0010
0001
0000
0010
0100
1000
0000
,  // measure 41
0010
0000
0001
0000
0010
0000
0001
0000
0010
0000
1000
0000
0010
0100
0010
0000
,  // measure 42
0100
0000
1000
0000
0100
0000
1000
0000
0100
0000
0001
0000
0100
0010
0100
0000
,  // measure 43
0001
0100
0001
0000
1000
0010
1000
0000
0001
0010
0001
0000
0010
0100
1000
0000
,  // measure 44
0001
0010
0001
0000
1000
0100
1000
0000
0001
0100
0001
0000
0100
0010
1000
0000
,  // measure 45
0001
0100
0001
0100
0010
0000
0001
0000
0010
0000
1000
0010
0100
0010
1000
0000
,  // measure 46
0001
0000
0010
0100
1000
0000
0100
0000
0010
0000
1000
0010
0100
0000
0010
0000
,  // measure 47
0001
0000
1000
0010
0100
0000
0010
0100
0001
0000
0000
0100
0010
0100
0020
0000
,  // measure 48
1030
0000
0010
1000
0010
0000
1000
0000
0001
0000
0010
0100
0010
0100
1000
0000
,  // measure 49
0001
0010
0001
0010
0100
0000
0001
0000
0100
0000
1000
0100
0010
0100
1000
0000
,  // measure 50
0001
0000
0100
0010
1000
0000
0010
0000
0100
0000
1000
0100
0010
0000
0100
0000
,  // measure 51
0001
0000
1000
0100
0010
0000
0100
0010
0001
0000
0000
0010
0100
0010
0200
0000
,  // measure 52
1300
0000
0100
1000
0100
0000
1000
0000
0001
0000
0100
0010
0100
0010
1000
0000
,  // measure 53
0002
0000
0000
0000
0103
0000
0001
1000
0100
0000
0010
0000
0110
0000
0100
1000
,  // measure 54
0000
1000
0010
1000
0010
0000
0100
0001
1000
0010
0100
0010
2000
0000
3002
0000
,  // measure 55
0203
0000
0000
0000
0310
0000
0100
0001
0010
0000
0100
0000
0110
0000
0010
0001
,  // measure 56
1000
0010
1000
0010
0100
0001
0100
0001
1000
0010
0100
0001
0010
0100
0010
0100
,  // measure 57
2000
0000
0010
0000
3010
0000
0100
0001
,  // measure 58
0010
0000
0000
0000
1100
0000
0000
0000
0010
0000
0000
0000
0001
0100
0001
0000
,  // measure 59
0100
0000
0010
1000
0001
0000
0100
0000
0001
0000
0010
0000
0100
0000
0100
0000
,  // measure 60
1000
0000
1000
0100
0010
0000
0100
0000
0010
0000
0001
0000
2000
0000
0000
0000
,  // measure 61
3002
0000
0203
0000
0320
0000
1030
0100
,  // measure 62
0002
0000
0000
0000
0203
0000
0000
0000
2300
0000
0000
0000
3100
0010
0001
0000
,  // measure 63
0010
0000
0100
1000
0001
0000
0010
0000
0001
0000
0100
0000
0010
0000
0010
0000
,  // measure 64
1000
0000
1000
0010
0100
0000
0010
0000
0100
0000
0001
0000
2000
0000
0000
0000
,  // measure 65
3001
0000
0001
0000
0100
0000
0000
0000
0001
0000
1000
0100
1000
0000
0200
0000
,  // measure 66
0310
0000
0010
0100
0010
0000
0010
0000
1000
0000
0010
0100
0010
0000
0001
0000
,  // measure 67
1000
0000
1000
0010
0100
0000
0001
1000
0010
0000
1000
0001
0010
0000
0100
0000
,  // measure 68
1000
0000
0001
0000
0100
0000
1000
0100
1000
0000
0100
0010
0100
0001
0100
0000
,  // measure 69
0001
0000
0001
0000
0010
0000
0000
0000
0001
0000
1000
0010
1000
0000
0020
0000
,  // measure 70
0130
0000
0100
0010
0100
0000
0100
0000
1000
0000
0100
0010
0100
0000
0001
0000
,  // measure 71
1000
0000
1000
0100
0010
0000
0001
1000
0100
0000
1000
0001
0100
0000
0010
0000
,  // measure 72
1000
0000
0001
0000
0010
0000
1000
0010
1000
0000
0010
0100
0010
0001
0010
0000
,  // measure 73
0200
0000
0000
0000
0310
0000
0001
0100
0020
0100
0030
0010
0000
1000
0000
0002
,  // measure 74
0000
0000
0103
0001
0100
0000
0001
0000
1000
0000
0100
0000
1000
0000
0000
0000
0100
0010
0100
0000
0010
0000
0001
0000
1000
0000
0001
0000
0100
0000
0010
0000
,  // measure 75
2000
0000
0000
0000
3001
0000
0100
0001
2000
0100
3000
1000
0000
0001
0000
0020
,  // measure 76
0000
0000
0130
1000
0100
0000
1000
0000
0001
0000
0100
0000
0001
0000
0000
0000
0100
0010
0100
0000
0010
0000
1000
0000
0001
0000
0100
0000
0010
0000
1000
0000
,  // measure 77
0001
0010
0001
0000
0010
0000
0100
0000
0010
0000
0001
0100
0000
0100
0001
0000
0000
0000
0100
0010
1000
0000
0010
0000
0100
0000
0010
1000
0100
0000
1000
0000
,  // measure 78
0000
1000
0100
0010
0001
0000
0010
0001
0010
0000
0000
0100
1000
0100
2000
0000
0000
0000
3100
0010
0001
0000
1000
0000
0100
0000
1000
0100
0010
0000
0001
0000
,  // measure 79
1000
0100
1000
0000
0100
0000
0010
0000
0100
0000
1000
0010
0000
0010
1000
0000
0000
0000
0010
0100
0001
0000
0100
0000
0010
0000
0100
0001
0000
1000
0001
0000
,  // measure 80
0100
0000
0001
0000
0100
0000
0010
0100
0010
0000
0000
0010
1000
0100
0020
0000
0031
0000
1000
0100
1000
0000
0001
0000
0010
0000
0001
0010
0100
0000
1000
0000
,  // measure 81
0020
0000
0000
0000
0000
0030
0000
0000
0000
0000
0000
0000
0000
0000
0000
0000
;

//---------------dance-single - ----------------
#NOTEDATA:;
#CHARTNAME:;
#STEPSTYPE:dance-single;
#DESCRIPTION:;
#CHARTSTYLE:;
#DIFFICULTY:Beginner;
#METER:4;
#RADARVALUES:0.191864,0.241341,0.022260,0.096462,0.000000,181.000000,178.000000,3.000000,13.000000,0.000000,0.000000,0.000000,0.000000,0.000000,0.191864,0.241341,0.022260,0.096462,0.000000,181.000000,178.000000,3.000000,13.000000,0.000000,0.000000,0.000000,0.000000,0.000000;
#CREDIT:led_light;
#NOTES:
0000
0000
0000
0000
,
0001
0000
0001
0000
,
1000
0000
1000
0000
,
0010
0000
0010
0000
,
0100
0000
0100
0000
,
0002
0003
0001
0000
,
0010
0010
0010
0000
,
2000
3000
1000
0000
,
0100
0100
0100
0100
,
0100
0000
0010
0000
,
0100
0000
0100
0000
,
0001
0000
0100
0000
,
1000
0000
0010
0000
,
0100
0000
0010
0000
,
0100
0000
0100
0000
,
1000
0000
0100
0000
,
0001
0000
0010
0000
,
2000
0000
3000
0000
,
1000
0000
0100
0000
,
0010
0000
0100
0000
,
0010
0010
0010
0000
,
0002
0000
0003
0000
,
0001
0000
0100
0000
,
0010
0000
0100
0000
,
0010
0010
0010
0000
,
2000
3000
1000
0000
,
0100
0100
0100
0000
,
0002
0003
0001
0000
,
0010
0010
0010
0010
,
0110
0000
0000
0000
,
0010
0000
0000
0000
,
1001
0000
0000
0000
,
1000
0000
0000
0000
,
0110
0000
0000
0000
,
0100
0000
0000
0000
,
0001
0000
0001
0000
,
0001
0001
0001
0000
,
0001
0000
0100
0000
,
1000
0000
0100
0000
,
0010
0010
0010
0000
,
0010
0010
0010
0000
,
1000
0000
0100
0000
,
0001
0000
0100
0000
,
0010
0010
0010
0000
,
0010
0010
0010
0000
,
0100
0000
0010
0000
,
0100
0000
0100
0000
,
0001
0000
0100
0000
,
1000
0000
0010
0000
,
0100
0000
0010
0000
,
0100
0000
0100
0000
,
1000
0000
0100
0000
,
0001
0000
0010
0000
,
0200
0300
0100
0000
,
1000
0001
1000
0001
,
2000
3000
1000
0000
,
0010
0100
0010
0100
,
0020
0000
0030
0000
,
1000
0000
0100
0000
,
0010
0010
0010
0000
,
0100
0100
0100
0000
,
0020
0000
0030
0000
,
0001
0000
0100
0000
,
0010
0010
0010
0000
,
0100
0100
0100
0000
,
0001
0000
0001
0000
,
0001
0001
0001
0000
,
0010
0000
0100
0000
,
0001
0001
0001
0000
,
1000
0000
1000
0000
,
1000
1000
1000
0000
,
0010
0000
0100
0000
,
1000
1000
1000
0000
,
0002
0003
0001
0000
,
0010
0010
0010
0000
,
2000
3000
1000
0000
,
0100
0100
0100
0000
,
1000
0000
1000
0000
,
0010
0000
0010
0000
,
0001
0000
0001
0000
,
0100
0000
0100
0000
,
0020
0000
0000
0000
0000
0030
0000
0000
0000
0000
0000
0000
0000
0000
0000
0000
;

//---------------dance-single - ----------------
#NOTEDATA:;
#CHARTNAME:;
#STEPSTYPE:dance-single;
#DESCRIPTION:;
#CHARTSTYLE:;
#DIFFICULTY:Easy;
#METER:8;
#RADARVALUES:0.369948,0.482681,0.185504,0.192924,0.000000,349.000000,324.000000,25.000000,26.000000,0.000000,0.000000,0.000000,0.000000,0.000000,0.369948,0.482681,0.185504,0.192924,0.000000,349.000000,324.000000,25.000000,26.000000,0.000000,0.000000,0.000000,0.000000,0.000000;
#CREDIT:led_light;
#NOTES:
0000
0000
0000
0000
,
0100
0000
0100
0000
0001
1000
0100
0000
,
1000
0000
1000
0000
0001
0010
1000
0000
,
0010
0000
0010
0000
0001
1000
0010
0000
,
1000
0000
1000
0000
0001
0100
1000
0000
,
0200
0310
0020
0130
,
0001
0100
0001
0000
1000
0100
1000
0000
,
0200
0310
0020
0130
,
1000
1000
0001
0001
0100
0010
1000
0001
,
0010
1000
0010
0011
,
0000
1000
0010
0010
,
0000
0100
0001
0010
,
1000
0010
0001
1000
,
0100
0001
0100
1100
,
0000
0001
0100
0100
,
0000
0010
1000
0100
,
0001
0100
1000
0001
,
2000
0000
3100
0000
,
0010
0010
0001
0100
,
0010
1000
0010
1000
,
0100
0010
0100
1000
,
0002
0000
0103
0000
,
0010
0010
1000
0100
,
0010
0001
0010
0001
,
0100
0010
0100
0001
,
0020
0130
0200
0310
,
0001
0010
0001
0000
1000
0010
1000
0000
,
0020
0130
0200
0310
,
1000
1000
0001
0001
0010
0100
1000
0001
,
1001
0000
0000
0000
0000
0100
0000
1100
,
0000
0000
0000
0000
,
0110
0000
0000
0000
0000
1000
0000
1010
,
0000
0000
0000
0000
,
1001
0000
0000
0000
0000
0010
0000
0011
,
0000
0000
0000
0000
,
0100
0100
0010
0010
,
0001
0001
0100
0001
,
0010
0000
1100
0000
,
0100
0000
0011
0000
,
1000
0010
1000
0010
,
0001
0010
0001
0010
,
0100
0000
0011
0000
,
0010
0000
1100
0000
,
0001
0100
0001
0100
,
1000
0100
1000
0100
,
0010
0001
0010
1010
,
0000
0001
0010
0010
,
0100
0100
1000
0010
,
0001
0010
0001
0010
,
0100
1000
0100
0101
,
0000
1000
0100
0100
,
0010
0010
0001
0100
,
1000
0100
1000
0100
,
0002
0013
1000
1010
,
1000
1000
0100
0000
0001
0100
1000
0001
,
2000
0000
3100
0000
0001
0100
0101
0000
,
0001
0001
0010
0010
1000
1000
0100
0001
,
2000
0100
3100
1000
,
0010
0110
0001
1100
,
0010
0010
0100
0100
,
1000
0100
1000
0010
,
2000
3200
0320
0032
,
0203
0320
2030
3002
,
0013
0010
0100
0100
,
1000
0100
1000
0010
,
0100
0010
0100
1100
,
0000
0100
0001
0001
,
0100
0010
1000
0100
,
0010
0010
0100
1000
,
0010
0100
0010
0011
,
0000
0010
1000
1000
,
0010
0100
0001
0010
,
0100
0100
0010
0001
,
2000
3001
0002
0103
,
0010
0100
0010
0000
1000
0100
0010
0100
,
2000
3001
0002
0013
,
0100
0010
0100
0000
1000
0010
0100
0010
,
1000
0000
1100
0000
0010
0100
0110
0000
,
0001
0000
0101
0000
0001
0010
1000
0010
,
0001
0000
0011
0000
0100
0010
0110
0000
,
1000
1000
0001
0001
0100
0010
1000
0100
,
0020
0000
0000
0000
0000
0030
0000
0000
0000
0000
0000
0000
0000
0000
0000
0000
;

//---------------dance-single - ----------------
#NOTEDATA:;
#CHARTNAME:;
#STEPSTYPE:dance-single;
#DESCRIPTION:;
#CHARTSTYLE:;
#DIFFICULTY:Medium;
#METER:13;
#RADARVALUES:0.598913,0.754190,0.207764,0.296806,0.244865,565.000000,537.000000,28.000000,40.000000,0.000000,0.000000,0.000000,0.000000,0.000000,0.598913,0.754190,0.207764,0.296806,0.244865,565.000000,537.000000,28.000000,40.000000,0.000000,0.000000,0.000000,0.000000,0.000000;
#CREDIT:led_light;
#NOTES:
0000
0000
0000
0000
,
0100
0000
0100
0000
0100
0020
0000
0130
0000
0100
0000
0100
1000
0100
0010
0000
,
0001
0000
0001
0000
0001
0200
0000
0310
0000
0010
0000
0001
0010
1000
0010
0000
,
0100
0000
0100
0000
0100
0020
0000
0130
0000
0100
0000
0100
0001
0100
0010
0000
,
1000
0000
1000
0000
1000
0200
0000
0310
0000
0010
0000
1000
0010
0001
0010
0000
,
0200
0000
0000
0000
0310
0000
0010
0001
0200
0000
0300
0000
0110
0000
0001
0000
,
0010
0000
0010
0000
0100
0010
0001
0000
1000
0100
0010
0000
0001
0000
1000
0000
,
0002
0000
0000
0000
0103
0000
0001
1000
0200
0000
0300
0000
0110
0000
0001
0000
,
1000
0100
0010
0000
0001
0100
0010
0000
1000
0100
1000
0100
0010
0001
0100
0010
,
1000
0100
0010
0000
0001
0000
1100
0000
,
0001
0000
0001
0000
0100
0010
1000
0000
,
0100
0010
0100
0000
0001
0000
0110
0000
,
0001
0100
0010
0000
0001
0010
0100
0000
,
0001
0010
0100
0000
1000
0000
0011
0000
,
1000
0000
1000
0000
0010
0100
0001
0000
,
0010
0100
0010
0000
1000
0000
0110
0000
,
1000
0010
0100
0000
1000
0100
0010
0000
,
2000
0000
0100
0000
3100
1000
0001
0100
,
0010
1000
0001
0000
0001
0010
0100
0010
,
1000
0010
1000
0010
0001
0010
0001
0010
,
0100
0010
1000
0010
0002
0000
2003
0000
,
3002
0000
0100
0000
0103
0001
1000
0100
,
0010
0001
1000
0000
1000
0010
0100
0010
,
0001
0010
0001
0010
1000
0010
1000
0010
,
0100
0010
0001
0010
2000
0000
3002
0000
,
2003
3100
0002
0103
,
1000
0000
1000
0000
0100
0010
0001
0000
0100
0010
0100
0000
0010
0000
1000
0000
,
0002
0013
2000
3010
,
0001
0000
0001
0000
0010
0100
1000
0000
0001
0100
0001
0100
0010
1000
0001
0010
,
0100
0000
0100
0000
0100
0020
0000
0130
,
0000
0100
0000
0100
1000
0100
0010
0000
,
0001
0000
0001
0000
0001
0200
0000
0310
,
0000
0010
0000
0001
0010
1000
0010
0000
,
0100
0000
0100
0000
0100
0020
0000
0130
,
0000
0100
0000
0100
0001
0100
0010
0000
,
1000
0000
1000
0000
1000
0100
0010
0000
,
1000
0010
1000
0010
0001
0010
1000
0000
,
0010
0100
1000
0000
1000
0100
0001
0000
,
0001
0100
1000
0000
1000
0100
0010
0000
,
0100
0101
0100
1100
,
0010
0011
0010
1010
,
0100
0010
0001
0000
0001
0010
1000
0000
,
1000
0010
0001
0000
0001
0010
0100
0000
,
0010
1010
0010
0011
,
0100
1100
0100
0101
,
1000
0100
0010
0000
0001
0000
1100
0000
,
0001
0000
0100
0000
0001
0100
0010
0000
,
0100
0001
1000
0000
0100
0000
0110
0000
,
0001
1000
0100
0000
0010
0001
0100
0000
,
0001
0100
0010
0000
1000
0000
0101
0000
,
1000
0000
0100
0000
1000
0100
0010
0000
,
0100
1000
0001
0000
0100
0000
0110
0000
,
1000
0001
0100
0000
0010
1000
0100
0000
,
2000
0000
0000
0000
3100
0000
0010
0001
0100
0000
0000
0000
0101
0000
0000
0010
,
0000
0010
0100
0010
0100
0000
0001
1000
0100
0010
0001
0100
0020
0000
2030
0000
,
3002
0000
0000
0000
0103
0000
0001
1000
0100
0000
0010
0000
0110
0000
0100
0000
,
1000
0100
1000
0000
0001
0100
0001
0000
1000
0001
1000
0001
0100
0000
0010
0100
,
0020
0000
1000
0000
1030
0000
0001
0100
,
0010
0000
1100
0000
0010
0000
0101
0001
,
1000
0100
1000
0100
0010
0100
0010
0100
,
1000
0100
0010
0001
0200
0000
0320
0000
,
2030
0000
3200
0000
0302
0000
1003
0010
,
0002
0000
0023
0000
0230
0000
0310
0001
,
1000
0010
1000
0010
0100
0010
0100
0010
,
1000
0001
0010
0100
0010
0100
2000
0000
,
3100
0100
0010
0000
1000
0000
0101
0000
,
1000
0000
1000
0000
0001
0100
0010
0000
,
0100
0100
0001
0000
1000
1000
0100
0000
,
0010
0100
0010
0100
0001
0100
0010
0001
,
0010
0010
0100
0000
0001
0000
1010
0000
,
0001
0000
0001
0000
1000
0010
0100
0000
,
0010
0010
1000
0000
0001
0001
0010
0000
,
0100
0010
0100
0010
1000
0010
0100
1000
,
0002
0103
2000
3100
,
0001
0000
0001
0000
0100
0010
1000
0000
0100
0010
0100
0000
0010
0000
0001
0000
,
2000
3010
0002
0013
,
1000
0000
1000
0000
0010
0100
0001
0000
1000
0100
1000
0000
0100
0000
0010
0000
,
0001
0100
0010
0000
1001
0000
0010
0000
0000
0000
1000
0000
0010
0100
0001
0000
,
1000
0100
1000
0000
0110
0000
0001
0000
1000
0100
0010
0000
0001
0100
0010
0000
,
1000
0100
0010
0000
1001
0000
0010
0000
0000
0000
0001
0000
0010
0100
1000
0000
,
0001
0100
0001
0000
0110
0000
1000
0000
0001
0100
0001
0100
0010
1000
0100
0010
,
0002
0000
0000
0000
0000
0003
0000
0000
0000
0000
0000
0000
0000
0000
0000
0000
;
