#TITLE:Lunatic Rough Party!!;
#SUBTITLE:;
#ARTIST:かめりあ;
#TITLETRANSLIT:;
#SUBTITLETRANSLIT:;
#ARTISTTRANSLIT:Camellia;
#GENRE:BEMANI;
#CREDIT:;
#BANNER:Lunatic Rough Party!!.png;
#BACKGROUND:Lunatic Rough Party!!-bg.png;
#LYRICSPATH:;
#CDTITLE:../cdtitle.png;
#MUSIC:Lunatic Rough Party!!.ogg;
#OFFSET:1.339000;
#SAMPLESTART:88.569000;
#SAMPLELENGTH:15.000000;
#LASTBEATHINT:0.678000;
#SELECTABLE:YES;
#BPMS:0.000000=120.000000
,148.000000=130.000000
,152.000000=140.000000
,156.000000=160.000000
,160.000000=180.000000
,164.000000=200.000000
,168.000000=220.000000
,172.000000=240.000000
,176.000000=280.000000
,180.000000=300.000000
,184.000000=320.000000
,188.000000=340.000000
,192.000000=360.000000
,196.000000=380.000000
,200.000000=390.000000
,204.000000=400.000000
,348.000000=380.000000
,356.000000=350.000000
,360.000000=320.000000
,364.000000=280.000000
,368.000000=240.000000
;
#STOPS:
;
#BGCHANGES:-99.000=../bg.avi=1.000=0=0=1=====,
99999=-nosongbg-=1.000=0=0=0 // don't automatically add -songbackground-
;
#KEYSOUNDS:;
#ATTACKS:;

//---------------dance-double - ----------------
#NOTES:
     dance-double:
     :
     Easy:
     7:
     0.200700,0.443500,0.133009,0.266017,0.000000,169.000000,153.000000,16.000000,32.000000,0.000000,0.000000,0.200700,0.443500,0.133009,0.266017,0.000000,169.000000,153.000000,16.000000,32.000000,0.000000,0.000000:
00000000
00000000
00000000
00000000
,
00000000
00000000
00000000
00000000
,
00000000
00000000
00000000
00000000
,
00000000
00000000
00000000
00000000
,
00000000
00000000
00000000
00000000
,
00000000
00000000
00000000
00000000
,
00000000
00000000
00000000
00000000
,
00000000
00000000
00000000
00000000
,
00000000
00000000
00000000
00000000
,
20000000
30010000
00010000
10000000
,
01100000
00020000
00032000
00003001
,
00000110
00000100
00001000
00000010
,
00000001
00000000
00000000
00001000
00000000
00000000
00010000
00000000
,
00011000
00001000
00100000
00010000
,
02000000
13000000
00100000
00010000
,
02000000
03001000
00010000
00001000
,
00000100
00000000
00000000
00000100
00000000
00000000
00000010
00000000
,
00000001
00001000
00000001
00000000
00000001
00000000
00000200
00000000
,
00001300
00001000
00010000
00001000
,
02000000
03100000
10000000
01000000
,
00100000
00010000
01000000
00010000
,
00002000
00000000
00000000
00000000
,
00000000
00000000
00003000
00000000
,
00000002
00000000
00000000
00000000
,
00000000
00000000
00000003
00000000
,
00000010
00000100
00010000
00001000
,
00100000
00010000
10000000
10000000
,
00100000
10000000
00010000
01000000
,
00001000
00001000
00010000
00010000
,
00100000
01000000
00001000
00010000
,
00000010
00001000
00000001
00000001
,
00000010
00000001
00001000
00000100
,
00010000
00010000
00001000
00001000
,
00011000
00000000
00000000
00000000
,
00010000
00000000
00000000
00000000
,
01000000
00000000
00000000
00000000
,
10000000
00000000
00000000
00000000
,
10010000
00000000
00000000
00000000
,
00011000
00000000
00000000
00000000
,
00001001
00000000
00000000
00000000
,
00011000
00000000
00000000
00000000
,
10010000
00000000
00000000
00000000
,
00101000
00000000
00000000
00000000
,
00010100
00000000
00000000
00000000
,
00001001
00000000
00000000
00000000
,
00010000
00000000
00000000
00000000
,
00010000
00000000
00000000
00000000
,
00010000
00000000
00000000
00000000
,
00010000
00000000
00000000
00000000
,
00010000
00000000
00000000
00000000
,
00010000
00000000
00000000
00000000
,
00010000
00000000
00000000
00000000
,
00010000
00000000
00000000
00000000
,
00022000
00000000
00033000
00000000
,
00002000
00000000
00000000
00000000
,
00003010
00000000
00000100
00000000
,
00001000
00000000
00001000
00000000
,
00000002
00000000
00000003
00000000
,
00002000
00000000
00000000
00000000
,
00003010
00000000
00000100
00000000
,
00001000
00000000
00010000
00000000
,
02000000
00000000
03000000
00000000
,
00200000
00000000
00000000
00000000
,
10300000
00000000
10000000
00000000
,
00100000
00000000
01000000
00000000
,
00020000
00000000
00030000
00000000
,
00002000
00000000
00003000
00000000
,
00020000
00000000
00030000
00000000
,
00000200
00000000
00000300
00000000
,
00002002
00000000
00003003
00000000
,
00000020
00000000
00000000
00000000
,
00000130
00000000
00000100
00000000
,
00000010
00000000
00000001
00000000
,
00002000
00000000
00003000
00000000
,
00000002
00000000
00000000
00000000
,
00000103
00000000
00000010
00000000
,
00001000
00000000
00010000
00000000
,
00200000
00000000
00300000
00000000
,
20000000
00000000
00000000
00000000
,
31000000
00000000
01000000
00000000
,
00100000
00000000
00010000
00000000
,
00002000
00000000
00003000
00000000
,
00000200
00000000
00000300
00000000
,
00000002
00000000
00000003
00000000
,
00000020
00000000
00000030
00000000
,
00000110
00000000
00000000
00000000
,
00000000
00000000
00000000
00000000
,
00001001
00000000
00000000
00000000
,
00000000
00000000
00000000
00000000
,
00000001
00000000
00000000
00000000
,
00001000
00000000
00000000
00000000
,
00010000
00000000
00000000
00000000
,
00100000
00000000
00100000
00000000
,
20000000
00000000
00000000
00000000
,
00000000
00000000
00000000
00000000
,
00000000
00000000
00000000
00000000
,
00000000
00000000
00000000
00000000
,
30000000
00000000
00000000
00000000
;

//---------------dance-double - ----------------
#NOTES:
     dance-double:
     :
     Hard:
     13:
     0.439403,0.806364,0.324208,0.266017,0.103913,370.000000,331.000000,39.000000,32.000000,0.000000,0.000000,0.439403,0.806364,0.324208,0.266017,0.103913,370.000000,331.000000,39.000000,32.000000,0.000000,0.000000:
00000000
00000000
00000000
00000000
,
00000000
00000000
00000000
00000000
,
00000000
00000000
00000000
00000000
,
00000000
00000000
00000000
00000000
,
00000000
00000000
00000000
00000000
,
00000000
00000000
00000000
00000000
,
00000000
00000000
00000000
00000000
,
00000000
00000000
00000000
00000000
,
00000000
00000000
00000000
00000000
,
00002001
00000000
00000000
00000000
00000000
00000000
00003100
00000000
00000000
00000100
00000000
00000010
00000000
00000000
00000001
00000000
00000000
00000001
00000000
00000000
00000001
00000100
00000000
00000000
,
00002000
00000000
00003010
00000010
00001000
00010000
01000000
00010000
,
21000000
00000000
00000000
00000000
00000000
00000000
30100000
00000000
10000000
00100000
00000000
00000000
01000000
00000000
00000000
01000000
00000000
00000000
10000000
00000000
00000000
00010000
00000000
00000000
,
01000000
00000000
00000000
00000000
00000000
00011000
00000000
00000000
00000000
00000100
00000000
00000000
00000000
00000000
00011000
00000000
00000000
00000000
00000010
00000000
00000000
00001000
00000000
00000000
,
00001002
00000000
00000000
00000000
00000000
00000000
00000013
00000000
00000000
00000010
00000000
00000001
00000000
00000000
00000100
00000000
00000000
00000100
00000000
00000000
00000100
00001000
00000000
00000000
,
00010020
00000000
00000000
00000000
00000000
00000000
00000000
00000000
00000000
00000000
00010000
00000000
00000000
00000000
00010000
00000030
00000000
00000000
00001000
00000000
00000000
00000000
00000000
00000000
00010000
00000000
00000000
00000000
00000000
00000000
00100000
00000000
00000000
00000000
00000000
00000000
00100000
00000000
00000000
00000000
00000000
00000000
00010000
00000000
00000000
00000000
00000000
00000000
,
20100000
00000000
31000000
00100000
01000000
01000000
01000000
00100000
,
10000000
00000000
00000000
00000000
00000000
00110000
00000000
00000000
00000000
10000000
00000000
00000000
00000000
00000000
00101000
00000000
00000000
00000000
01000000
00000000
00000000
01000000
00000000
00000000
,
00010000
00000000
00000000
00011000
00000000
00000000
00001000
00000000
00000000
00000000
00000000
00000000
00000200
00000000
00000000
00000000
00000000
00000000
00000301
00000000
00000010
00000000
00000100
00000000
,
00002000
00000000
00003001
00000001
00000010
00001000
00010000
00001000
,
00000200
00000000
00000000
00000000
00000000
00000000
00001300
00000000
00000000
00000100
00000000
00000000
00000010
00000000
00000000
00000010
00000000
00000000
00001000
00000000
00010000
00000000
01000000
00000000
,
20000000
30000000
02200000
03300000
00020000
00000000
00031000
00001000
,
00020000
00000000
00001000
00000000
,
01000000
00000000
00100000
00000000
,
00032000
00000000
00010000
00000000
,
00000100
00000000
00003010
00000000
,
00000100
00000100
00000010
00000001
00000010
00000100
00001000
00000100
,
00010000
00010000
00001000
00001000
00100000
00010000
10000000
01000000
,
00100000
00100000
01000000
10000000
01000000
00100000
00010000
00100000
,
00001000
00000000
00000000
00001000
00000000
00000000
00010000
00000000
00000000
00010000
00000000
00000000
00000100
00000000
00000000
00000000
00000000
00000000
00001000
00000000
00000100
00000000
00000010
00000000
,
00000000
00001001
00000010
00000001
00001000
00001000
00000010
00000001
,
00000100
00000100
00001000
00010000
01000000
01000000
10000000
00100000
,
00010000
00010000
01000000
00100000
10000000
10000000
01000000
00010000
,
01100000
00000000
00000000
00000000
00000000
00000000
10000000
01000000
00010000
00001000
00000100
00000001
,
00000110
00000000
00000010
00000001
,
00001100
00000001
00001000
00010000
,
00001010
00001000
00010000
10000000
,
01010000
10000000
00100000
00010000
,
11000000
01000000
00100000
00010000
,
00011000
00001000
00000100
00000010
,
00000101
00000100
00000010
00001000
,
00011000
00010000
01000000
00100000
,
10010000
00000000
00110000
00000000
,
01001000
00000000
00010100
00000000
,
00001010
00000000
00001001
00000000
,
00000110
00000000
00011000
00000000
,
00100000
00000000
01000000
00000000
,
00010000
00000000
00000010
00000000
,
00000100
00000000
00001000
00000000
,
00100000
00000000
00010000
00000000
,
10000000
01000000
10000000
01000000
,
10000000
01000000
10000000
01000000
,
10000000
01000000
10000000
01000000
,
00100000
00000000
00001000
00000000
,
00022000
00000000
00033000
00000000
,
00000010
00001000
00000010
00001000
,
00000100
00000010
00000001
00000100
,
00002000
00000000
00013000
00010000
,
00202000
00000000
00303000
00000000
,
00010000
01000000
00010000
01000000
,
00100000
00000000
00000000
10000000
00000000
00000000
01000000
00000000
,
00100000
00001000
00010000
00000100
,
00000220
00000000
00000330
00000000
,
00000001
00000010
00000001
00000010
,
00001000
00001000
00010000
00001000
,
00000020
00000000
00000031
00000001
,
00001000
00000000
00000000
00000010
00000000
00000000
00001000
00000000
,
00010000
00000000
00000000
00001000
00000000
00000000
00010000
00000000
,
01000000
00000000
00000000
00010000
00000000
00000000
01000000
00000000
,
00100000
00000000
00000000
00010000
00000000
00000000
00001000
00000000
,
00022000
00000000
00033000
00000000
,
00100000
00010000
00100000
00010000
,
01000000
00100000
10000000
01000000
,
00020000
00000000
00031000
00001000
,
00020020
00000000
00030030
00000000
,
00001000
00000100
00001000
00000100
,
00000010
00000000
00000000
00000001
00000000
00000000
00000100
00000000
,
00000010
00010000
00001000
01000000
,
02200000
00000000
03300000
00000000
,
10000000
00100000
10000000
00100000
,
00010000
00010000
00001000
00010000
,
00200000
00000000
10300000
10000000
,
00010000
00000000
00000000
00100000
00000000
00000000
00010000
00000000
,
00001000
00000000
00000000
00010000
00000000
00000000
00001000
00000000
,
00000100
00000000
00000000
00001000
00000000
00000000
00000100
00000000
,
00000010
00000000
00000000
00001000
00000000
00000000
00010000
00000000
,
00011000
00000000
01000000
00000000
,
00100000
00000000
00010000
00000000
,
00011000
00000000
00000100
00000000
,
00000010
00000000
00001000
00000000
,
00001001
00000000
00000001
00000000
,
00000010
00000000
00001000
00000000
,
00011000
00000000
00010000
00000000
,
00100000
10000000
01000000
00010000
,
00002000
00000000
00000000
00000000
,
00000000
00000000
00000000
00000000
,
00000000
00000000
00000000
00000000
,
00000000
00000000
00000000
00000000
,
00003000
00000000
00000000
00000000
;

//---------------dance-double - ----------------
#NOTES:
     dance-double:
     :
     Challenge:
     17:
     0.782613,1.411138,0.390713,0.656730,0.860399,659.000000,612.000000,47.000000,79.000000,20.000000,0.000000,0.782613,1.411138,0.390713,0.656730,0.860399,659.000000,612.000000,47.000000,79.000000,20.000000,0.000000:
00000000
00000000
00000000
00000000
,
00210000
00000000
00000000
00301000
00010000
01000000
10000000
01000000
00100000
00010000
00000000
00000000
,
00021000
00000000
00000000
00031000
00000100
00000010
00000001
00000010
00000100
00001000
00000000
00000000
,
00001200
00000000
00000000
00010300
00001000
00000010
00000001
00000010
00000100
00001000
00000000
00000000
,
00012000
00000000
00000000
00013000
00100000
01000000
10000000
01000000
00100000
00010000
00000000
00000000
,
00210000
00000000
00000000
00301000
00010000
01000000
10000000
00100000
00010000
00001000
00010000
00100000
,
01000000
00010000
10000000
01000000
00100000
00010000
00001000
00000100
00000010
00000001
00000100
00000010
,
00001000
00000000
00001000
00000100
00000000
00000100
00010000
00000000
00010000
00001000
00000000
00001000
00100000
00000000
00100000
00010000
00000000
00010000
10000000
00000000
10000000
01000000
00000000
01000000
,
00100000
00000000
00010000
00000000
00100000
00000000
00001000
00000000
00010000
00000000
00001000
00000000
00010000
00000000
00000100
00000000
00010000
00000000
00000100
00000000
00001000
00000000
00000100
00000000
00000010
00000000
00000000
00000001
00000000
00000000
00000100
00000000
00000000
00000000
00000000
00000000
00001000
00000000
00000000
00000000
00000000
00000000
01000000
00000000
00000000
00000000
00000000
00000000
,
10020000
00000000
00000000
00000000
00000000
00000000
10030000
00000000
00010000
10000000
00010000
00000000
MMMM0000
00000000
01100000
00000000
00000000
01000000
00000000
00000000
01000000
00002000
00000000
00000000
,
00023000
00000000
00000000
00000000
00000000
00000000
00000000
00000000
00000000
00030000
00000010
00000000
00000000
00000000
00001000
00000000
00000010
00000000
00001000
00000000
00000000
00000000
00000010
00000000
00000100
00000000
00000001
00000000
00000100
00000000
00000001
00000000
00001000
00000000
00000001
00000000
00000010
00000000
00000000
00000000
00000100
00000000
00002000
00000000
00000000
00000000
00003000
00000000
,
00010200
00000000
00000000
00000000
00000000
00000000
00001300
00000000
00000010
00010000
00000000
00001000
00100000
00000000
00100000
00010000
00100000
01000000
10000000
00000000
01000000
00200000
00000000
00000000
,
01300000
10000000
01000000
10000000
01000000
00020000
00000000
00000000
00000000
01030000
10000000
01000000
10000000
01000000
00020000
00000000
00000000
00000000
00031000
00000000
00000000
00000010
00000000
00000000
,
00002001
00000000
00000000
00000000
00000000
00000000
00003001
00000000
00001000
00000001
00001000
00000000
0000MMMM
00000000
00000110
00000000
00000000
00000010
00000000
00000000
00000010
00020000
00000000
00000000
,
00032000
00000000
00000000
00000000
00000000
00000000
00000000
00000000
00000000
00003000
01000000
00000000
00000000
00000000
00010000
00000000
01000000
00000000
00010000
00000000
00000000
00000000
01000000
00000000
00100000
00000000
10000000
00000000
00100000
00000000
10000000
00000000
00010000
00000000
10000000
00000000
01000000
00000000
00000000
00000000
00100000
00000000
00020000
00000000
00000000
00000000
00030000
00000000
,
00201000
00000000
00000000
00000000
00000000
00000000
00310000
00000000
01000000
00001000
00000000
00010000
00000100
00000000
00001000
00000000
00000100
00000000
00000010
00000001
00000100
00000000
00000100
00000000
,
00000010
00000001
00000010
00000001
00000010
00002000
00000000
00000000
00000000
00003010
00000001
00000010
00000001
00000010
00002000
00000000
00000000
00000000
00013000
00000000
00000000
01000000
00000000
00000000
,
10000000
00000000
00000000
01100000
00000000
00000000
00010000
00000000
00000000
00010000
00000000
00000000
10000000
00100000
01000000
00010000
01000000
00100000
10000000
00000000
01000000
00000000
00010000
00000000
,
00002000
00000000
00000000
00000000
00000000
00013000
00000000
00100000
00010000
00001000
00000000
00001000
00000100
00001000
00000100
00000010
00000000
00000010
00001000
00000000
00001000
00000002
00000000
00000000
,
00002003
00000000
00000000
00000000
00000000
00000000
00003100
00000000
00000100
00000010
00000000
00000010
00001000
00000000
00001000
00010000
00000000
00010000
00000200
00000000
00020300
00000000
01030000
00000000
,
02200000
03300000
20020000
30030000
00202000
00303000
00010100
00001000
,
00002001
00000000
00000000
00000000
00000000
00000100
00000000
00000000
00000000
00000001
00000000
00000000
00000010
00000000
00000000
00000000
00000000
00000001
00000000
00000000
00000000
00000010
00000000
00000000
,
00023000
00000000
00000000
00000000
00000000
01000000
00000000
00000000
00000000
10000000
00000000
00000000
00100000
00000000
00000000
00000000
00000000
10000000
00000000
00000000
00000000
00100000
00000000
00000000
,
00032000
00000000
00000000
00000000
00000000
00000100
00000000
00000000
00000000
00000001
00000000
00000000
00000010
00000000
00000000
00000000
00000000
00000001
00000000
00000000
00000000
00000010
00000000
00000000
,
00023000
00000000
00000000
00000000
00000000
01000000
00000000
00000000
00000000
10000000
00000000
00000000
00130000
00000000
00000000
MMMM0000
00000000
00100000
10000000
00100000
10000000
00010000
00100000
00010000
,
01000000
00000000
00000000
00100000
00000000
00100000
10000000
00000000
00000000
00010000
00000000
00000000
00100000
00000000
00000000
01000000
00000000
01000000
10000000
00000000
00000000
00010000
00000000
00000000
,
00100000
00000000
00000000
00001000
00000000
00001000
00010000
00000000
00000000
00000100
00000000
00000000
00001000
00000000
00000000
00000001
00000000
00000001
00000010
00000000
00000000
00000100
00000000
00000000
,
00010000
00000000
00000000
00001000
00000000
00001000
00000100
00000000
00000000
00000010
00000000
00000000
00001000
00000000
00000000
00010000
00000000
00010000
01000000
00000000
00000000
00100000
00000000
10000000
,
00010000
00000000
00000000
10000000
00000000
01000000
10000000
00000000
00000000
00010000
00000000
00010000
01000000
00000000
00000000
MMMM0000
00000000
00000000
01000000
00000000
00010000
00000000
00001000
00000000
,
0000MMMM
00000000
00000000
00001010
00000000
00000100
00000001
00000000
00000000
00001000
00000000
00000000
00000100
00000000
00000000
00000010
00000000
00000010
00000001
00000000
00000000
00001000
00000000
00000000
,
00000100
00000000
00000000
00010000
00000000
00010000
00001000
00000000
00000000
00100000
00000000
00000000
00010000
00000000
00000000
10000000
00000000
10000000
01000000
00000000
00000000
00100000
00000000
00000000
,
00001000
00000000
00000000
00010000
00000000
00010000
00100000
00000000
00000000
01000000
00000000
00000000
00010000
00000000
00000000
00001000
00000000
00001000
00000010
00000000
00000000
00000100
00000000
00000001
,
00001000
00000000
00000000
00000000
00000000
00001000
00000000
00000000
00000000
00000001
00000000
00000000
00000011
00000000
00000100
00000000
00001000
00000000
00011000
00000000
00010000
00000000
01000000
00000000
,
20100000
00000000
00000000
30010000
01000000
00100000
10000000
00100000
01000000
00010000
00000000
00000000
,
00012000
00000000
00000000
00013000
00001000
00000100
00000001
00000010
00000100
00001000
00000000
00000000
,
00000102
00000000
00000000
00001003
00000010
00000100
00000001
00000100
00000010
00001000
00000000
00000000
,
00021000
00000000
00000000
00031000
00010000
00100000
10000000
01000000
00100000
00010000
00000000
00000000
,
10020000
00000000
00000000
10030000
01000000
00010000
00001000
00000010
00000001
00001000
00000000
00000000
,
00002001
00000000
00000000
00003001
00000100
00001000
00010000
00100000
10000000
00010000
00000000
00000000
,
01200000
00000000
00000000
10300000
00100000
00010000
00001000
00000100
00000001
00001000
00000000
00000000
,
00000120
00000000
00000000
00000031
00000010
00001000
00010000
01000000
10000000
00010000
00000000
00000000
,
11000000
00000000
01001000
00000000
,
00010100
00000000
00000101
00000000
,
00000011
00000000
00010010
00000000
,
00101000
00000000
10100000
00000000
,
10000000
00010000
10000000
00010000
,
01000000
00100000
01000000
00100000
,
00010000
00001000
00010000
00001000
,
00000100
00000010
00000100
00000010
,
00001000
00000001
00001000
00000001
00001000
00000001
00001000
00000001
,
00001000
00000001
00001000
00000001
00001000
00000001
00001000
00000001
,
00001000
00000001
00001000
00000001
00001000
00000001
00001000
00000001
,
00000100
00000010
00001000
00000000
,
00010020
00000000
00000000
00000000
,
00010030
00001000
00010000
00001000
00010000
00001000
00010000
00001000
,
00100000
00010000
10000000
01000000
,
00200000
00000000
00310000
01000000
,
02001000
00000000
00000000
00000000
,
03001000
00010000
00001000
00010000
00001000
00010000
00001000
00010000
,
00000020
00000000
00000000
00002030
00000000
00000000
00003100
00000000
,
00000010
00000001
00001000
00000100
,
00001002
00000000
00000000
00000000
,
00000103
00000010
00000100
00000010
00000100
00000010
00000100
00000010
,
00001000
00000010
00000100
00001000
,
00020000
00000000
00030010
00001000
,
00000002
00000000
00000000
00000203
00000000
00000000
00001300
00000000
,
00000200
00000000
00000000
00002300
00000000
00000000
00013000
00000000
,
00002000
00000000
00000000
00023000
00000000
00000000
01030000
00000000
,
00020000
00000000
00000000
02030000
00000000
00000000
13000000
00000000
,
00210000
00000000
00000000
00000000
,
00301000
00010000
00001000
00010000
00001000
00010000
00001000
00010000
,
00000010
00001000
00000001
00000100
,
00000020
00000000
00001030
00000100
,
00010200
00000000
00000000
00000000
,
00010300
00001000
00010000
00001000
00010000
00001000
00010000
00001000
,
00200000
00000000
00000000
00320000
00000000
00000000
01030000
00000000
,
00100000
10000000
00010000
01000000
,
20010000
00000000
00000000
00000000
,
31000000
00100000
01000000
00100000
01000000
00100000
01000000
00100000
,
00010000
00100000
01000000
00010000
,
00002000
00000000
00103000
00010000
,
20000000
00000000
00000000
32000000
00000000
00000000
03010000
00000000
,
02000000
00000000
00000000
03020000
00000000
00000000
00031000
00000000
,
00020000
00000000
00000000
00032000
00000000
00000000
00003100
00000000
,
00002000
00000000
00000000
00003200
00000000
00000000
00000301
00000000
,
00000102
00000000
00000000
00000000
00000000
00000000
00001003
00000000
00000100
00000000
00000010
00000000
,
00000001
00000000
00000010
00000000
00000100
00000000
00001000
00000000
00000000
00000000
00000000
00000000
,
00021000
00000000
00000000
00000000
00000000
00000000
00031000
00000000
00010000
00000000
01000000
00000000
,
10000000
00000000
00100000
00000000
01000000
00000000
00010000
00000000
00000000
00000000
00000000
00000000
,
20100000
00000000
00000000
00000000
00000000
00000000
30010000
00000000
00100000
00000000
01000000
00000000
,
10000000
00000000
01000000
00000000
00100000
00000000
00010000
00000000
00000000
00000000
00000000
00000000
,
00012000
00000000
00000000
00000000
00000000
00000000
00013000
00000000
00001000
00000000
00000010
00000000
,
00000001
00000000
00000000
00000000
00000100
00000000
00000000
00000000
00000010
00000000
00000000
00000000
00001000
00000000
00000000
00010000
00000000
00000000
00001000
00000000
00000000
00010000
00000000
00000000
,
00022000
00000000
00000000
00000000
,
00000000
00000000
00000000
00000000
,
00000000
00000000
00000000
00000000
,
00000000
00000000
00000000
00000000
,
00033000
00000000
00000000
00000000
;

//---------------dance-double - ----------------
#NOTES:
     dance-double:
     :
     Medium:
     10:
     0.311145,0.645092,0.266017,0.249391,0.016626,262.000000,230.000000,32.000000,30.000000,0.000000,0.000000,0.311145,0.645092,0.266017,0.249391,0.016626,262.000000,230.000000,32.000000,30.000000,0.000000,0.000000:
00000000
00000000
00000000
00000000
,
00000000
00000000
00000000
00000000
,
00000000
00000000
00000000
00000000
,
00000000
00000000
00000000
00000000
,
00000000
00000000
00000000
00000000
,
00000000
00000000
00000000
00000000
,
00000000
00000000
00000000
00000000
,
00000000
00000000
00000000
00000000
,
00000000
00000000
00000000
00000000
,
10020000
00000000
01030000
01000000
00100000
00000000
00010000
00000000
,
00002000
00003100
00000010
00001000
,
00002001
00000000
00003100
00000100
00000010
00000000
00000001
00000000
,
00001000
00000000
00000000
00000000
00000000
00000110
00000000
00000000
00000000
00000001
00000000
00000000
00000000
00000000
00000110
00000000
00000000
00000000
00001000
00000000
00000000
00010000
00000000
00000000
,
00021000
00130000
00010000
01000000
,
20000000
00000000
30010000
00000000
00100000
00100000
01000000
01000000
,
20010000
31000000
00100000
00001000
,
00010000
00000000
00000000
00000000
00000000
00101000
00000000
00000000
00000000
00010000
00000000
00000000
00000000
00000000
00101000
00000000
00000000
00000000
00010000
00000000
00000000
00001000
00000000
00000000
,
00000100
00001001
00000100
00000000
00000010
00000000
00000002
00000000
,
00000103
00000000
00001000
00001000
00000010
00000000
00010000
00000000
,
00200000
00310000
00000020
00001030
,
00011000
00011000
01010000
11000000
,
20020000
00000000
00000000
00000000
,
00000000
00000000
30030000
00000000
,
00002000
00000000
00000000
00000000
,
00000000
00000000
00003000
00000000
,
00100000
00000000
00010000
00100000
01000000
00000000
00010000
00000000
,
00001000
00000000
00000010
00000100
00001000
00000000
00000100
00000000
,
00001000
00000000
00000001
00000010
00000010
00000000
00000100
00000000
,
00001000
00001000
00000001
00000001
,
00000000
00000010
00001000
00000010
00000100
00000000
00001000
00000000
,
00010000
00000000
00100000
01000000
00010000
00000000
01000000
00000000
,
10000000
00000000
00100000
00100000
01000000
00000000
10000000
00000000
,
00010000
00000000
00010000
00000000
00100000
10000000
00100000
10000000
,
10010000
00000000
01000000
00000000
,
10010000
00000000
00100000
00000000
,
01100000
00000000
10000000
00000000
,
01100000
00000000
00010000
00000000
,
00011000
00000000
00000010
00000000
,
00011000
00000000
00100000
00000000
,
00011000
00000000
01000000
00000000
,
00011000
00000000
00000100
00000000
,
00011000
00000000
00100000
00000000
,
01100000
00000000
00010000
00000000
,
00011000
00000000
00000010
00000000
,
00000110
00000000
00001000
00000000
,
00010000
00000000
00010000
00000000
,
00001000
00000000
00001000
00000000
,
00010000
00000000
00010000
00000000
,
00001000
00000000
00001000
00000000
,
00010000
00000000
00001000
00000000
,
00010000
00000000
00001000
00000000
,
00010000
00000000
00001000
00000000
,
00100000
00000000
00010000
00000000
,
21000000
00000000
00000000
00000000
,
30020000
00000000
00000000
00000000
,
10030000
01000000
00100000
00000000
,
00002000
00000000
00013000
00001000
,
00000020
00000000
00000000
00000000
,
00000230
00000000
00000000
00000000
,
00000310
00000000
00000000
00001000
00000000
00000000
00000010
00000000
,
00000001
00000100
00000100
00000000
,
00002000
00000000
00000000
00000000
,
00203000
00000000
00000000
00000000
,
00310000
01000000
00010000
00000000
,
20000000
00000000
30100000
10000000
,
01000000
00000000
00000000
01000000
00000000
00000000
01000000
00000000
,
00010000
00000000
00000000
00010000
00000000
00000000
00010000
00000000
,
00001000
00000000
00000000
00001000
00000000
00000000
00001000
00000000
,
00000100
00000000
00000000
00000100
00000000
00000000
00000100
00000000
,
00000220
00000000
00000330
00000000
,
00002000
00000000
00000000
00000000
,
00003010
00000001
00001000
00000000
,
00000200
00000000
00001300
00010000
,
00200000
00000000
00000000
00000000
,
02300000
00000000
00000000
00000000
,
13000000
00000000
00000000
00100000
00000000
00000000
00010000
00000000
,
10000000
01000000
01000000
00000000
,
00020000
00000000
00000000
00000000
,
00030200
00000000
00000000
00000000
,
00001300
00000010
00001000
00000000
,
00000002
00000000
00000103
00000001
,
00000010
00000000
00000000
00000010
00000000
00000000
00000010
00000000
,
00001000
00000000
00000000
00001000
00000000
00000000
00001000
00000000
,
00010000
00000000
00000000
00010000
00000000
00000000
00010000
00000000
,
00100000
00000000
00000000
00100000
00000000
00000000
00100000
00000000
,
10010000
00000000
01000000
00000000
,
01000000
00000000
01000000
00000000
,
00110000
00000000
00001000
00000000
,
00001000
00000000
00001000
00000000
,
00001010
00000000
00010000
00000000
,
00010000
00000000
00010000
00000000
,
00000110
00000000
00001000
00000000
,
00000001
00000000
00000010
00000010
,
00000200
00000000
00000000
00000000
,
00000000
00000000
00000000
00000000
,
00000000
00000000
00000000
00000000
,
00000000
00000000
00000000
00000000
,
00000300
00000000
00000000
00000000
;

//---------------dance-single - ----------------
#NOTES:
     dance-single:
     :
     Challenge:
     17:
     0.799239,1.411138,0.382400,0.615165,0.889495,673.000000,627.000000,46.000000,74.000000,20.000000,0.000000,0.799239,1.411138,0.382400,0.615165,0.889495,673.000000,627.000000,46.000000,74.000000,20.000000,0.000000:
0000
0000
0000
0000
,
2100
0000
0000
3001
0100
0010
0001
0010
0100
0001
0000
0000
,
0012
0000
0000
1003
0010
0100
1000
0100
0010
1000
0000
0000
,
2010
0000
0000
3001
0010
0100
0001
0100
0010
0001
0000
0000
,
0102
0000
0000
1003
0100
0010
1000
0010
0100
1000
0000
0000
,
0012
0000
0000
1003
0010
0100
0001
1000
0100
1000
0001
0010
,
0100
1000
0001
1000
0100
0010
0100
1000
0010
0100
0001
1000
,
0001
0000
0001
0010
0000
0010
1000
0000
1000
0100
0000
0100
0001
0000
0001
0010
0000
0010
0100
0000
0100
1000
0000
1000
,
0001
0000
0010
0000
0001
0000
0010
0000
0100
0000
0010
0000
0100
0000
1000
0000
0100
0000
1000
0000
0100
0000
0010
0000
0001
0000
0000
0100
0000
0000
0010
0000
0000
0000
0000
0000
1000
0000
0000
0000
0000
0000
0001
0000
0000
0000
0000
0000
,
0120
0000
0000
0000
0000
0000
0031
0010
0100
1000
0100
0000
MMMM
0000
0001
0000
0000
0001
0000
0000
0100
0010
0000
0000
,
2010
0000
0000
0000
0000
3001
0000
0100
0001
0100
0000
0010
1000
0001
0100
0010
0000
0010
1000
0000
1000
0100
0000
0000
,
0021
0000
0000
0000
0000
0000
0130
0010
0100
1000
0000
0100
0020
0000
0000
0031
0000
1000
0100
0000
0010
0002
0000
0000
,
1003
0100
1000
0100
1000
0020
0000
0000
0000
0130
0001
0100
0001
0100
0020
0000
0000
0000
0130
0000
0000
0010
0000
0000
,
0210
0000
0000
0000
0000
0000
0301
0100
0010
1000
0010
0000
MMMM
0000
0001
0000
0000
0001
0000
0000
0010
0100
0000
0000
,
2100
0000
0000
0000
0000
3001
0000
0010
0001
0010
0000
0100
1000
0001
0010
0100
0000
0100
1000
0000
1000
0010
0000
0000
,
0201
0000
0000
0000
0000
0000
0310
0100
0010
1000
0000
0010
0100
0000
0100
0000
0010
0000
1000
0010
0100
0000
0001
0000
,
1000
0010
1000
0010
1000
0200
0000
0000
0000
0310
0001
0010
0001
0010
0200
0000
0000
0000
0310
0000
0000
0010
0000
0000
,
0001
0000
0000
2100
0000
0000
3001
0000
0000
0010
0100
1000
0100
0010
0100
0010
0001
1000
0001
0000
0100
0000
0010
0000
,
2000
0000
0000
0000
0000
3001
0000
0001
1000
0001
0000
0001
0010
0001
0010
0100
0000
0100
0010
0000
0010
0100
0000
0000
,
2001
0000
0000
0000
0000
0000
3001
0000
0100
0010
0000
0100
0001
1000
0001
1000
0010
0100
0001
0000
0001
0000
1000
0000
,
2002
3003
2200
3300
0202
0303
0110
0001
,
2001
0000
0000
0000
0000
0100
0000
0000
0000
0001
0000
0000
0001
0000
0000
0000
0000
0100
0000
0000
0000
0010
0000
0000
,
0010
0000
0000
0000
0000
0010
0000
0000
0000
0100
0000
0000
0001
0000
0000
0000
0000
0001
0000
0000
0000
0100
0000
0000
,
3002
0000
0000
0000
0000
0010
0000
0000
0000
1000
0000
0000
1000
0000
0000
0000
0000
0010
0000
0000
0000
0100
0000
0000
,
0100
0000
0000
0000
0000
0100
0000
0000
0000
1000
0000
0000
0013
0000
0000
MMMM
0000
0100
0010
0001
0010
0100
1000
0001
,
2000
0000
0000
3001
0000
0001
0100
0000
0000
0010
0000
0000
1000
0000
0000
0100
0000
0100
0001
0000
0000
0100
0000
0000
,
1000
0000
0000
0001
0000
0001
0010
0000
0000
1000
0000
0000
0010
0000
0000
0001
0000
0001
1000
0000
0000
0100
0000
0000
,
0010
0000
0000
0100
0000
0100
1000
0000
0000
0001
0000
0000
0010
0000
0000
1000
0000
1000
0001
0000
0000
0100
0000
1000
,
0100
0000
0000
1000
0000
0001
0100
0000
0000
0010
0000
0001
0010
0000
0000
MMMM
0000
0000
0001
0000
0100
0000
0001
0000
,
MMMM
0000
0000
0001
0000
0001
0010
0000
0000
0100
0000
0000
1000
0000
0000
0010
0000
0010
0001
0000
0000
0010
0000
0000
,
1000
0000
0000
0001
0000
0001
0100
0000
0000
1000
0000
0000
0100
0000
0000
0001
0000
0001
1000
0000
0000
0010
0000
0000
,
0100
0000
0000
0010
0000
0010
1000
0000
0000
0001
0000
0000
0100
0000
0000
1000
0000
1000
0001
0000
0000
0010
0000
0000
,
1020
0000
0000
0000
0000
0001
0000
0000
0000
0001
0000
0000
0130
0000
0100
0000
0001
0000
0010
0000
0010
0000
0100
0000
,
0120
0000
0000
0031
0010
0100
1000
0100
0010
0001
0000
0000
,
2100
0000
0000
3001
0010
0100
1000
0010
0100
0001
0000
0000
,
0210
0000
0000
0301
0100
0010
1000
0010
0100
0001
0000
0000
,
2010
0000
0000
3001
0100
0010
1000
0100
0010
0001
0000
0000
,
2100
0000
0000
3001
0010
1000
0001
0100
1000
0001
0000
0000
,
0012
0000
0000
1003
0100
0001
1000
0010
0001
1000
0000
0000
,
2010
0000
0000
3001
0100
1000
0001
0010
1000
0001
0000
0000
,
0102
0000
0000
1003
0010
0001
1000
0100
0001
1000
0000
0000
,
1100
0010
0101
1000
,
1100
0001
0110
1000
,
0011
0100
1010
0001
,
0011
1000
0110
0001
,
1000
0010
1000
0010
,
0100
0001
0100
0001
,
1000
0100
1000
0100
,
0010
0001
0010
0001
,
0010
0100
0010
0100
0010
0100
0010
0100
,
1000
0100
1000
0100
1000
0100
1000
0100
,
1000
0001
1000
0001
1000
0001
1000
0001
,
0100
0010
1000
0000
,
2100
0000
0000
0000
,
3001
0100
0001
0100
0001
0100
0001
0100
,
0010
0100
0001
0010
,
2000
0000
3010
0010
,
0021
0000
0000
0000
,
0130
1000
0100
1000
0100
1000
0100
1000
,
0002
0000
0000
0013
0000
0000
0010
0100
,
0010
0001
1000
0001
,
0201
0000
0000
0000
,
0310
1000
0010
1000
0010
1000
0010
1000
,
0001
0000
0100
0000
0001
0000
1000
0000
0000
0010
0000
0000
,
0200
0000
0301
1000
,
0002
0000
0000
0023
0000
0000
2030
0000
,
3002
0000
0000
0203
0000
0000
2300
0000
,
3002
0000
0000
0203
0000
0000
2300
0000
,
3002
0000
0000
0023
0000
0000
1030
0000
,
2010
0000
0000
0000
,
3001
0010
0001
0010
0001
0010
0001
0010
,
0100
0010
0001
0100
,
2000
0000
3100
0100
,
0201
0000
0000
0000
,
0310
1000
0010
1000
0010
1000
0010
1000
,
0002
0000
0000
0103
0000
0000
0100
0010
,
0100
0001
1000
0001
,
0021
0000
0000
0000
,
0130
1000
0100
1000
0100
1000
0100
1000
,
0001
0000
0010
0000
0001
0000
1000
0000
0000
0100
0000
0000
,
0020
0000
0031
1000
,
0002
0000
0000
0203
0000
0000
2300
0000
,
3002
0000
0000
0023
0000
0000
2030
0000
,
3002
0000
0000
0023
0000
0000
2030
0000
,
3002
0000
0000
0203
0000
0000
1300
0000
,
1001
0000
0000
0000
0000
0000
0001
0000
0010
0000
0100
0000
,
1000
0000
0100
0000
0010
0000
0001
0000
0000
0000
0000
0000
,
0110
0000
0000
0000
0000
0000
1000
0000
0010
0000
0100
0000
,
0001
0000
0100
0000
0010
0000
1000
0000
0000
0000
0000
0000
,
1001
0000
0000
0000
0000
0000
0001
0000
0100
0000
0010
0000
,
1000
0000
0010
0000
0100
0000
0001
0000
0000
0000
0000
0000
,
0110
0000
0000
0000
0000
0000
1000
0000
0100
0000
0010
0000
,
0001
0000
0000
0000
0010
0000
0000
0000
0100
0000
0000
0000
1000
0000
0000
0001
0000
0000
1000
0000
0000
0001
0000
0000
,
2002
0000
0000
0000
,
0000
0000
0000
0000
,
0000
0000
0000
0000
,
0000
0000
0000
0000
,
3003
0000
0000
0000
;

//---------------dance-single - ----------------
#NOTES:
     dance-single:
     :
     Hard:
     14:
     0.528472,1.169228,0.349147,0.324208,0.349147,445.000000,403.000000,42.000000,39.000000,0.000000,0.000000,0.528472,1.169228,0.349147,0.324208,0.349147,445.000000,403.000000,42.000000,39.000000,0.000000,0.000000:
// measure 0
0000
0000
0000
0000
,  // measure 1
0000
0000
0000
0000
,  // measure 2
0000
0000
0000
0000
,  // measure 3
0000
0000
0000
0000
,  // measure 4
0000
0000
0000
0000
,  // measure 5
0000
0000
0000
0000
,  // measure 6
0000
0000
0000
0000
,  // measure 7
0000
0000
0000
0000
,  // measure 8
0000
0000
0000
0000
,  // measure 9
1020
0000
0000
0000
0000
0000
0130
0000
0100
0001
0000
0010
0000
0000
0100
0000
0000
0100
0000
0000
1000
0001
0000
0000
,  // measure 10
2100
0000
0000
0000
0000
3010
0000
0010
0100
0010
0000
0010
1000
0000
0010
1000
0000
0100
0010
0000
0100
1000
0000
0000
,  // measure 11
2001
0000
0000
0000
0000
0000
3010
0000
0100
0001
0000
0001
0200
0000
0000
0310
0000
0100
0001
0000
1000
0001
0000
0000
,  // measure 12
1000
0000
0100
1000
0000
0020
0000
0000
0000
1030
0000
0100
1000
0000
0020
0000
0000
0000
0130
0000
0000
0010
0000
0000
,  // measure 13
0201
0000
0000
0000
0000
0000
0310
0000
0010
1000
0000
0100
0000
0000
0010
0000
0000
0010
0000
0000
0001
1000
0000
0000
,  // measure 14
0012
0000
0000
0000
0000
0103
0000
0100
0010
0100
0000
0100
0001
0000
0100
0001
0000
0010
0100
0000
0010
0001
0000
0000
,  // measure 15
1002
0000
0000
0000
0000
0000
0103
0000
0010
1000
0000
1000
0010
0000
0100
0000
0010
0000
1000
0001
1000
0000
0001
0000
,  // measure 16
0010
0000
0001
0010
0000
0200
0000
0000
0000
0310
0000
0001
0010
0000
0200
0000
0000
0000
1300
0000
0000
0001
0000
0000
,  // measure 17
1000
0000
0000
2100
0000
0000
3010
0000
0000
0100
0001
0100
0001
0000
0100
0000
0010
0000
1000
0000
1000
0000
1000
0000
,  // measure 18
0002
0000
0000
0000
0000
0103
0000
0000
0100
0001
0000
0001
1000
0000
1000
0010
0000
0100
0010
0000
1000
0001
0000
0000
,  // measure 19
0102
0000
0000
0000
0000
0000
0013
0000
0100
0010
0000
0001
0010
0000
0100
0000
1000
0000
0010
0000
0010
0000
0010
0000
,  // measure 20
2002
3003
2200
3300
0202
0303
0010
0010
,  // measure 21
0220
0000
0000
0000
,  // measure 22
0000
0000
0000
0000
,  // measure 23
0000
0000
0000
0000
,  // measure 24
0000
0000
0330
0000
,  // measure 25
1001
0010
0100
0100
0001
1000
0010
0010
,  // measure 26
0100
0001
1000
0010
0100
0001
0010
0010
,  // measure 27
0100
1000
0010
0010
1000
0100
0010
0100
,  // measure 28
1000
0000
0000
0001
0000
0000
1000
0000
0000
0100
0000
0000
0110
0000
0000
0000
0000
0000
0001
0000
0100
0000
0010
0000
,  // measure 29
1000
1001
0010
0010
0001
1000
0100
0100
,  // measure 30
0010
0001
1000
0100
0010
0001
0100
0100
,  // measure 31
0010
1000
0100
0100
1000
0010
0100
0010
,  // measure 32
1001
0000
0000
0000
0000
1000
0000
0000
0000
0100
0000
0000
0010
0000
0001
0000
0010
0000
0100
0000
1000
0000
0100
0000
,  // measure 33
2001
0000
0000
3001
0000
0001
0100
0000
0010
1000
0000
0000
,  // measure 34
2100
0000
0000
3001
0000
1000
0100
0000
0010
0001
0000
0000
,  // measure 35
0021
0000
0000
0130
0000
1000
0010
0000
0010
0100
0000
0000
,  // measure 36
0201
0000
0000
0310
0000
1000
0100
0000
0100
0010
0000
0000
,  // measure 37
0120
0000
0000
0031
0000
1000
0100
0000
0001
0100
0000
0000
,  // measure 38
2100
0000
0000
3010
0000
0001
0010
0000
1000
0010
0000
0000
,  // measure 39
0120
0000
0000
1030
0000
0001
0100
0000
1000
0100
0000
0000
,  // measure 40
0102
0000
0000
0013
0000
1000
0010
0000
0001
0010
0000
0000
,  // measure 41
0110
0000
1100
0000
,  // measure 42
0101
0000
0110
0000
,  // measure 43
1001
0000
0011
0000
,  // measure 44
1010
0000
1001
0000
,  // measure 45
1000
0100
1000
0100
,  // measure 46
0010
0001
0010
0001
,  // measure 47
1000
0010
1000
0010
,  // measure 48
0100
0001
0100
0001
,  // measure 49
1000
0010
0100
0001
,  // measure 50
1000
0010
0100
0001
,  // measure 51
0010
0100
0010
0100
,  // measure 52
1000
0000
0100
0000
,  // measure 53
2001
0000
0000
0000
,  // measure 54
3001
0100
0001
0100
,  // measure 55
1000
0100
0001
0100
,  // measure 56
0010
0000
1000
0001
,  // measure 57
0102
0000
0000
0000
,  // measure 58
1003
0100
1000
0100
,  // measure 59
0010
0000
0000
0001
0000
0000
0001
0000
,  // measure 60
1000
0100
1000
0001
,  // measure 61
0201
0000
0000
0000
,  // measure 62
0310
1000
0010
1000
,  // measure 63
0100
0001
0100
1000
,  // measure 64
0002
0000
0103
0001
,  // measure 65
1000
0000
0000
0010
0000
0000
0001
0000
,  // measure 66
0010
0000
0000
1000
0000
0000
0001
0000
,  // measure 67
1000
0000
0000
0100
0000
0000
0001
0000
,  // measure 68
0100
0000
0000
1000
0000
0000
0001
0000
,  // measure 69
1002
0000
0000
0000
,  // measure 70
1003
0010
1000
0010
,  // measure 71
0001
0010
1000
0010
,  // measure 72
0100
0000
0001
1000
,  // measure 73
2010
0000
0000
0000
,  // measure 74
3001
0010
0001
0010
,  // measure 75
0100
0000
0000
1000
0000
0000
1000
0000
,  // measure 76
0001
0010
0001
1000
,  // measure 77
1020
0000
0000
0000
,  // measure 78
0130
0001
0100
0001
,  // measure 79
0010
1000
0010
0001
,  // measure 80
2000
0000
3010
1000
,  // measure 81
0001
0000
0000
0100
0000
0000
1000
0000
,  // measure 82
0100
0000
0000
0001
0000
0000
1000
0000
,  // measure 83
0001
0000
0000
0010
0000
0000
1000
0000
,  // measure 84
0010
0000
0000
0001
0000
0000
1000
0000
,  // measure 85
1001
0000
0001
0100
,  // measure 86
0010
1000
0100
0000
,  // measure 87
1001
0000
1000
0100
,  // measure 88
0010
0001
0100
0000
,  // measure 89
0110
0000
1000
0100
,  // measure 90
0001
0100
1000
0000
,  // measure 91
0110
0000
1000
0010
,  // measure 92
0001
0000
0010
0000
1000
0001
1000
0100
,  // measure 93
0020
0000
0000
0000
,  // measure 94
0000
0000
0000
0000
,  // measure 95
0000
0000
0000
0000
,  // measure 96
0000
0000
0000
0000
,  // measure 97
0030
0000
0000
0000
;

//---------------dance-single - ----------------
#NOTES:
     dance-single:
     :
     Medium:
     11:
     0.374087,0.725728,0.290956,0.307582,0.033252,315.000000,280.000000,35.000000,37.000000,0.000000,0.000000,0.374087,0.725728,0.290956,0.307582,0.033252,315.000000,280.000000,35.000000,37.000000,0.000000,0.000000:
0000
0000
0000
0000
,
0000
0000
0000
0000
,
0000
0000
0000
0000
,
0000
0000
0000
0000
,
0000
0000
0000
0000
,
0000
0000
0000
0000
,
0000
0000
0000
0000
,
0000
0000
0000
0000
,
0000
0000
0000
0000
,
1020
0000
0031
0010
0000
1000
0010
1000
,
0002
0000
0013
0010
0100
0100
1000
0010
,
0120
0000
0130
0001
1000
0010
0100
0001
,
0010
0000
0000
0000
0000
1100
0000
0000
0000
0001
0000
0000
0000
0000
0110
0000
0000
0000
0001
0000
0000
0100
0000
0000
,
1020
0000
0031
0010
0000
1000
0100
0010
,
0200
0000
1300
0001
0010
0010
1000
0010
,
0002
0000
0103
0001
1000
0010
0100
0010
,
1000
0000
0000
0000
0000
0011
0000
0000
0000
0100
0000
0000
0000
0000
1001
0000
0000
0000
0010
0000
0000
0100
0000
0000
,
1000
1100
0001
0000
0100
0100
0100
1000
,
0100
0000
0010
0010
1000
0001
1000
0001
,
0020
0000
0130
0100
1000
1000
0001
1000
,
2100
0000
3020
0000
0032
0000
1003
1000
,
0220
0000
0000
0000
,
0000
0000
0000
0000
,
0000
0000
0000
0000
,
0000
0000
0330
0000
,
0100
0001
0100
0001
1000
0100
0010
0100
,
1000
0001
1000
0001
0100
0010
1000
0001
,
0010
0100
0010
0100
1000
0100
0001
0100
,
1000
0001
1000
0100
0110
0000
0002
0000
,
0103
1001
0010
0001
1000
0010
0100
0010
,
1000
0001
1000
0001
0010
0100
1000
0001
,
0100
0010
0100
0010
1000
0010
0001
0010
,
2010
0000
0000
3000
0000
0000
0100
0010
0100
0010
0100
0010
,
0002
0000
1000
0103
,
2000
0000
0010
3100
,
0020
0000
0100
0031
,
0200
0000
1000
0301
,
0110
1000
0010
1000
,
0110
1000
0100
1000
,
1001
0010
0001
0010
,
1001
0010
1000
0010
,
0011
0000
0011
0000
,
1100
0000
1100
0000
,
1001
0000
1001
0000
,
0110
0000
0110
0000
,
1000
0000
1000
0000
,
0100
0000
0100
0000
,
0001
0000
0001
0000
,
0010
0000
0010
0000
,
1000
0000
0100
0000
,
0001
0000
0010
0000
,
1000
0000
0100
0000
,
0001
0000
0010
0000
,
0220
0000
0330
0000
,
0002
0000
0000
0000
,
1003
0100
0010
0000
,
1000
0000
0010
0000
,
0021
0000
0000
0000
,
0230
0000
0000
0000
,
1300
0000
0000
0001
0000
0000
0001
0000
,
0100
0010
0100
0000
,
0220
0000
0330
0000
,
2000
0000
0000
0000
,
3100
0100
0100
0000
,
0020
0000
0130
1000
,
0001
0000
0000
0001
0000
0000
0001
0000
,
0010
0000
0000
0010
0000
0000
0010
0000
,
1000
0000
0000
1000
0000
0000
1000
0000
,
0100
0000
0000
0100
0000
0000
0100
0000
,
0220
0000
0330
0000
,
2000
0000
0000
0000
,
3001
0010
0100
0000
,
0001
0000
0100
0000
,
1200
0000
0000
0000
,
0320
0000
0000
0000
,
0031
0000
0000
1000
0000
0000
1000
0000
,
0010
0100
0010
0000
,
0220
0000
0330
0000
,
0002
0000
0000
0000
,
0013
0100
0010
0000
,
0200
0000
0310
0001
,
1000
0000
0000
1000
0000
0000
1000
0000
,
0100
0000
0000
0100
0000
0000
0100
0000
,
0001
0000
0000
0001
0000
0000
0001
0000
,
0010
0000
0000
0010
0000
0000
0010
0000
,
0110
0000
0001
0000
,
0010
0000
0001
0000
,
0110
0000
0001
0000
,
0100
0000
0001
0000
,
1001
0000
0010
0000
,
1000
0000
0010
0000
,
1001
0000
0010
0000
,
0001
0000
0010
1000
,
0002
0000
0000
0000
,
0000
0000
0000
0000
,
0000
0000
0000
0000
,
0000
0000
0000
0000
,
0003
0000
0000
0000
;

//---------------dance-single - ----------------
#NOTES:
     dance-single:
     :
     Easy:
     8:
     0.247016,0.524137,0.199513,0.365774,0.000000,208.000000,184.000000,24.000000,44.000000,0.000000,0.000000,0.247016,0.524137,0.199513,0.365774,0.000000,208.000000,184.000000,24.000000,44.000000,0.000000,0.000000:
0000
0000
0000
0000
,
0000
0000
0000
0000
,
0000
0000
0000
0000
,
0000
0000
0000
0000
,
0000
0000
0000
0000
,
0000
0000
0000
0000
,
0000
0000
0000
0000
,
0000
0000
0000
0000
,
0000
0000
0000
0000
,
1200
0301
0000
0001
,
0200
0000
1300
0000
0010
0100
0010
0000
,
0002
0000
0013
0000
0100
0100
0010
0000
,
1000
0000
0000
1000
0000
0000
1000
0000
,
0021
1030
0000
1000
,
0020
0000
0031
0000
0100
0010
0100
0000
,
2000
0000
3100
0000
0010
0010
0100
0100
,
0001
0000
0000
0001
0000
0000
0002
0000
,
0003
1100
0010
0000
0100
0000
0100
1000
,
0002
0000
0103
0001
1000
0001
0100
0000
,
2000
0000
3100
0000
0010
0100
0010
0000
,
0102
0000
0023
0000
0230
0000
1300
0001
,
2000
0000
0000
0000
,
0000
0000
0000
0000
,
0000
0000
0000
0000
,
0000
0000
3000
0000
,
1001
0100
1000
0100
,
1000
0010
0100
0010
,
1000
0100
0001
0100
,
0001
0001
0010
0001
,
0000
1000
0001
0000
0100
0000
0001
0000
,
0010
0100
0010
0001
,
1000
0010
0001
0010
,
1001
0000
0100
0100
,
0200
0000
0010
0300
,
0020
0000
0100
0030
,
2000
0000
0001
3000
,
0002
0000
1000
0003
,
1001
0000
0100
0000
,
1001
0000
0010
0000
,
0110
0000
0001
0000
,
0110
0000
1000
0000
,
0011
0000
0010
0000
,
1010
0000
1000
0000
,
1100
0000
0100
0000
,
0101
0000
0001
0000
,
1000
0000
1000
0000
,
0100
0000
0100
0000
,
0001
0000
0001
0000
,
0010
0000
0010
0000
,
0100
0000
0010
0000
,
0100
0000
0010
0000
,
0100
0000
0010
0000
,
0100
0000
0100
0000
,
2002
0000
3003
0000
,
0020
0000
0000
0000
,
1030
0000
0100
0000
,
0001
0000
0100
0000
,
0220
0000
0330
0000
,
0002
0000
0000
0000
,
1003
0000
0001
0000
,
0100
0000
0010
0000
,
2002
0000
3003
0000
,
0200
0000
0000
0000
,
0301
0000
0100
0000
,
1000
0000
1000
0000
,
0020
0000
0030
0000
,
0002
0000
0003
0000
,
0020
0000
0030
0000
,
0200
0000
0300
0000
,
2002
0000
3003
0000
,
0020
0000
0000
0000
,
0031
0000
0100
0000
,
1000
0000
0100
0000
,
0220
0000
0330
0000
,
2000
0000
0000
0000
,
3001
0000
1000
0000
,
0100
0000
0010
0000
,
2002
0000
3003
0000
,
0200
0000
0000
0000
,
1300
0000
0100
0000
,
0001
0000
0001
0000
,
0020
0000
1030
0000
,
2000
0000
3010
0000
,
0002
0000
0103
0000
,
0200
0000
0310
0000
,
1001
0000
0000
0000
,
0100
0000
0000
0000
,
1001
0000
0000
0000
,
0010
0000
0000
0000
,
0110
0000
0000
0000
,
0001
0000
0000
0000
,
0110
0000
0000
0000
,
1000
0000
0001
0000
,
0020
0000
0000
0000
,
0000
0000
0000
0000
,
0000
0000
0000
0000
,
0000
0000
0000
0000
,
0030
0000
0000
0000
;

//---------------dance-single - ----------------
#NOTES:
     dance-single:
     :
     Beginner:
     5:
     0.152010,0.282228,0.157948,0.216139,0.000000,128.000000,109.000000,19.000000,26.000000,0.000000,0.000000,0.152010,0.282228,0.157948,0.216139,0.000000,128.000000,109.000000,19.000000,26.000000,0.000000,0.000000:
0000
0000
0000
0000
,
0000
0000
0000
0000
,
0000
0000
0000
0000
,
0000
0000
0000
0000
,
0000
0000
0000
0000
,
0000
0000
0000
0000
,
0000
0000
0000
0000
,
0000
0000
0000
0000
,
0000
0000
0000
0000
,
2002
3003
0000
1000
,
2000
3000
0001
0001
,
0002
0003
0010
0100
,
0010
0000
0000
0010
,
2002
3003
0000
0001
,
0002
0003
1000
1000
,
2000
3000
0010
0010
,
0100
0000
0000
0100
,
0100
0000
0001
0000
,
0010
0000
0010
0000
,
1000
0000
1000
0000
,
0100
0010
0100
0000
,
1001
0000
0000
0000
,
0000
0000
0000
0000
,
0000
0000
0000
0000
,
0000
0000
0000
0000
,
1000
0000
1000
0000
,
1000
0000
0100
0000
,
0001
0000
0001
0000
,
0001
0000
0100
0100
,
0000
1000
0001
0000
,
0001
0000
0001
0000
,
0010
0000
0010
0000
,
0110
0000
1000
1000
,
0002
0000
0003
0000
,
0020
0000
0030
0000
,
0200
0000
0300
0000
,
2000
0000
3000
0000
,
1001
0000
0000
0000
,
0110
0000
0000
0000
,
1001
0000
0000
0000
,
0110
0000
0000
0000
,
1000
0000
1000
0000
,
1000
0000
1000
0000
,
0001
0000
0001
0000
,
0001
0000
0001
0000
,
1000
0000
0000
0000
,
0100
0000
0000
0000
,
0001
0000
0000
0000
,
1000
0000
0000
0000
,
0010
0000
0000
0000
,
0001
0000
0000
0000
,
0100
0000
0000
0000
,
0010
0000
0000
0000
,
2002
0000
0000
0000
,
3003
0000
0000
0000
,
1000
0000
0100
0000
,
0001
0000
0000
0000
,
0220
0000
0000
0000
,
0330
0000
0000
0000
,
0001
0000
0100
0000
,
0010
0000
0000
0000
,
2002
0000
0000
0000
,
3003
0000
0000
0000
,
0100
0000
0010
0000
,
1000
0000
0000
0000
,
0100
0000
0000
0000
,
1000
0000
0000
0000
,
0010
0000
0000
0000
,
0001
0000
0000
0000
,
0220
0000
0000
0000
,
0330
0000
0000
0000
,
0100
0000
0001
0000
,
0010
0000
0000
0000
,
2002
0000
0000
0000
,
3003
0000
0000
0000
,
0010
0000
0001
0000
,
1000
0000
0000
0000
,
0220
0000
0000
0000
,
0330
0000
0000
0000
,
0001
0000
1000
0000
,
0100
0000
0000
0000
,
0001
0000
0000
0000
,
0100
0000
0000
0000
,
1000
0000
0000
0000
,
0010
0000
0000
0000
,
1001
0000
0000
0000
,
0000
0000
0000
0000
,
0110
0000
0000
0000
,
0000
0000
0000
0000
,
1001
0000
0000
0000
,
0000
0000
0000
0000
,
0110
0000
0000
0000
,
0000
0000
0000
0000
,
2002
0000
0000
0000
,
0000
0000
0000
0000
,
0000
0000
0000
0000
,
0000
0000
0000
0000
,
3003
0000
0000
0000
;
