#VERSION:0.83;
#TITLE:Love Cherry Motion;
#SUBTITLE:;
#ARTIST:이달의 소녀/최리;
#TITLETRANSLIT:;
#SUBTITLETRANSLIT:;
#ARTISTTRANSLIT:LOOΠΔ/Choerry;
#GENRE:K-Pop;
#ORIGIN:;
#CREDIT:;
#BANNER:Love Cherry Motion.png;
#BACKGROUND:Love Cherry Motion-bg.png;
#PREVIEWVID:;
#JACKET:Love Cherry Motion-jacket.png;
#CDIMAGE:;
#DISCIMAGE:;
#LYRICSPATH:;
#CDTITLE:../cdtitle.png;
#MUSIC:Love Cherry Motion.ogg;
#OFFSET:1.744000;
#SAMPLESTART:41.416000;
#SAMPLELENGTH:15.000000;
#SELECTABLE:YES;
#BPMS:0.000=137.000;
#STOPS:;
#DELAYS:;
#WARPS:;
#TIMESIGNATURES:0.000=4=4;
#TICKCOUNTS:0.000=4;
#COMBOS:0.000=1;
#SPEEDS:0.000=1.000=0.000=0;
#SCROLLS:0.000=1.000;
#FAKES:;
#LABELS:0.000=Song Start;
#BGCHANGES:3.875=Love Cherry Motion.avi=1.000=0=0=0=StretchNoLoop====,
99999=-nosongbg-=1.000=0=0=0 // don't automatically add -songbackground-
;
#KEYSOUNDS:;
#ATTACKS:
;

//---------------dance-single - ----------------
#NOTEDATA:;
#CHARTNAME:;
#STEPSTYPE:dance-single;
#DESCRIPTION:;
#CHARTSTYLE:;
#DIFFICULTY:Challenge;
#METER:12;
#RADARVALUES:0.458998,0.489130,0.161015,0.439133,0.010978,439.000000,417.000000,22.000000,60.000000,120.000000,0.000000,0.000000,0.000000,0.000000,0.458998,0.489130,0.161015,0.439133,0.010978,439.000000,417.000000,22.000000,60.000000,120.000000,0.000000,0.000000,0.000000,0.000000;
#CREDIT:led_light;
#NOTES:
0000
0000
0000
0000
,
0000
0000
0000
0000
,
0000
0000
0000
0000
,
0000
0000
0000
0000
,
0000
0000
0000
0000
,
0101
0001
1000
0100
0010
0010
MMMM
0000
,
1000
0001
0100
0010
1000
0000
0101
0000
,
2000
0000
0000
3100
0010
0000
0100
0000
1000
0000
0001
0000
0020
0000
0000
0000
,
0130
0010
0100
1000
0000
0001
0100
0000
,
0001
1000
0001
0100
0010
0010
MMMM
0000
,
0001
1000
0100
0010
0001
0010
0100
0000
,
1002
0000
0000
0103
0010
0000
0100
0000
0001
0000
1000
0000
0020
0000
0000
0000
,
0130
0010
0100
0001
0000
1000
0100
1000
,
0010
0010
0001
0010
0002
0000
0013
2000
,
0000
3001
0100
0001
MMMM
0000
0001
0010
,
1000
1000
0010
1000
0020
0000
0031
2000
,
0020
0000
3000
0130
0000
0100
0001
1000
,
0001
0010
0100
0010
0001
0001
MMMM
0000
,
0100
1000
0010
0100
0001
0000
0110
0000
,
2000
0000
0000
3001
0010
0000
0100
0000
0010
0000
0001
0000
2000
0000
0000
0000
,
3010
0000
0100
0001
0000
0100
0020
0000
,
2030
0000
0100
0000
0100
3000
0002
0000
,
0013
0100
1000
0100
0010
0001
1000
0200
,
0001
0000
0001
0000
0310
0000
0100
2000
,
0002
0000
0000
0000
3003
0001
0100
0010
,
0110
0000
1010
0001
0010
0100
MMMM
0002
,
0000
1003
0100
1000
0000
0010
0100
0020
,
1000
0030
1000
0002
0000
0103
0001
0010
,
0100
0010
0100
0010
0001
0000
MMMM
0000
,
0110
0000
1100
0001
0100
0010
MMMM
0002
,
0000
1003
0010
1000
0000
0100
0001
0200
,
0010
0300
0010
0002
0000
1003
0010
0001
,
0020
0000
1000
0000
0030
0000
MMMM
0001
,
0100
0001
MMMM
0100
1000
0001
MMMM
0020
,
0000
1030
0001
0010
0200
0000
0310
0001
,
1000
0100
MMMM
0001
1000
0010
MMMM
0002
,
0000
1003
0100
0020
0001
0000
0031
0000
,
0110
0000
0011
1000
0010
0100
MMMM
2000
,
0000
3001
0100
0001
0000
0010
0100
0020
,
0001
0000
0031
2000
0100
3100
0010
0001
,
0100
0010
0100
0010
1000
0100
0100
0000
,
1100
0100
0010
0001
MMMM
0001
0100
0010
,
0000
0100
0100
0100
0010
1000
0100
0010
,
0011
0010
0100
1000
MMMM
1000
0010
0100
,
0000
0010
0001
0010
0100
0010
1000
0001
,
0011
0010
0100
0010
MMMM
1000
0001
1000
,
0000
0010
0010
0010
0100
0001
1000
0100
,
1100
0100
0010
0100
MMMM
0001
1000
0001
,
0000
1000
0010
0010
0100
0001
0010
0100
,
0110
0001
1000
0001
0200
0000
0310
0000
,
1000
1000
0002
0103
,
0001
1000
0001
1000
0100
0000
0020
0000
,
0130
0010
2002
3003
,
0110
1000
0001
1000
0200
0000
0310
0000
,
0001
0001
2000
3100
,
MMMM
0001
0100
0010
0100
0001
0010
0100
,
1000
1000
0001
1000
0001
0000
0002
0000
,
2000
0000
3003
0020
,
0200
0000
0330
0000
,
0002
0000
0000
0000
,
2000
0000
0000
0000
3003
0001
0100
0010
,
1000
0000
1000
0001
0010
0100
MMMM
0002
,
0000
1003
0100
1000
0000
0010
0100
0020
,
0000
0000
1030
0002
0000
0103
0001
0020
,
0000
0130
0010
0002
0000
0003
MMMM
0000
,
0110
0000
1100
0001
0100
0010
MMMM
0001
,
0000
1000
0010
1000
0000
0100
0001
0200
,
0010
0300
0010
0002
0000
1003
0010
0001
,
0020
0000
1000
0030
MMMM
0000
1000
0001
,
0100
0001
MMMM
0100
1000
0001
MMMM
0020
,
0000
1030
0001
0010
0200
0000
0310
0001
,
1000
0100
MMMM
0001
1000
0010
MMMM
0002
,
0000
1003
0100
0020
0001
0000
0031
0000
,
0110
0000
0011
1000
0010
0100
MMMM
2000
,
0000
3001
0100
0001
0000
0010
0100
0020
,
0001
0000
0031
2000
0000
3100
0010
0001
,
0100
0010
0100
0010
1000
0000
0001
0000
,
0101
0000
MMMM
1000
0000
MMMM
1000
0000
,
MMMM
0100
0100
0001
2000
3001
0000
0000
;

//---------------dance-single - ----------------
#NOTEDATA:;
#CHARTNAME:;
#STEPSTYPE:dance-single;
#DESCRIPTION:;
#CHARTSTYLE:;
#DIFFICULTY:Hard;
#METER:13;
#RADARVALUES:0.545779,0.690536,0.343987,0.468408,0.091486,522.000000,475.000000,47.000000,64.000000,0.000000,0.000000,0.000000,0.000000,0.000000,0.545779,0.690536,0.343987,0.468408,0.091486,522.000000,475.000000,47.000000,64.000000,0.000000,0.000000,0.000000,0.000000,0.000000;
#CREDIT:led_light;
#NOTES:
0000
0000
0000
0000
,
0000
0000
0000
0000
,
0000
0000
0000
0000
,
0000
0000
0000
0000
,
0000
0000
0000
0000
,
1100
0100
0010
0100
1000
0001
1000
0000
,
0010
0100
0001
1000
0002
0000
2003
0000
,
3002
0000
0000
0013
0100
0000
0010
0000
0001
0000
1000
0000
0002
0000
0000
0000
,
0013
0100
1000
0001
0000
0100
0001
1000
,
0001
0010
0100
0010
0001
1000
0001
0000
,
0100
0010
1000
0001
0010
0100
0100
0000
,
2000
0000
0000
3100
0010
0000
0100
0000
1000
0000
0001
0000
2000
0000
0000
0000
,
3100
0010
0001
1000
0000
0010
0001
0010
,
0100
0100
0010
1000
0002
0000
1003
0200
,
0000
1300
0001
1000
0000
0100
0001
0100
,
0010
0010
0100
1000
0001
0000
0001
2000
,
0010
3000
0010
0100
0000
0100
0010
1000
,
0001
0010
0100
0010
0001
1000
0001
0000
,
0100
0010
1000
0001
0010
0000
1100
0000
,
2000
0000
0000
3100
0010
0000
0100
0000
1000
0000
0001
0000
2000
0000
0000
0000
,
3100
0010
0001
1000
0000
0010
0002
0000
,
2003
0100
3100
0102
,
1003
0100
1000
0001
1000
0010
0001
0020
,
0100
0000
0100
0000
1030
0000
1000
0200
,
0001
0000
0001
0000
0310
0100
1000
0001
,
0101
0000
1010
0001
0010
1000
0010
0002
,
0000
1003
0100
1000
0000
0001
0100
0020
,
0100
0000
1030
0002
0000
0013
0100
0010
,
0001
1000
0001
1000
0010
0000
0100
0000
,
1010
0000
0101
1000
0100
0001
0100
2000
,
0000
3001
0010
0001
0000
1000
0010
0200
,
1000
0000
0310
2000
0000
3001
0010
0200
,
1000
0000
1300
0001
0000
1000
0100
0010
,
0100
1000
1100
0001
0100
0001
0101
0020
,
0000
1030
0001
0020
0200
0330
0110
0001
,
0010
0001
0011
1000
0010
1000
1010
0200
,
0000
0301
1000
0200
0020
0330
0110
0000
,
1100
0000
0011
1000
0010
0001
0010
2000
,
0000
3001
0100
0001
0000
1000
0100
0020
,
0100
0000
0031
2000
0010
3010
0100
0010
,
1000
0000
1000
0000
0001
0000
0010
0000
0100
1000
0001
0010
0100
0000
0000
0000
,
1100
0000
0000
0000
0000
0000
1000
0000
0000
0000
0000
0000
0001
0000
0010
0000
0100
0000
1000
0000
0000
0000
0000
0000
0001
0000
0000
0000
0000
0000
1000
0000
0000
0010
0000
0000
0100
0000
0000
0000
0000
0000
0001
0000
0000
0000
0000
0000
,
0000
0100
0100
0100
0110
0010
1000
0001
,
0011
0000
0000
0000
0000
0000
0001
0000
0000
0000
0000
0000
1000
0000
0100
0000
0010
0000
0001
0000
0000
0000
0000
0000
1000
0000
0000
0000
0000
0000
0001
0000
0000
0100
0000
0000
0010
0000
0000
0000
0000
0000
0001
0000
0000
0000
0000
0000
,
0000
0000
0000
0010
0000
0000
1000
0000
0000
0010
0000
0000
0110
0000
0000
0001
0000
0000
1000
0001
1000
0001
0000
0000
,
0101
0000
0000
0000
0000
0000
0001
0000
0000
0000
0000
0000
1000
0000
0010
0000
1000
0000
0010
0000
0000
0000
0000
0000
0100
0000
0000
0000
0000
0000
0001
0000
0000
0010
0000
0000
0100
0000
0000
0000
0000
0000
1000
0000
0000
0000
0000
0000
,
0000
0100
0100
0100
0110
0010
0001
1000
,
1010
0000
0000
0000
0000
0000
1000
0000
0000
0000
0000
0000
0001
0000
0100
0000
0010
0000
0100
0000
0000
0000
0000
0000
0001
0000
0000
0000
0000
0000
1000
0000
0000
0100
0000
0000
0010
0000
0000
0000
0000
0000
1000
0000
0000
0000
0000
0000
,
0000
0000
0000
0010
0000
0000
0001
0000
0000
0010
0000
0000
0100
0000
1000
0000
0100
0000
1000
0000
0000
0001
0000
0000
,
1001
0001
0100
0001
1001
0000
2100
0000
,
3001
0011
0210
1300
,
1001
0001
0010
0001
1001
0000
1020
0000
,
0230
0310
2002
3003
,
1001
1000
0100
1000
1001
0000
0102
0000
,
1003
1010
0210
0301
,
1001
0010
0100
0010
0001
0001
0010
0100
,
1000
0000
0001
0000
1000
0010
0100
0010
1000
0100
0010
0100
2000
0000
0000
0000
,
0002
0000
3003
0020
,
0200
0000
0330
0000
,
2000
0000
0000
0000
,
0002
0000
0000
0000
3003
0100
0001
1000
,
0001
0000
0001
1000
0010
0001
0010
2000
,
0000
3001
0100
0001
0000
1000
0100
0020
,
0000
0000
0031
2000
0000
3010
0100
0020
,
0000
1030
0001
0020
0000
0000
0130
0000
,
0011
0000
1100
0001
0100
1000
0100
0001
,
0000
1000
0010
1000
0000
0001
0010
0200
,
0001
0000
1300
0001
0000
0001
1000
0020
,
0000
0130
0010
1000
0000
0001
0100
0010
,
0100
0001
0101
1000
0100
1000
1100
0020
,
0000
0031
1000
0020
0200
0330
0110
1000
,
0010
1000
1010
0001
0010
0001
0011
0200
,
0000
1300
0001
0200
0020
0330
0110
0000
,
0101
0000
1010
0001
0010
1000
0010
0002
,
0000
1003
0100
1000
0000
0001
0100
0020
,
0100
0000
1030
0002
0000
0013
0100
0010
,
0001
0001
1000
0001
0100
0010
2000
0000
,
3001
0000
0000
0001
0000
0000
0001
0000
,
0000
0001
0001
0001
0002
1003
0000
0000
;

//---------------dance-single - ----------------
#NOTEDATA:;
#CHARTNAME:;
#STEPSTYPE:dance-single;
#DESCRIPTION:;
#CHARTSTYLE:;
#DIFFICULTY:Medium;
#METER:9;
#RADARVALUES:0.398356,0.431585,0.131740,0.409857,0.000000,381.000000,363.000000,18.000000,56.000000,0.000000,0.000000,0.000000,0.000000,0.000000,0.398356,0.431585,0.131740,0.409857,0.000000,381.000000,363.000000,18.000000,56.000000,0.000000,0.000000,0.000000,0.000000,0.000000;
#CREDIT:led_light;
#NOTES:
// measure 0
0000
0000
0000
0000
,  // measure 1
0000
0000
0000
0000
,  // measure 2
0000
0000
0000
0000
,  // measure 3
0000
0000
0000
0000
,  // measure 4
0000
0000
0000
0000
,  // measure 5
0011
0000
0100
1000
0001
0010
0000
0000
,  // measure 6
0001
0000
1000
1000
0020
0000
0130
0000
,  // measure 7
0020
0000
0031
0010
1000
0100
0002
0000
,  // measure 8
0103
0000
1000
0001
0000
0000
0001
0000
,  // measure 9
1010
0000
0100
0001
1000
0010
0000
0000
,  // measure 10
0100
0000
0100
0010
1000
0001
0010
0000
,  // measure 11
0200
0000
0301
0100
1000
0010
0002
0000
,  // measure 12
0013
0000
1000
0001
0000
0010
0001
0000
,  // measure 13
1000
0100
1000
0000
0001
0000
0100
0010
,  // measure 14
0000
1000
0100
0010
0000
0000
0001
0000
,  // measure 15
0001
0010
0001
0000
1000
0000
0010
0200
,  // measure 16
0000
0300
0000
0001
0000
0001
0010
0100
,  // measure 17
1000
0000
0010
1000
0001
0100
0000
0000
,  // measure 18
0001
0000
1000
0100
0010
0000
0100
0000
,  // measure 19
0200
0000
0301
0100
1000
0010
0002
0000
,  // measure 20
0013
0000
1000
0001
0000
0010
0200
0000
,  // measure 21
0320
0100
0100
0001
,  // measure 22
0032
0100
0100
1000
,  // measure 23
2003
0100
0100
0010
,  // measure 24
0020
0000
3030
0100
,  // measure 25
1001
0000
0110
0000
0001
1000
0000
0020
,  // measure 26
0000
0031
1000
0001
0000
0010
1000
0000
,  // measure 27
0002
0003
1000
0100
0000
0001
0100
0000
,  // measure 28
1000
0001
1000
0001
1000
0000
0001
0000
,  // measure 29
1001
0000
0110
0000
1000
0001
0000
0020
,  // measure 30
0000
1030
0001
1000
0000
0010
0001
0000
,  // measure 31
0002
0000
1003
0020
0000
0130
0010
0000
,  // measure 32
2000
0000
3001
1000
0000
1000
0000
0001
,  // measure 33
0010
0001
0000
1000
0100
1000
0000
0020
,  // measure 34
0000
0130
0010
1000
0002
0000
0003
1000
,  // measure 35
0100
1000
0000
0001
0010
0001
0000
0100
,  // measure 36
0000
0010
1000
0002
0000
0000
1003
0000
,  // measure 37
1001
0000
0110
0000
0001
1000
0000
0200
,  // measure 38
0000
0301
1000
0001
0000
0100
1000
0000
,  // measure 39
0020
0030
0010
0100
0010
0000
0010
0000
,  // measure 40
0100
0001
0100
0001
0010
0100
0010
0000
,  // measure 41
0001
1000
0100
1000
0000
0010
0100
0010
,  // measure 42
0000
1000
0001
1000
0001
0000
0101
0000
,  // measure 43
1000
0001
0100
0001
0000
0010
0100
0010
,  // measure 44
0000
1000
0010
0001
1000
0100
0100
0000
,  // measure 45
1000
0001
0100
0001
0000
0010
0100
0010
,  // measure 46
0000
0001
1000
0001
1000
0000
1100
0000
,  // measure 47
0001
1000
0100
1000
0000
0010
0100
0010
,  // measure 48
0000
0001
0010
1000
0001
0000
0001
0000
,  // measure 49
0101
0000
1000
0100
0020
0000
0230
0000
,  // measure 50
1300
1000
2000
3001
,  // measure 51
1000
0000
0010
0100
0010
0000
2000
0000
,  // measure 52
3001
0001
2002
3003
,  // measure 53
1100
0000
0001
0100
0020
0000
0230
0000
,  // measure 54
0301
0001
0002
1003
,  // measure 55
0100
0001
0100
1000
0001
1000
0010
0100
,  // measure 56
0001
0020
0130
2000
,  // measure 57
0002
0000
3003
2000
,  // measure 58
0020
0000
3030
0000
,  // measure 59
0200
0000
0000
0000
,  // measure 60
0002
0000
0000
0303
,  // measure 61
1001
0000
0001
0000
0001
1000
0000
0020
,  // measure 62
0000
0031
1000
0001
0000
0010
1000
0000
,  // measure 63
0002
0000
1003
0200
0000
0302
0000
0023
,  // measure 64
0000
1030
0001
2000
0000
0000
3001
0000
,  // measure 65
1001
0000
0110
0000
1000
0001
0000
0010
,  // measure 66
0000
1000
0001
1000
0000
0010
0001
0000
,  // measure 67
0002
0000
1003
0020
0000
0130
0010
2000
,  // measure 68
0000
3010
0100
0001
0000
1000
0000
0001
,  // measure 69
0010
0001
0000
1000
0100
1000
0000
0020
,  // measure 70
0000
0130
0010
1000
0002
0000
0003
1000
,  // measure 71
0100
1000
0000
0001
0010
0001
0000
0100
,  // measure 72
0000
0010
1000
0002
0000
0000
1003
0000
,  // measure 73
1001
0000
0110
0000
0001
1000
0000
0200
,  // measure 74
0000
0301
1000
0001
0000
0100
1000
0000
,  // measure 75
0020
0000
0130
0001
0000
0100
0001
0000
,  // measure 76
1000
0001
1000
0001
0010
0000
0200
0000
,  // measure 77
1300
0000
0000
1000
0000
0000
1000
0000
,  // measure 78
0000
1000
1000
0001
0200
0310
0000
0000
;

//---------------dance-single - ----------------
#NOTEDATA:;
#CHARTNAME:;
#STEPSTYPE:dance-single;
#DESCRIPTION:;
#CHARTSTYLE:;
#DIFFICULTY:Easy;
#METER:5;
#RADARVALUES:0.251978,0.287723,0.161015,0.365944,0.000000,241.000000,219.000000,22.000000,50.000000,0.000000,0.000000,0.000000,0.000000,0.000000,0.251978,0.287723,0.161015,0.365944,0.000000,241.000000,219.000000,22.000000,50.000000,0.000000,0.000000,0.000000,0.000000,0.000000;
#CREDIT:led_light;
#NOTES:
0000
0000
0000
0000
,
0000
0000
0000
0000
,
0000
0000
0000
0000
,
0000
0000
0000
0000
,
0000
0000
0000
0000
,
1000
0001
0101
0000
,
0000
0001
2000
3100
,
0001
0020
2030
3002
,
1003
0000
0000
1000
0000
0000
0001
0000
,
0001
1000
1100
0000
,
0000
1000
0001
0001
,
1000
0020
0032
0203
,
1300
0000
0000
1000
0000
0000
0001
0000
,
1000
0010
0100
0100
,
0010
1000
0001
0000
,
0001
0010
0100
0100
,
0020
0030
0000
0010
,
0001
1000
1100
0000
,
0000
0001
1000
1000
,
0001
0200
2300
3020
,
0031
0000
0000
0001
0000
0000
2000
0000
,
0020
0000
3030
0002
,
0200
0000
0303
0000
,
2000
0000
3000
1000
,
0002
0000
0003
0001
,
1001
1000
0001
0000
,
0010
0100
0100
0000
,
2000
3000
0002
0003
,
1000
1000
0010
0001
,
1001
0001
1000
0000
,
0100
0010
0010
0000
,
2000
3000
0002
0003
,
1000
1000
0100
0001
,
0101
0000
1100
0000
,
0001
0010
2000
3000
,
1010
0000
0011
0000
,
1000
1000
0002
0003
,
1001
1000
0001
0000
,
0100
0010
0010
0000
,
1000
1000
0001
0001
,
0010
0100
1000
1000
,
0001
0001
0000
0101
,
0000
1000
0001
0010
,
0100
0100
0000
1010
,
0000
0001
0010
0100
,
1000
1000
0000
1100
,
0000
0001
1000
0010
,
0100
0100
0000
0011
,
0000
1000
0010
0100
,
0002
0103
2000
3100
,
0010
0010
0200
0310
,
2000
3100
0002
0103
,
0010
0010
0220
0330
,
0002
0013
2000
3010
,
0100
0100
0020
0130
,
1000
1000
0010
0001
,
0100
1000
0001
0002
,
2000
0000
3003
0020
,
0002
0000
0033
0000
,
0200
0000
0000
0000
,
2000
0000
0000
3300
,
1000
0001
0001
0000
,
0010
0100
0000
0100
,
2000
3000
0002
0003
,
1000
1000
0020
0030
,
1001
0001
1000
0000
,
0100
0010
0010
0000
,
2000
3000
0002
0003
,
1000
1000
0100
0001
,
0101
0000
1100
0000
,
0001
0010
2000
3000
,
1010
0000
0011
0000
,
1000
1000
0002
0003
,
1001
1000
0001
0000
,
0100
0010
0010
0000
,
2000
3100
0002
0103
,
0010
0010
0100
1000
,
0001
0000
0000
0001
0000
0000
0001
0000
,
0000
0000
1000
0000
0220
0330
0000
0000
;

//---------------dance-single - ----------------
#NOTEDATA:;
#CHARTNAME:;
#STEPSTYPE:dance-single;
#DESCRIPTION:;
#CHARTSTYLE:;
#DIFFICULTY:Beginner;
#METER:3;
#RADARVALUES:0.100373,0.172360,0.007319,0.073189,0.000000,96.000000,95.000000,1.000000,10.000000,0.000000,0.000000,0.000000,0.000000,0.000000,0.100373,0.172360,0.007319,0.073189,0.000000,96.000000,95.000000,1.000000,10.000000,0.000000,0.000000,0.000000,0.000000,0.000000;
#CREDIT:led_light;
#NOTES:
0000
0000
0000
0000
,
0000
0000
0000
0000
,
0000
0000
0000
0000
,
0000
0000
0000
0000
,
0000
0000
0000
0000
,
0100
0000
0000
0000
,
1000
0000
0000
0000
,
0002
0000
0000
0000
,
0003
0000
0000
0000
,
0100
0000
0000
0000
,
0001
0000
0000
0000
,
2000
0000
0000
0000
,
3000
0000
0000
0000
,
0010
0000
0000
0000
,
0010
0000
0000
0000
,
0001
0000
0000
0000
,
0001
0000
0000
0000
,
0100
0000
0000
0000
,
1000
0000
0000
0000
,
0002
0000
0000
0000
,
0003
0000
0000
0000
,
2000
0000
0000
0000
,
3000
0000
0000
0000
,
0020
0000
0000
0000
,
0000
0000
0030
0000
,
1000
0000
1000
0000
,
1000
0000
0000
0000
,
0001
0000
0001
0000
,
0001
0000
0000
0000
,
0010
0000
0010
0000
,
0010
0000
0000
0000
,
0100
0000
0100
0000
,
0100
0000
0000
0000
,
1000
0000
0001
0000
,
1000
0000
0000
0000
,
0001
0000
1000
0000
,
0001
0000
0000
0000
,
1000
0000
1000
0000
,
1000
0000
0000
0000
,
0001
0000
0001
0000
,
0001
0001
0001
0000
,
1000
0000
0000
0000
,
0000
0010
0010
0000
,
0001
0000
0000
0000
,
0000
0100
0100
0000
,
1000
0000
0000
0000
,
0000
0001
0001
0000
,
0001
0000
0000
0000
,
0000
1000
1000
1000
,
1000
0000
0001
0000
,
0001
0000
1000
0000
,
0001
0000
0010
0000
,
1000
0000
1001
0000
,
0001
0000
1000
0000
,
1000
0000
0001
0000
,
1000
0000
0100
0000
,
0001
0000
0001
0000
,
2000
0000
0000
0000
,
3000
0000
0000
0000
,
0020
0000
0000
0000
,
0030
0000
0000
0000
,
2000
0000
0000
0000
,
3000
0000
0000
0000
,
0002
0000
0000
0000
,
0003
0000
0000
0000
,
0010
0000
0010
0000
,
0010
0000
0000
0000
,
0100
0000
0100
0000
,
0100
0000
0000
0000
,
1000
0000
0001
0000
,
1000
0000
0000
0000
,
0001
0000
1000
0000
,
0001
0000
0000
0000
,
1000
0000
1000
0000
,
1000
0000
0000
0000
,
0001
0000
0001
0000
,
0002
0000
0003
0000
,
1000
0000
0000
0000
,
0000
0001
0001
0000
;
