#TITLE:Like That;
#SUBTITLE:;
#ARTIST:Fox Stevenson;
#TITLETRANSLIT:;
#SUBTITLETRANSLIT:;
#ARTISTTRANSLIT:;
#GENRE:Popular Songs;
#CREDIT:;
#BANNER:Like That.png;
#BACKGROUND:Like That-bg.png;
#LYRICSPATH:;
#CDTITLE:../cdtitle.png;
#MUSIC:Like That.ogg;
#OFFSET:1.056000;
#SAMPLESTART:54.680000;
#SAMPLELENGTH:15.000000;
#LASTBEATHINT:0.162400;
#SELECTABLE:YES;
#BPMS:0.000000=174.000000
;
#STOPS:
;
#BGCHANGES:3.000=Like That.avi=1.000=0=0=0=StretchNoLoop====,
99999=-nosongbg-=1.000=0=0=0 // don't automatically add -songbackground-
;
#KEYSOUNDS:;
#ATTACKS:;

//---------------dance-single - ----------------
#NOTES:
     dance-single:
     :
     Hard:
     12:
     0.495775,0.647974,0.283135,0.444926,0.048537,429.000000,394.000000,35.000000,55.000000,0.000000,0.000000,0.495775,0.647974,0.283135,0.444926,0.048537,429.000000,394.000000,35.000000,55.000000,0.000000,0.000000:
0000
0000
0000
0000
,
0000
0000
0000
0000
,
0000
0000
0000
0000
,
0000
0000
0000
0000
,
0000
0000
0000
0000
,
0000
0000
0000
0000
,
0000
0000
0000
0000
,
0000
0000
0000
0000
,
0000
0000
0000
0000
,
0010
0000
1100
0000
0001
0100
0001
0000
,
1000
0010
0100
0001
1000
0010
1000
0000
,
0001
0000
1100
0000
0010
0000
0101
0001
,
2000
0000
3001
0100
0010
1000
0002
0000
,
0103
0000
1010
0000
0001
0010
0001
0000
,
1000
0100
0010
0001
1000
0100
1000
1000
,
0001
0000
1010
0000
0100
0000
0011
0001
,
2000
0000
3001
0010
0100
1000
0002
0000
,
0013
0100
0010
0010
0001
0100
0001
1000
,
0010
0000
0110
0000
0010
1000
0001
0000
,
1000
0000
1100
0000
0001
0010
0001
1000
,
0100
0000
0101
0000
0100
1000
0002
0000
,
1003
0100
0010
0010
0002
0000
1003
0100
,
1000
0000
0110
0000
0001
0100
0010
0000
,
2000
0000
0000
0000
,
0002
0000
0000
3003
,
0110
0000
0001
0000
1000
0200
0010
0000
,
1300
0001
1000
0000
0100
2000
0001
0000
,
3001
1000
0001
0100
0010
0100
0001
0000
,
1001
0000
0001
0100
0010
2000
0100
0000
,
3001
0000
0110
0000
0001
0020
0100
0000
,
0031
0000
0100
0010
1000
0200
0010
0000
,
1300
1100
0001
0101
,
0020
0000
0000
0030
,
1000
0000
1100
0000
0200
0000
0310
0100
,
0010
0001
1000
0000
0002
0000
0103
0000
,
0020
0000
1030
0000
2000
0000
3001
0100
,
0010
0000
1000
0100
0020
0000
0031
0000
,
1000
1000
0010
0010
,
0001
0001
0100
0100
,
1000
0010
1000
0010
0100
0001
0010
0100
,
0020
0000
0000
0030
,
2100
0000
0000
0000
,
3001
0200
0310
1000
,
1002
0000
0103
0000
0001
1000
0010
0001
,
0010
0010
0200
0000
0310
0000
1000
0000
,
2001
0000
3100
0000
0010
0001
0100
0010
,
1000
1000
0200
0000
0310
0000
0100
0000
,
2001
0000
3010
0000
0100
0001
0010
0100
,
0001
0001
0200
0000
0310
0000
0010
0000
,
0210
0000
1300
0000
0001
0100
0010
1000
,
0001
0000
0100
0000
0010
1000
0010
0000
0100
0000
0000
0000
0001
0000
0000
0000
,
1200
0000
0310
0000
0100
0010
0001
1000
,
0100
0000
0010
0000
0001
0010
0001
0000
1000
0000
0001
0000
0010
0000
0000
0000
,
0120
0000
0031
0000
1000
0010
0100
0001
,
1000
0000
0010
0000
0100
0001
0100
0000
0010
0000
0000
0000
1000
0000
0000
0000
,
0120
0000
1030
0000
0001
1000
0100
0010
,
0001
0000
0100
0000
0010
0100
0010
0100
0010
0000
0000
0000
0000
0000
0000
0000
,
2000
0000
0000
0000
,
0000
0000
0000
0000
,
3002
0000
0000
0000
,
0023
0000
0000
0000
,
0230
0000
0000
0000
,
0000
0000
0000
0000
,
2300
0000
0000
0000
,
3002
0000
0003
0000
,
1000
0000
1000
0000
0020
0000
0130
0010
,
1000
0001
1000
0000
0002
0000
0013
0000
,
0200
0000
1300
0000
2000
0000
3001
0010
,
0100
0000
1000
0010
0200
0000
0301
0000
,
1000
1000
0100
0100
,
0001
0001
0010
0010
,
1000
0010
0100
0001
0010
0100
1000
0100
,
0020
0000
0000
0030
,
2100
0000
0000
0000
,
3002
0000
0000
0103
,
2001
0000
3010
0000
0100
0001
0010
0100
,
1000
0000
0100
0000
0010
0001
0010
0000
0100
0000
1000
0000
0010
0000
0000
0000
,
0102
0000
1003
0000
1000
0100
0001
0100
,
1000
0000
0001
0000
0010
0100
0010
0000
0100
0000
1000
0000
0001
0000
0000
0000
,
2100
0000
3001
0000
0001
0100
1000
0100
,
0001
0000
1000
0000
0010
0100
0010
0100
0010
0000
0100
0000
0010
0000
0000
0000
,
1002
0000
0013
0000
0100
1000
0010
0100
,
0001
0000
0100
0000
0010
1000
0010
0000
0100
0000
0001
0000
0010
0000
0000
0000
,
2100
3001
1020
0130
,
0102
0000
0013
0000
0100
1000
0002
0000
,
0013
0000
1001
0000
1000
0010
0001
0010
,
1000
0000
0001
0000
0100
0010
0100
0000
0010
0000
1000
0000
0001
0000
0000
0000
,
0011
0000
0011
0000
0100
1000
0010
0100
,
0001
0000
1000
0000
0100
0010
0100
0000
0001
0000
0100
0000
2000
0000
0000
0000
,
3001
0000
0000
0000
;

//---------------dance-single - ----------------
#NOTES:
     dance-single:
     :
     Medium:
     10:
     0.399856,0.539979,0.283135,0.582449,0.000000,346.000000,311.000000,35.000000,72.000000,0.000000,0.000000,0.399856,0.539979,0.283135,0.582449,0.000000,346.000000,311.000000,35.000000,72.000000,0.000000,0.000000:
0000
0000
0000
0000
,
0000
0000
0000
0000
,
0000
0000
0000
0000
,
0000
0000
0000
0000
,
0000
0000
0000
0000
,
0000
0000
0000
0000
,
0000
0000
0000
0000
,
0000
0000
0000
0000
,
0000
0000
0000
0000
,
0100
1001
0200
0300
,
0001
1000
0001
0000
0020
0000
0030
0000
,
1000
0000
1010
0000
0001
0000
1000
0100
,
1000
0000
0001
0100
0001
0000
2000
0000
,
3010
1001
0020
0030
,
0001
1000
0001
0000
0200
0000
0300
0000
,
1000
1100
0001
0101
,
0010
0000
0010
0000
1000
0100
0002
0000
,
0103
0000
0110
0000
0001
0200
1000
0000
,
0301
1000
2002
3003
,
0010
0000
0010
0000
1000
0010
0001
0000
,
0100
0000
0100
0000
0001
0100
1000
0000
,
0001
1000
0220
0330
,
0001
0000
0010
0000
0100
1000
0001
0000
,
2000
0000
0000
0000
,
0002
0000
0000
3003
,
0110
0001
2000
3000
,
0001
0100
0010
0000
2000
0000
3000
0000
,
0100
0010
0100
0000
0010
0000
0100
0000
,
1000
1000
0020
0030
,
0110
0001
2000
3000
,
0001
0000
0100
0010
2000
0000
3000
0000
,
0002
0013
2000
3010
,
0100
0000
0000
0000
,
1000
1100
0002
0103
,
0010
1000
0010
0000
0002
0000
0013
0000
,
1000
1100
0100
0101
,
0100
0000
1000
0100
2000
0000
3010
0000
,
0100
0100
0001
0001
,
0010
0010
0100
0100
,
1000
0100
0010
0000
0002
0000
0203
0000
,
0320
0000
0000
0030
,
1002
0000
0000
0000
,
0013
0200
0310
0001
,
1002
0000
0103
0000
0010
1000
0001
0100
,
0010
0010
0020
0000
0130
0000
0010
0000
,
2001
0000
3100
0000
0010
0100
1000
0100
,
0010
0010
0020
0000
0130
0000
0001
0000
,
0120
0000
0031
0000
1000
0100
0010
0001
,
0100
0100
0020
0000
0130
0000
0000
0000
,
2010
0000
3001
0000
0010
0100
0010
0000
,
0002
0013
2000
3010
,
0021
0000
0130
0000
1000
0100
1000
0000
,
0010
0000
0010
0000
0001
0010
1000
0000
,
2010
0000
3100
0000
0010
0001
1000
0100
,
0010
0010
0020
0000
0130
0000
0010
0000
,
2100
0000
3001
0000
1000
0100
0010
0001
,
0100
0010
0200
0000
0310
0000
0000
0000
,
2000
0000
0000
0000
,
0000
0000
0000
0000
,
3200
0000
0000
0000
,
0302
0000
0000
0000
,
2003
0000
0000
0000
,
0000
0000
0000
0000
,
3020
0000
0000
0000
,
0032
0000
0003
0000
,
0001
0011
2000
3010
,
0100
0001
0100
0000
2000
0000
3100
0000
,
0001
0011
0010
1010
,
0010
0000
0001
0010
0002
0000
0103
0000
,
0010
0010
1000
1000
,
0100
0100
0010
0010
,
0001
0010
0100
0000
2000
0000
3020
0000
,
0230
0000
0000
0300
,
1002
0000
0000
0000
,
0023
0000
0000
0130
,
2100
0000
3010
0000
0100
0010
1000
0100
,
0010
0100
0020
0000
0130
0000
1000
0000
,
2001
0000
3010
0000
0100
0001
0010
0100
,
0001
0100
0002
0000
0103
0000
0010
0000
,
0012
0000
0103
0000
0010
0100
0001
1000
,
0010
0100
0020
0000
0130
0000
0100
0000
,
2001
0000
3010
0000
0100
0100
0001
0010
,
0100
0010
0200
0000
1300
0000
0001
0000
,
2000
3100
2000
3010
,
0002
0013
0220
0330
,
2100
0000
3001
0000
0010
0010
0100
1000
,
0010
0100
0020
0000
1030
0000
0100
0000
,
1100
1100
0101
0101
,
0010
0100
0010
0000
1000
0100
2000
0000
,
3001
0000
0000
0000
;

//---------------dance-single - ----------------
#NOTES:
     dance-single:
     :
     Easy:
     7:
     0.299314,0.359986,0.169881,0.477284,0.000000,259.000000,238.000000,21.000000,59.000000,0.000000,0.000000,0.299314,0.359986,0.169881,0.477284,0.000000,259.000000,238.000000,21.000000,59.000000,0.000000,0.000000:
// measure 0
0000
0000
0000
0000
,  // measure 1
0000
0000
0000
0000
,  // measure 2
0000
0000
0000
0000
,  // measure 3
0000
0000
0000
0000
,  // measure 4
0000
0000
0000
0000
,  // measure 5
0000
0000
0000
0000
,  // measure 6
0000
0000
0000
0000
,  // measure 7
0000
0000
0000
0000
,  // measure 8
0000
0000
0000
0000
,  // measure 9
1000
0100
2002
3003
,  // measure 10
0100
0001
0220
0330
,  // measure 11
0001
0001
0010
0010
,  // measure 12
0100
1000
0010
0000
,  // measure 13
0001
0010
2002
3003
,  // measure 14
0010
1000
0220
0330
,  // measure 15
1000
1000
0100
0100
,  // measure 16
0010
0001
0100
0000
,  // measure 17
0010
0010
0020
0030
,  // measure 18
1000
1000
2002
3003
,  // measure 19
0100
0100
0200
0300
,  // measure 20
0001
0001
0002
0003
,  // measure 21
0010
0100
0020
0030
,  // measure 22
0100
0100
0010
0000
,  // measure 23
0002
0000
0000
0000
,  // measure 24
2003
0000
0000
3000
,  // measure 25
1001
0100
0100
0000
,  // measure 26
0010
0001
1000
0000
,  // measure 27
0100
0100
0010
0010
,  // measure 28
0100
0010
0200
0300
,  // measure 29
1001
0010
0010
0000
,  // measure 30
0100
1000
0001
0000
,  // measure 31
0010
0010
0100
0100
,  // measure 32
0010
0000
0000
0000
,  // measure 33
0100
0100
2000
3100
,  // measure 34
0001
0001
0200
1300
,  // measure 35
0010
0010
0100
0100
,  // measure 36
0001
1000
0200
0300
,  // measure 37
0001
0001
0100
0100
,  // measure 38
1000
1000
0010
0010
,  // measure 39
0001
0010
1000
0100
,  // measure 40
0020
0000
0000
0030
,  // measure 41
2001
0000
0000
0000
,  // measure 42
3010
0200
0310
0100
,  // measure 43
2002
3003
1000
0100
,  // measure 44
0010
0020
0031
0010
,  // measure 45
0220
0330
1000
0010
,  // measure 46
1000
2000
3100
1000
,  // measure 47
0202
0303
0010
1000
,  // measure 48
0100
0020
0130
0000
,  // measure 49
2002
3003
0001
0100
,  // measure 50
0010
1000
0001
0100
,  // measure 51
2002
3003
1000
0100
,  // measure 52
0010
0001
1000
0100
,  // measure 53
2002
3003
0001
0100
,  // measure 54
1000
0100
0001
1000
,  // measure 55
0220
0330
1000
0100
,  // measure 56
0001
0002
0013
0000
,  // measure 57
2000
0000
0000
0000
,  // measure 58
0000
0000
0000
0000
,  // measure 59
3002
0000
0000
0000
,  // measure 60
0000
0000
0000
0000
,  // measure 61
0023
0000
0000
0000
,  // measure 62
0000
0000
0000
0000
,  // measure 63
0230
0000
0000
0000
,  // measure 64
0000
0000
0300
0000
,  // measure 65
0010
0010
0002
0013
,  // measure 66
1000
1000
0020
0031
,  // measure 67
0100
0100
0010
0010
,  // measure 68
1000
0001
0020
0030
,  // measure 69
1000
1000
0010
0010
,  // measure 70
0001
0001
0100
0100
,  // measure 71
1000
0100
0001
0010
,  // measure 72
0200
0000
0000
0300
,  // measure 73
2001
0000
0000
0000
,  // measure 74
3020
0000
0000
0130
,  // measure 75
2002
3003
0001
0100
,  // measure 76
0010
1000
0100
0010
,  // measure 77
0220
0330
1000
0010
,  // measure 78
0100
0001
0010
0100
,  // measure 79
0220
0330
0100
1000
,  // measure 80
0010
0010
0100
0100
,  // measure 81
1001
0100
1000
0100
,  // measure 82
0010
0001
0100
0010
,  // measure 83
1000
1000
0001
0001
,  // measure 84
1000
1000
0002
0003
,  // measure 85
1001
0100
0001
0010
,  // measure 86
0100
0100
1000
0010
,  // measure 87
1000
1000
0100
0100
,  // measure 88
0001
0100
1000
0020
,  // measure 89
0130
0000
0000
0000
;

//---------------dance-single - ----------------
#NOTES:
     dance-single:
     :
     Beginner:
     4:
     0.137523,0.251990,0.064717,0.056627,0.000000,119.000000,111.000000,8.000000,7.000000,0.000000,0.000000,0.137523,0.251990,0.064717,0.056627,0.000000,119.000000,111.000000,8.000000,7.000000,0.000000,0.000000:
// measure 0
0000
0000
0000
0000
,  // measure 1
0000
0000
0000
0000
,  // measure 2
0000
0000
0000
0000
,  // measure 3
0000
0000
0000
0000
,  // measure 4
0000
0000
0000
0000
,  // measure 5
0000
0000
0000
0000
,  // measure 6
0000
0000
0000
0000
,  // measure 7
0000
0000
0000
0000
,  // measure 8
0000
0000
0000
0000
,  // measure 9
1000
0000
0000
0000
,  // measure 10
0000
0000
0000
0000
,  // measure 11
0001
0000
0000
0000
,  // measure 12
0000
0000
0000
0000
,  // measure 13
1000
0000
0000
0000
,  // measure 14
0000
0000
0000
0000
,  // measure 15
0001
0000
0000
0000
,  // measure 16
0000
0000
0000
0000
,  // measure 17
1000
0000
0000
0000
,  // measure 18
1000
0000
0000
0000
,  // measure 19
0001
0000
0000
0000
,  // measure 20
0001
0000
0000
0000
,  // measure 21
0100
0000
0000
0000
,  // measure 22
0001
0000
0000
0000
,  // measure 23
2000
0000
0000
0000
,  // measure 24
3000
0000
0000
0000
,  // measure 25
0100
0000
0000
0000
,  // measure 26
0100
0000
0000
0000
,  // measure 27
0001
0000
0000
0000
,  // measure 28
0100
0000
0000
0000
,  // measure 29
1000
0000
0000
0000
,  // measure 30
1000
0000
0000
0000
,  // measure 31
0010
0000
0000
0000
,  // measure 32
0000
0000
0000
0000
,  // measure 33
1000
0000
1000
0000
,  // measure 34
1000
0000
1000
0000
,  // measure 35
0001
0000
0001
0000
,  // measure 36
0001
0000
0001
0000
,  // measure 37
1000
0000
1000
0000
,  // measure 38
0100
0000
0100
0000
,  // measure 39
0020
0000
0000
0000
,  // measure 40
0030
0000
0000
0000
,  // measure 41
1001
0000
0000
0000
,  // measure 42
0010
0000
0000
0000
,  // measure 43
0100
0000
0100
0000
,  // measure 44
0100
0000
0000
0000
,  // measure 45
0010
0000
0010
0000
,  // measure 46
0010
0000
0000
0000
,  // measure 47
0100
0000
0100
0000
,  // measure 48
0010
0010
0010
0000
,  // measure 49
1001
0000
0100
0000
,  // measure 50
0001
0000
1000
0000
,  // measure 51
1001
0000
0100
0000
,  // measure 52
1000
0000
0001
0000
,  // measure 53
1001
0000
1000
0000
,  // measure 54
0001
0000
0001
0000
,  // measure 55
0110
0000
0100
0000
,  // measure 56
0010
0010
0010
0000
,  // measure 57
2000
0000
0000
0000
,  // measure 58
0000
0000
0000
0000
,  // measure 59
0000
0000
0000
0000
,  // measure 60
3000
0000
0000
0000
,  // measure 61
0002
0000
0000
0000
,  // measure 62
0000
0000
0000
0000
,  // measure 63
0000
0000
0000
0000
,  // measure 64
0000
0000
0003
0000
,  // measure 65
1000
0000
1000
0000
,  // measure 66
1000
0000
1000
0000
,  // measure 67
0001
0000
0001
0000
,  // measure 68
0001
0000
0001
0000
,  // measure 69
1000
1000
1000
0000
,  // measure 70
0100
0100
0100
0000
,  // measure 71
0020
0000
0000
0000
,  // measure 72
0030
0000
0000
0000
,  // measure 73
1001
0000
0000
0000
,  // measure 74
0020
0000
0030
0000
,  // measure 75
1001
0000
0100
0000
,  // measure 76
0010
0000
0010
0000
,  // measure 77
1000
0000
0100
0000
,  // measure 78
0001
0000
0001
0000
,  // measure 79
0010
0000
1000
0000
,  // measure 80
0100
0100
0100
0000
,  // measure 81
1001
0000
0100
0000
,  // measure 82
0010
0000
0010
0000
,  // measure 83
0001
0000
0001
0000
,  // measure 84
0001
0000
0001
0000
,  // measure 85
1000
0000
0010
0000
,  // measure 86
0001
0000
0001
0000
,  // measure 87
1000
1000
1000
0000
,  // measure 88
0010
0010
0020
0000
,  // measure 89
0030
0000
0000
0000
;
