#TITLE:Light up my LOVE;
#SUBTITLE:;
#ARTIST:ani feat. moco;
#TITLETRANSLIT:;
#SUBTITLETRANSLIT:;
#ARTISTTRANSLIT:;
#GENRE:Crossover;
#CREDIT:;
#BANNER:Light up my LOVE.png;
#BACKGROUND:Light up my LOVE-bg.png;
#LYRICSPATH:;
#CDTITLE:../cdtitle.png;
#MUSIC:Light up my LOVE.ogg;
#OFFSET:-1.545000;
#SAMPLESTART:16.983000;
#SAMPLELENGTH:15.000000;
#SELECTABLE:YES;
#BPMS:0.000000=171.000000
;
#STOPS:
;
#BGCHANGES:-99.000=../bg.avi=1.000=0=0=1=====,
99999=-nosongbg-=1.000=0=0=0 // don't automatically add -songbackground-
;
#KEYSOUNDS:;
#ATTACKS:;

//---------------dance-single - ----------------
#NOTES:
     dance-single:
     :
     Beginner:
     2:
     0.116176,0.204539,0.008214,0.057501,0.000000,99.000000,98.000000,1.000000,7.000000,0.000000,0.000000,0.116176,0.204539,0.008214,0.057501,0.000000,99.000000,98.000000,1.000000,7.000000,0.000000,0.000000:
0000
0000
0000
0000
,
0000
0000
0000
0000
,
0000
0000
0000
0000
,
0000
0000
0000
0000
,
0000
0000
0000
0000
,
0000
0000
0000
0000
,
0000
0000
0000
0000
,
0000
0000
0000
0000
,
0000
0000
0000
0000
,
0000
0000
0000
0000
,
0000
0000
0000
0000
,
1000
0000
1000
0000
,
1000
0000
0000
0000
,
0001
0000
0001
0000
,
0001
0000
0000
0000
,
0010
0000
0010
0000
,
0100
0000
0000
0000
,
0100
0000
0000
0000
,
1000
0000
0000
0000
,
0001
0000
0001
0000
,
0001
0000
0000
0000
,
1000
0000
1000
0000
,
1000
0000
0000
0000
,
0010
0000
0010
0000
,
0100
0000
0000
0000
,
0100
0000
0000
0000
,
0001
0000
0000
0000
,
0001
0000
0001
0000
,
1000
0000
1000
0000
,
0001
0000
0001
0000
,
1000
0000
1000
0000
,
0010
0000
0010
0000
,
0100
0000
0100
0000
,
0010
0000
0010
0000
,
0100
0000
0100
0000
,
0010
0000
0000
0000
,
1000
0000
0000
0000
,
0010
0000
0000
0000
,
0001
0000
0000
0000
,
0100
0000
0000
0000
,
1000
0000
0000
0000
,
0100
0000
0000
0000
,
0001
0000
0000
0000
,
2000
0000
0000
0000
,
3000
0000
0000
0000
,
0002
0000
0000
0000
,
0003
0000
0000
0000
,
0002
0000
0000
0000
,
0003
0000
0000
0000
,
2000
0000
0000
0000
,
3000
0000
0000
0000
,
0020
0000
0000
0000
,
0030
0000
0000
0000
,
0200
0000
0000
0000
,
0300
0000
0000
0000
,
1000
0000
0000
0000
,
0001
0000
0000
0000
,
0010
0000
0000
0000
,
0200
0000
0300
0000
,
0001
0000
0001
0000
,
0001
0000
0000
0000
,
1000
0000
1000
0000
,
1000
0000
0000
0000
,
0100
0000
0100
0000
,
0010
0000
0000
0000
,
0010
0000
0000
0000
,
0001
0000
0000
0000
,
1000
0000
1000
0000
,
1000
0000
1000
0000
,
0001
0000
0001
0000
,
0001
0000
0001
0000
,
0100
0000
0100
0000
,
0010
0000
0010
0000
,
0010
0000
0000
0000
,
1000
0000
0000
0000
,
1000
0000
1000
0000
,
0001
0000
0001
0000
,
0010
0000
0010
0000
,
0100
0000
0100
0000
,
1000
0000
1000
0000
,
0001
0000
0001
0000
,
0100
0000
0100
0000
,
0010
0000
0010
0000
,
1001
0000
0000
0000
;

//---------------dance-single - ----------------
#NOTES:
     dance-single:
     :
     Hard:
     12:
     0.510468,0.578655,0.460008,0.271076,0.000000,435.000000,379.000000,56.000000,33.000000,0.000000,0.000000,0.510468,0.578655,0.460008,0.271076,0.000000,435.000000,379.000000,56.000000,33.000000,0.000000,0.000000:
0000
0000
0000
0000
,
0000
0000
0000
0000
,
0000
0000
0000
0000
,
0000
0000
0000
0000
,
0000
0000
0000
0000
,
0000
0000
0000
0000
,
0000
0000
0000
0000
,
0000
0000
0000
0000
,
0000
0000
0000
0000
,
0000
0000
0000
0000
,
0000
0000
0000
0000
,
1001
0000
0001
0000
1000
0001
0010
0000
,
0100
0000
0000
1000
0010
0100
0001
1000
,
0010
0011
1000
0100
,
0101
0000
0000
0000
0001
0100
1000
0010
,
0001
1010
0001
0010
,
1100
0000
0000
0100
0010
0100
0010
0001
,
0200
0000
0310
0000
1000
0100
0000
1100
,
0000
1000
0001
0010
0100
1000
0010
0100
,
1001
0000
1000
0000
0001
1000
0100
0000
,
0010
0000
0000
0001
0100
0010
1000
0001
,
0100
1100
0001
0010
,
1010
0000
0000
0000
1000
0010
0001
0100
,
1000
0101
1000
0100
,
0011
0000
0000
0010
0100
0010
0100
1000
,
0020
0000
0130
0000
0001
0010
0000
0011
,
0000
0001
1000
0100
0010
0001
0100
0110
,
0000
1000
0100
0001
0010
0100
0000
0110
,
0000
0001
0100
1000
0010
0100
0000
0110
,
0000
1000
0100
0001
0010
0100
0000
0110
,
0000
0010
0100
1000
0001
0100
0010
1010
,
0000
0010
0100
0001
0010
0100
0000
1100
,
0000
0010
0100
1000
0010
0100
0000
0101
,
0000
0010
0100
0001
0010
0100
0000
1100
,
0000
0010
0100
1000
0010
0100
0010
1002
,
0000
0103
0001
0010
0100
1000
0000
2001
,
0000
3100
1000
0010
0100
0001
0000
0020
,
0000
1030
0010
0001
0100
0010
0000
2010
,
0000
3001
0000
0102
0000
1003
0000
0200
,
0000
1300
0100
1000
0001
0010
0000
0020
,
0000
0031
0010
0001
1000
0100
0000
0200
,
0000
0301
0100
1000
0002
0000
1003
0020
,
0000
0130
0000
0002
0000
2000
0000
0000
,
3003
0000
1000
0100
,
0001
0010
1000
0100
,
0020
0000
0030
0001
0200
0000
0000
0000
,
0300
0000
0000
0001
1000
0100
0010
0001
,
0020
0000
0030
0100
2000
0000
0000
0000
,
3000
0000
0000
0100
0010
0001
1000
0100
,
0020
0000
0030
0100
2000
0000
3000
0010
,
0200
0000
0300
0001
0020
0000
0000
0000
,
0030
0000
0001
0100
,
1000
0010
0001
0100
,
0020
0000
0030
1000
0002
0000
0000
0000
,
0003
0000
0200
0320
,
1030
0100
0010
0100
1000
0010
0000
2010
,
0000
3001
0100
0010
0100
0001
0000
0012
,
0000
1003
0100
0010
0001
1000
0010
0200
,
0000
0310
0100
0010
0100
0000
0110
0000
,
1001
0000
1000
0000
0001
1000
0010
0000
,
0100
0000
0000
0001
0010
0100
1000
0001
,
0010
1010
0001
0100
,
1100
0000
0000
0000
1000
0100
0001
0010
,
1000
0011
1000
0010
,
0101
0000
0000
0100
0010
0100
0010
1000
,
0200
0000
0310
0000
0001
0100
0000
0101
,
0000
0001
1000
0010
0100
0001
0010
0100
,
1001
0000
0101
0000
1000
0001
0100
0000
,
0110
0000
0010
1000
0100
0010
0001
1000
,
0100
0101
1100
1010
,
0011
0000
1000
0000
0001
0010
1000
0100
,
0001
1100
0101
0011
,
1010
0000
1000
0010
0100
0010
0100
0001
,
0020
0000
0130
0000
1000
0010
0000
1010
,
0000
1000
0001
0100
0010
1000
0100
0110
,
0000
0001
0100
1000
0010
0100
0000
0110
,
0000
1000
0100
0001
0010
0110
0000
0210
,
0000
0301
0100
1000
0010
0100
0000
0110
,
0000
0010
0100
0001
1000
0100
0010
0011
,
0000
0010
0100
1000
0010
0100
0000
0101
,
0000
0010
0100
0001
0010
0110
0000
1200
,
0000
0310
0100
1000
0010
0100
0000
0101
,
0000
0010
0100
0001
0010
0100
0010
1001
;

//---------------dance-single - ----------------
#NOTES:
     dance-single:
     :
     Easy:
     6:
     0.268729,0.374424,0.098573,0.041072,0.000000,229.000000,217.000000,12.000000,5.000000,0.000000,0.000000,0.268729,0.374424,0.098573,0.041072,0.000000,229.000000,217.000000,12.000000,5.000000,0.000000,0.000000:
0000
0000
0000
0000
,
0000
0000
0000
0000
,
0000
0000
0000
0000
,
0000
0000
0000
0000
,
0000
0000
0000
0000
,
0000
0000
0000
0000
,
0000
0000
0000
0000
,
0000
0000
0000
0000
,
0000
0000
0000
0000
,
0000
0000
0000
0000
,
0000
0000
0000
0000
,
0100
0010
0001
1000
,
0100
0000
0001
0001
,
0010
0100
0001
1000
,
1001
0000
1000
0100
,
0001
0010
0010
1000
,
1001
0000
0001
0100
,
1000
0000
0100
0000
0010
0000
0000
0010
,
0000
0100
0110
0000
,
0010
0100
1000
0001
,
0010
0000
1000
1000
,
0100
0010
1000
0001
,
1001
0000
0001
0010
,
1000
0100
0100
0001
,
1001
0000
1000
0010
,
0001
0000
0010
0000
0100
0000
0000
0100
,
0000
0010
0110
0000
,
1000
0010
0001
0000
,
1000
0010
0001
0000
,
1000
0100
0001
0000
,
1000
0000
0100
0000
0001
0000
0000
0010
,
0000
0010
1000
0000
,
0001
0010
1000
0000
,
0001
0100
1000
0000
,
0001
0000
0100
0000
1000
0000
0000
0010
,
0000
0000
0001
0000
0100
0000
0000
1000
,
0000
0000
0100
0000
0001
0000
0000
1000
,
0000
0000
0010
0000
0100
0000
0000
0001
,
0000
1000
0000
0001
0000
1000
0000
0001
,
0000
0000
0100
0000
1000
0000
0000
0100
,
0000
0000
0001
0000
0010
0000
0000
1000
,
0000
0000
0100
0000
0001
0000
0000
0010
,
0000
0100
0000
0010
0000
0200
0000
0000
,
0300
0000
0001
0000
,
1000
0000
0010
0000
,
0100
0000
2000
0000
,
3000
0000
0001
0000
,
1000
0000
0200
0000
,
0300
0000
0001
0000
,
1000
0000
0010
0000
,
1000
0000
0001
0000
,
1000
0000
1000
0000
,
0001
0000
0100
0000
,
0010
0000
0002
0000
,
0003
0000
1000
0001
,
1000
0000
0100
0000
0010
0000
0000
0001
,
0000
0000
0100
0000
0010
0000
0000
1000
,
0000
0000
0100
0000
0001
0000
0000
0020
,
0000
0000
0030
0000
,
0100
0010
1000
0001
,
0100
0000
1000
1000
,
0010
0100
1000
0001
,
1001
0000
0001
0100
,
1000
0010
0010
0001
,
1001
0000
1000
0100
,
0001
0000
0100
0000
0010
0000
0000
0010
,
0000
0100
0110
0000
,
0010
0100
0001
1000
,
0010
0010
0001
0001
,
0100
0010
0001
1000
,
1001
0001
1000
0010
,
0001
0100
0100
1000
,
1001
1000
0001
0010
,
1000
0000
0010
0000
0100
0000
0000
0100
,
0000
0010
0110
0000
,
0001
0010
1000
0000
,
0001
0010
1000
0000
,
0001
0100
1000
0000
,
0001
0000
0100
0000
1000
0000
0000
0010
,
0000
0010
0001
0000
,
1000
0010
0001
0000
,
1000
0100
0001
0000
,
1000
0000
0100
0000
0001
0000
0000
0010
;

//---------------dance-single - ----------------
#NOTES:
     dance-single:
     :
     Medium:
     9:
     0.354394,0.442501,0.098573,0.164289,0.000000,302.000000,290.000000,12.000000,20.000000,0.000000,0.000000,0.354394,0.442501,0.098573,0.164289,0.000000,302.000000,290.000000,12.000000,20.000000,0.000000,0.000000:
0000
0000
0000
0000
,
0000
0000
0000
0000
,
0000
0000
0000
0000
,
0000
0000
0000
0000
,
0000
0000
0000
0000
,
0000
0000
0000
0000
,
0000
0000
0000
0000
,
0000
0000
0000
0000
,
0000
0000
0000
0000
,
0000
0000
0000
0000
,
0000
0000
0000
0000
,
0100
0001
1000
0010
,
0110
0000
0000
0000
0100
1000
0100
0000
,
0001
1000
0010
0001
,
1001
0000
0000
0000
0100
0010
0100
0010
,
1000
0100
0001
0010
,
0110
0000
0000
0000
1000
0100
0010
0100
,
1000
0000
0001
0000
0100
0010
0000
1000
,
0000
0010
0200
0000
0302
0000
0000
0000
,
0013
1000
0001
0100
,
0110
0000
0000
0000
0010
0001
0010
0000
,
1000
0001
0100
1000
,
1001
0000
0000
0000
0010
0100
0010
0100
,
0001
0010
1000
0100
,
0110
0000
0000
0000
0001
0010
0100
0010
,
0001
0000
1000
0000
0010
0100
0000
0001
,
0000
0100
0020
0000
2030
0000
0000
3001
,
0000
0000
0001
0100
1000
0000
0000
1000
,
0000
0000
1000
0100
0001
0000
0000
0001
,
0000
0000
0001
0010
1000
0000
0000
1000
,
0000
0000
1000
0010
0001
1000
0010
0100
,
0000
0000
0100
0001
0010
0000
0000
0100
,
0000
0000
0100
1000
0010
0000
0000
0100
,
0000
0000
0100
0001
0010
0000
0000
0100
,
0000
0000
0100
0000
1000
0001
0100
0010
,
0000
0000
0010
0000
0100
0001
0000
1000
,
0000
0000
0100
0000
0010
0100
0000
1000
,
0000
0001
1000
0000
1000
0001
0000
0010
,
0000
0100
0000
0010
0000
0100
0000
1000
,
0000
0000
0100
0000
0010
0001
0000
1000
,
0000
0000
0010
0000
0100
0010
0000
1000
,
0000
0001
1000
0000
0010
0000
0100
0001
,
0000
1000
0000
0001
0000
2000
0000
0000
,
3000
0000
0100
0100
,
0001
0001
0010
0010
,
2000
3000
0200
0000
,
0300
0000
1000
0010
,
0200
0300
0002
0000
,
0003
0000
0010
0100
,
2000
3000
0002
0003
,
0020
0030
0200
0000
,
0300
0000
0001
0001
,
0100
0100
1000
1000
,
0020
0030
0002
0000
,
0003
0000
1000
0001
,
0001
0000
1000
0000
0001
0100
0000
0100
,
0000
0000
0001
0000
1000
0100
0000
0100
,
0000
1000
0001
0000
0100
0010
0100
0020
,
0000
0000
0030
0010
,
0100
1000
0001
0010
,
0110
0000
0000
0000
0100
0001
0100
0000
,
1000
0001
0010
1000
,
1001
0000
0000
0000
0100
0010
0100
0010
,
0001
0100
1000
0010
,
0110
0000
0000
0000
0001
0100
0010
0100
,
0001
0000
1000
0000
0100
0010
0000
0001
,
0000
0010
0200
0000
2300
0000
0000
0000
,
3010
0001
1000
0100
,
0110
0000
0010
0000
0010
1000
0010
0000
,
0001
1000
0100
0001
,
1001
0000
0001
0000
0010
0100
0010
0100
,
1000
0010
0001
0100
,
0110
0000
0001
0000
1000
0010
0100
0010
,
1000
0000
0001
0000
0010
0100
0000
1000
,
0000
0100
0020
0000
0032
0000
0000
1003
,
0000
0000
1000
0100
0001
0000
0000
0001
,
0000
0000
0001
0100
1000
0001
0000
1000
,
0000
0000
1000
0010
0001
0000
0000
0001
,
0000
0000
0001
0010
1000
0001
0010
0100
,
0000
0000
0100
1000
0010
0000
0000
0100
,
0000
0000
0100
0001
0010
0100
0000
0100
,
0000
0000
0100
1000
0010
0000
0000
0100
,
0000
0000
0100
0000
1000
0100
0001
0010
;

//---------------dance-single - ----------------
#NOTES:
     dance-single:
     :
     Challenge:
     13:
     0.610215,0.646732,0.657154,0.435365,0.000000,520.000000,440.000000,80.000000,53.000000,4.000000,0.000000,0.610215,0.646732,0.657154,0.435365,0.000000,520.000000,440.000000,80.000000,53.000000,4.000000,0.000000:
0000
0000
0000
0000
,
0000
0000
0000
0000
,
0000
0000
0000
0000
,
0000
0000
0000
0000
,
0000
0000
0000
0000
,
0000
0000
0000
0000
,
0000
0000
0000
0000
,
0000
0000
0000
0000
,
0000
0000
0000
0000
,
0000
0000
0000
0000
,
0100
0010
0100
0010
0100
0010
0110
0000
,
1001
0010
0001
0100
0010
1000
0001
0010
,
0100
0000
0110
0001
1000
0010
0001
0010
,
0100
0110
1001
0110
,
1001
0000
0010
0100
0001
0010
0100
1000
,
0001
0011
1100
1010
,
0101
0000
1000
0100
0010
0100
1000
0001
,
0100
0000
0011
0000
1000
0001
0100
0020
,
0000
0031
0010
1000
0100
0001
0100
0010
,
1001
0100
1000
0010
0100
0001
1000
0100
,
0010
0000
0110
1000
0001
0100
1000
0100
,
0010
0110
1001
0110
,
1001
0000
0100
0010
1000
0100
0010
0001
,
1000
1100
0011
0101
,
1010
0000
0001
0010
0100
0010
0001
1000
,
0010
0000
1100
0000
0001
1000
0010
0200
,
0000
1300
0100
0001
1000
0010
0100
1100
,
0000
1000
0100
0001
0010
0100
0001
0101
,
0000
0001
0100
1000
0010
0100
1000
1100
,
0000
1000
0100
0001
0010
0100
0001
0101
,
0000
0001
0100
1000
0010
0100
0010
0011
,
0000
0001
0010
1000
0100
0010
1000
1010
,
0000
1000
0010
0001
0100
0010
0001
0011
,
0000
0001
0010
1000
0100
0010
1000
1010
,
0000
1000
0010
0001
0100
0010
0110
2001
,
0000
3010
0100
0001
0010
0100
1000
2100
,
0000
3010
0100
0001
0010
0100
1000
2100
,
0000
3001
0100
0010
0001
0010
1000
1010
,
0000
1100
0000
0101
0000
0011
0000
0120
,
0000
0031
0010
0100
1000
0010
0100
0120
,
0000
1030
0010
0100
0001
0010
0100
0210
,
0000
1300
0001
1000
0010
0100
0001
2000
,
0000
3001
0000
0202
0303
2200
0000
0000
,
3300
0000
2000
3200
,
0302
2003
3020
0230
,
2300
0000
0000
3002
0200
0000
0003
0000
,
0020
0000
0030
0310
1000
0100
0010
0001
,
2000
0000
0000
3020
0200
0000
0030
0000
,
0020
0000
0030
0310
1000
0100
0010
0002
,
0200
0000
0003
0320
2000
0000
0030
3200
,
0020
0000
0300
0032
0200
0000
0000
0000
,
0303
0000
0020
0032
,
0203
2300
3020
0032
,
0203
0000
0000
2300
0002
0000
0000
0000
,
3003
0000
0200
0320
,
1030
0100
0010
0001
0010
0100
1000
0102
,
0000
0103
0010
1000
0010
0100
0001
2100
,
0000
3100
0010
0001
0100
0010
1000
0200
,
0000
0010
0010
0010
0310
0000
MMMM
0000
,
1001
0010
1000
0100
0010
0001
1000
0010
,
0100
0000
0110
1000
0001
0010
1000
0010
,
0100
0110
1001
0110
,
1001
0000
0010
0100
1000
0010
0100
0001
,
1000
1010
0101
0011
,
1100
0000
0001
0100
0010
0100
0001
1000
,
0100
0000
1010
0000
0001
1000
0100
0020
,
0000
1030
0010
0001
0100
1000
0100
0010
,
1001
0100
0001
0010
0100
1000
0001
0100
,
0010
0100
0110
0001
1000
0100
0001
0100
,
0010
0001
0110
0000
1001
0000
0110
0000
,
1001
1000
0100
0010
0001
0100
0010
1000
,
0001
0100
0101
0000
1010
0000
1100
0000
,
0011
0001
1000
0010
0100
0010
1000
0001
,
0010
0100
0101
0000
1000
0001
0010
0200
,
0000
0301
0100
1000
0001
0010
0100
0110
,
0000
0001
0100
1000
0010
0100
1000
1100
,
0000
1000
0100
0001
0010
0110
0000
0201
,
0000
0301
0100
1000
0010
0100
1000
1100
,
0000
1000
0100
0001
0010
0100
0010
1010
,
0000
1000
0010
0001
0100
0010
0001
0011
,
0000
0001
0010
1000
0100
0110
0000
1020
,
0000
1030
0010
0001
0100
0010
0001
0011
,
0000
0001
0010
1000
0100
0010
0110
1001
;

//---------------dance-double - ----------------
#NOTES:
     dance-double:
     :
     Easy:
     6:
     0.262862,0.340385,0.065715,0.049287,0.000000,224.000000,216.000000,8.000000,6.000000,0.000000,0.000000,0.262862,0.340385,0.065715,0.049287,0.000000,224.000000,216.000000,8.000000,6.000000,0.000000,0.000000:
// measure 0
00000000
00000000
00000000
00000000
,  // measure 1
00000000
00000000
00000000
00000000
,  // measure 2
00000000
00000000
00000000
00000000
,  // measure 3
00000000
00000000
00000000
00000000
,  // measure 4
00000000
00000000
00000000
00000000
,  // measure 5
00000000
00000000
00000000
00000000
,  // measure 6
00000000
00000000
00000000
00000000
,  // measure 7
00000000
00000000
00000000
00000000
,  // measure 8
00000000
00000000
00000000
00000000
,  // measure 9
00000000
00000000
00000000
00000000
,  // measure 10
00000000
00000000
00000000
00000000
,  // measure 11
00010000
00010000
00001000
00010000
,  // measure 12
00001000
00000000
00010000
00100000
,  // measure 13
10000000
00010000
01000000
01000000
,  // measure 14
10000000
00000000
01000000
00010000
,  // measure 15
00001000
00001000
00010000
00001000
,  // measure 16
00011000
00000000
00001000
00000100
,  // measure 17
00000001
00000000
00001000
00000000
00000100
00000000
00000000
00000010
,  // measure 18
00000000
00000100
00000110
00000000
,  // measure 19
00001000
00001000
00010000
00001000
,  // measure 20
00010000
00000000
00001000
00000010
,  // measure 21
00000001
00001000
00000100
00000100
,  // measure 22
00000001
00000000
00000100
00001000
,  // measure 23
00010000
00010000
00001000
00010000
,  // measure 24
00011000
00000000
00010000
01000000
,  // measure 25
10000000
00000000
00010000
00000000
01000000
00000000
00000000
00100000
,  // measure 26
00000000
01000000
01100000
00000000
,  // measure 27
10000000
01000000
00010000
00000000
,  // measure 28
10000000
01000000
00010000
00000000
,  // measure 29
00001000
00000100
00000001
00000000
,  // measure 30
00001000
00000000
00000100
00000000
00000001
00000000
00000000
00000010
,  // measure 31
00000000
00000010
00001000
00000000
,  // measure 32
00000001
00000010
00001000
00000000
,  // measure 33
00010000
00100000
10000000
00000000
,  // measure 34
00010000
00000000
00100000
00000000
10000000
00000000
00000000
00010000
,  // measure 35
00000000
00000000
00010000
00000000
00001000
00000000
00000000
00000010
,  // measure 36
00000000
00000000
00001000
00000000
00010000
00000000
00000000
00000100
,  // measure 37
00000000
00000000
00001000
00000000
00010000
00000000
00000000
00010000
,  // measure 38
00000000
00000100
00000000
00001000
00000000
00000010
00000000
00010000
,  // measure 39
00000000
00000000
00010000
00000000
00001000
00000000
00000000
00100000
,  // measure 40
00000000
00000000
00010000
00000000
00001000
00000000
00000000
01000000
,  // measure 41
00000000
00000000
00010000
00000000
00001000
00000000
00000000
00010000
,  // measure 42
00000000
00100000
00000000
10000000
00000000
00020000
00000000
00000000
,  // measure 43
00030000
00000000
01000000
00000000
,  // measure 44
10000000
00000000
00100000
00000000
,  // measure 45
00010000
00000000
00002000
00000000
,  // measure 46
00003000
00000000
00010000
00000000
,  // measure 47
00001000
00000000
00000200
00000000
,  // measure 48
00000300
00000000
00001000
00000000
,  // measure 49
00000100
00000000
00000001
00000000
,  // measure 50
00000100
00000000
00000020
00000000
,  // measure 51
00000030
00000000
00000100
00000000
,  // measure 52
00000001
00000000
00000010
00000000
,  // measure 53
00001000
00000000
00020000
00000000
,  // measure 54
00030000
00000000
00010000
00001000
,  // measure 55
00010000
00000000
01000000
00000000
10000000
00000000
00000000
10000000
,  // measure 56
00000000
00000000
01000000
00000000
00010000
00000000
00000000
00001000
,  // measure 57
00000000
00000000
00000100
00000000
00000001
00000000
00000000
00000020
,  // measure 58
00000000
00000000
00000030
00000000
,  // measure 59
00001000
00001000
00010000
00001000
,  // measure 60
00010000
00000000
00001000
00000100
,  // measure 61
00000001
00001000
00000010
00000010
,  // measure 62
00000001
00000000
00000010
00001000
,  // measure 63
00010000
00010000
00001000
00010000
,  // measure 64
00011000
00000000
00010000
00100000
,  // measure 65
10000000
00000000
00010000
00000000
00100000
00000000
00000000
01000000
,  // measure 66
00000000
00100000
01100000
00000000
,  // measure 67
00010000
00010000
00001000
00010000
,  // measure 68
00001000
00010000
01000000
01000000
,  // measure 69
10000000
00010000
00100000
00100000
,  // measure 70
10000000
10000000
00100000
00010000
,  // measure 71
00001000
00001000
00010000
00001000
,  // measure 72
00011000
00010000
00001000
00000010
,  // measure 73
00000001
00000000
00001000
00000000
00000010
00000000
00000000
00000100
,  // measure 74
00000000
00000010
00000110
00000000
,  // measure 75
00000001
00000010
00001000
00000000
,  // measure 76
00000001
00000010
00001000
00000000
,  // measure 77
00010000
00100000
10000000
00000000
,  // measure 78
00010000
00000000
00100000
00000000
10000000
00000000
00000000
01000000
,  // measure 79
00000000
01000000
00010000
00000000
,  // measure 80
10000000
01000000
00010000
00000000
,  // measure 81
00001000
00000100
00000001
00000000
,  // measure 82
00001000
00000000
00000100
00000000
00000001
00000000
00000000
00010000
;

//---------------dance-double - ----------------
#NOTES:
     dance-double:
     :
     Hard:
     12:
     0.525724,0.578655,0.566796,0.213575,0.000000,448.000000,379.000000,69.000000,26.000000,0.000000,0.000000,0.525724,0.578655,0.566796,0.213575,0.000000,448.000000,379.000000,69.000000,26.000000,0.000000,0.000000:
// measure 0
00000000
00000000
00000000
00000000
,  // measure 1
00000000
00000000
00000000
00000000
,  // measure 2
00000000
00000000
00000000
00000000
,  // measure 3
00000000
00000000
00000000
00000000
,  // measure 4
00000000
00000000
00000000
00000000
,  // measure 5
00000000
00000000
00000000
00000000
,  // measure 6
00000000
00000000
00000000
00000000
,  // measure 7
00000000
00000000
00000000
00000000
,  // measure 8
00000000
00000000
00000000
00000000
,  // measure 9
00000000
00000000
00000000
00000000
,  // measure 10
00000000
00000000
00000000
00000000
,  // measure 11
10010000
00000000
01000000
00000000
00100000
00010000
00001000
00000000
,  // measure 12
00010010
00000000
00000000
00000100
00010000
00000010
00001000
00000001
,  // measure 13
00000100
00001010
00010000
00001000
,  // measure 14
00110000
00000000
00000000
00000000
00010000
01000000
10000000
00100000
,  // measure 15
00010000
01100000
00010000
00001000
,  // measure 16
00000110
00000000
00000000
00000001
00000010
00001000
00010000
01000000
,  // measure 17
10000000
00000000
01010000
00000000
00001000
00010000
00000000
00011000
,  // measure 18
00000000
00010000
00001000
00000100
00000010
00001000
00000100
00000010
,  // measure 19
00001001
00000000
00000100
00000000
00000010
00001000
00010000
00000000
,  // measure 20
00101000
00000000
00000000
01000000
00001000
00100000
00010000
10000000
,  // measure 21
01000000
00110000
00001000
00010000
,  // measure 22
00001010
00000000
00000000
00000000
00001000
00000100
00000001
00000010
,  // measure 23
00001000
00000110
00001000
00010000
,  // measure 24
01100000
00000000
00000000
10000000
00100000
00010000
00001000
00000100
,  // measure 25
00000001
00000000
00001100
00000000
00010000
00001000
00000000
00011000
,  // measure 26
00000000
00001000
00010000
00100000
01000000
00010000
00100000
01100000
,  // measure 27
00000000
00100000
01000000
00010000
00001000
00000100
00000000
00000110
,  // measure 28
00000000
00000010
00000100
00001000
00010000
01000000
00000000
01100000
,  // measure 29
00000000
00100000
01000000
00010000
00001000
00000100
00000000
00000110
,  // measure 30
00000000
00000010
00000100
00001000
00010000
01000000
00100000
10010000
,  // measure 31
00000000
10000000
00100000
00010000
00001000
00000100
00000000
00001001
,  // measure 32
00000000
00000001
00000010
00001000
00010000
01000000
00000000
10010000
,  // measure 33
00000000
10000000
00100000
00010000
00001000
00000100
00000000
00001001
,  // measure 34
00000000
00000001
00000010
00001000
00010000
00001000
00010000
00011000
,  // measure 35
00000000
00010000
01000000
00100000
10000000
00010000
00000000
20100000
,  // measure 36
00000000
30010000
01000000
00100000
10000000
00010000
00000000
02010000
,  // measure 37
00000000
03001000
00010000
00000100
00001000
00000010
00000000
00000011
,  // measure 38
00000000
00001010
00000000
00011000
00000000
00001100
00000000
00000102
,  // measure 39
00000000
00001003
00000010
00000100
00000001
00001000
00000000
00000102
,  // measure 40
00000000
00001003
00000010
00000100
00000001
00001000
00000000
00001020
,  // measure 41
00000000
00010030
00001000
00100000
02000000
00000000
13000000
00200000
,  // measure 42
00000000
00310000
00000000
00002000
00000000
00020000
00000000
00000000
,  // measure 43
00033000
00000000
00000100
00000001
,  // measure 44
00000010
00000100
00010000
00001000
,  // measure 45
00000200
00000000
00000300
00000001
00002000
00000000
00000000
00000000
,  // measure 46
00003000
00000000
00000000
00000100
00000010
00001000
00010000
00001000
,  // measure 47
02000000
00000000
03000000
00010000
20000000
00000000
00000000
00000000
,  // measure 48
30000000
00000000
00000000
01000000
00100000
00001000
00010000
00001000
,  // measure 49
00000200
00000000
00000300
00000010
00002000
00000000
00003000
00010000
,  // measure 50
02000000
00000000
03000000
00001000
00020000
00000000
00000000
00000000
,  // measure 51
00030000
00000000
01000000
10000000
,  // measure 52
00100000
01000000
00001000
00010000
,  // measure 53
02000000
00000000
03000000
10000000
00020000
00000000
00000000
00000000
,  // measure 54
00030000
00000000
02000000
03200000
,  // measure 55
10300000
01000000
00010000
00001000
00010000
00001000
00000000
00000012
,  // measure 56
00000000
00000103
00001000
00010000
00001000
00010000
00000000
10200000
,  // measure 57
00000000
00310000
00100000
10000000
01000000
00010000
00001000
00000020
,  // measure 58
00000000
00001030
00000010
00001000
00000010
00000000
00000110
00000000
,  // measure 59
00001001
00000000
00000100
00000000
00000010
00001000
00010000
00000000
,  // measure 60
00101000
00000000
00000000
01000000
00001000
00100000
00010000
10000000
,  // measure 61
01000000
00110000
00001000
00010000
,  // measure 62
00001010
00000000
00000000
00000000
00001000
00000100
00000001
00000010
,  // measure 63
00001000
00000110
00001000
00010000
,  // measure 64
01100000
00000000
00000000
10000000
00100000
00010000
00001000
00000100
,  // measure 65
00000001
00000000
00001100
00000000
00010000
00001000
00000000
00011000
,  // measure 66
00000000
00001000
00010000
00100000
01000000
00010000
00100000
01000000
,  // measure 67
10010000
00000000
01010000
00000000
00100000
00010000
00001000
00000000
,  // measure 68
00010010
00000000
00001000
00000100
00010000
00000010
00001000
00000001
,  // measure 69
00000100
00001010
00010010
00101000
,  // measure 70
00110000
00000000
00001000
00000000
00010000
01000000
10000000
00100000
,  // measure 71
00010000
01100000
01001000
00010010
,  // measure 72
00000110
00000000
00001000
00000001
00000010
00001000
00010000
01000000
,  // measure 73
10000000
00000000
01010000
00000000
00001000
00010000
00000000
00011000
,  // measure 74
00000000
00010000
00001000
00000100
00000010
00001000
00000100
00000110
,  // measure 75
00000000
00000100
00000010
00001000
00010000
00100000
00000000
01100000
,  // measure 76
00000000
01000000
00100000
00010000
00001000
00001010
00000000
00000120
,  // measure 77
00000000
00000130
00000010
00001000
00010000
00100000
00000000
01100000
,  // measure 78
00000000
01000000
00100000
00010000
00001000
00000010
00000100
00001001
,  // measure 79
00000000
00000001
00000100
00001000
00010000
00100000
00000000
10010000
,  // measure 80
00000000
10000000
01000000
00010000
00001000
00001010
00000000
00002001
,  // measure 81
00000000
00003001
00000100
00001000
00010000
00100000
00000000
10010000
,  // measure 82
00000000
10000000
01000000
00010000
00001000
00010000
00001000
00011000
;

//---------------dance-double - ----------------
#NOTES:
     dance-double:
     :
     Challenge:
     13:
     0.612562,0.646732,0.673583,0.402507,0.000000,522.000000,440.000000,82.000000,49.000000,8.000000,0.000000,0.612562,0.646732,0.673583,0.402507,0.000000,522.000000,440.000000,82.000000,49.000000,8.000000,0.000000:
// measure 0
00000000
00000000
00000000
00000000
,  // measure 1
00000000
00000000
00000000
00000000
,  // measure 2
00000000
00000000
00000000
00000000
,  // measure 3
00000000
00000000
00000000
00000000
,  // measure 4
00000000
00000000
00000000
00000000
,  // measure 5
00000000
00000000
00000000
00000000
,  // measure 6
00000000
00000000
00000000
00000000
,  // measure 7
00000000
00000000
00000000
00000000
,  // measure 8
00000000
00000000
00000000
00000000
,  // measure 9
00000000
00000000
00000000
00000000
,  // measure 10
00000001
00000100
00000010
00010000
00001000
00100000
10010000
00000000
,  // measure 11
10100000
00100000
01000000
00010000
00100000
01000000
10000000
01000000
,  // measure 12
00010000
00000000
00011000
00001000
00000100
00000010
00001000
00000100
,  // measure 13
00000010
00000011
00001100
00011000
,  // measure 14
00001010
00000000
00001000
00000010
00000100
00000001
00000010
00001000
,  // measure 15
00010000
00011000
00110000
10100000
,  // measure 16
01010000
00000000
10000000
01000000
00010000
00001000
00000010
00000100
,  // measure 17
00001000
00000000
00001100
00000100
00000010
00000001
00000100
00000210
,  // measure 18
00000000
00000310
00001000
00010000
01000000
00100000
10000000
01000000
,  // measure 19
01100000
00010000
00001000
00010000
00000100
00001000
00000001
00000010
,  // measure 20
00000100
00000000
00000110
00000001
00000010
00001000
00010000
01000000
,  // measure 21
10000000
01100000
00110000
00001100
,  // measure 22
00001001
00000000
00000010
00000001
00000100
00001000
00010000
00001000
,  // measure 23
00000010
00001100
00011000
01010000
,  // measure 24
10100000
00000000
01000000
00100000
00010000
00001000
00000100
00000010
,  // measure 25
00010000
00001000
00011000
00010000
00100000
01000000
10000000
21000000
,  // measure 26
00000000
31000000
00010000
00001000
00000010
00000100
00000001
00000101
,  // measure 27
00000000
00000010
00000100
00001000
00010000
01000000
00100000
10100000
,  // measure 28
00000000
00100000
01000000
00010000
00001000
00000100
00000010
00000011
,  // measure 29
00000000
00000010
00000100
00001000
00010000
01000000
00100000
10100000
,  // measure 30
00000000
00100000
01000000
00010000
00001000
00000010
00000001
00000011
,  // measure 31
00000000
00000100
00000010
00001000
00010000
00100000
01000000
11000000
,  // measure 32
00000000
01000000
00100000
00010000
00001000
00000010
00000100
00000101
,  // measure 33
00000000
00000100
00000010
00001000
00010000
00100000
01000000
11000000
,  // measure 34
00000000
01000000
00100000
00010000
00001000
00000100
00000110
00001002
,  // measure 35
00000000
00000013
00000001
00001000
00000100
00000010
00000000
00001002
,  // measure 36
00000000
00000013
00000001
00001000
00000100
00000010
00000000
00000120
,  // measure 37
00000000
00001030
00010000
01000000
00100000
00010000
00000000
00101000
,  // measure 38
00000000
00011000
00000000
01010000
00000000
10100000
00000000
10020000
,  // measure 39
00000000
00130000
00010000
10000000
01000000
00100000
00000000
10020000
,  // measure 40
00000000
00130000
00010000
10000000
01000000
00100000
00000000
01200000
,  // measure 41
00000000
00310000
00001000
00000100
00000010
00000100
00001000
00000002
,  // measure 42
00000000
00000013
00000000
00002000
00000000
00020000
00000000
00000000
,  // measure 43
00033000
00000000
00002000
00203000
,  // measure 44
00320000
20030000
30200000
02300000
,  // measure 45
03020000
00000000
00030000
20000000
02000000
00000000
03000000
00000000
,  // measure 46
02000000
00000000
03000000
31000000
00100000
00001000
00010000
00000100
,  // measure 47
00002000
00000000
00003000
00000002
00000200
00000000
00000000
00000300
,  // measure 48
00000100
00000000
00000000
00000103
00000010
00001000
00000100
00010000
,  // measure 49
00002000
00000000
00003000
02000000
00020000
00000000
03000000
20030000
,  // measure 50
02000000
00000000
30000000
03200000
00002000
00000000
00000000
00000000
,  // measure 51
00303000
00000000
00020000
00030020
,  // measure 52
00002030
00003002
00000023
00000230
,  // measure 53
00002300
00000000
00003000
00000002
00000200
00000000
00000000
00000000
,  // measure 54
00000303
00000000
00000200
00002300
,  // measure 55
00013000
00001000
00000010
00001000
00010000
00100000
10000000
12000000
,  // measure 56
00000000
03010000
01000000
00010000
00001000
00000100
00000001
00000021
,  // measure 57
00000000
00001030
00010000
01000000
10000000
01000000
00100000
00020000
,  // measure 58
00000000
00001000
00001000
00001000
00031000
00000000
MMMMMMMM
00000000
,  // measure 59
00000101
00000100
00000010
00001000
00000100
00000010
00000001
00000010
,  // measure 60
00001000
00000000
00011000
00010000
00100000
01000000
00010000
00100000
,  // measure 61
01000000
11000000
00110000
00011000
,  // measure 62
01010000
00000000
00010000
01000000
00100000
10000000
01000000
00010000
,  // measure 63
00001000
00011000
00001100
00000101
,  // measure 64
00001010
00000000
00000001
00000010
00001000
00010000
01000000
00100000
,  // measure 65
00010000
00000000
00110000
00100000
01000000
10000000
00100000
01200000
,  // measure 66
00000000
01300000
00010000
00001000
00000010
00000100
00000001
00000010
,  // measure 67
00000110
00001000
00010000
00001000
00100000
00010000
10000000
01000000
,  // measure 68
00100000
00010000
01100000
10000000
01000000
00010000
00001000
00000010
,  // measure 69
00000001
00001000
00000110
00000000
00001100
00000000
00110000
00000000
,  // measure 70
10010000
00100000
01000000
10000000
00100000
00010000
00001000
00010000
,  // measure 71
01000000
10000000
00110000
00000000
00011000
00000000
00001010
00000000
,  // measure 72
00000101
00001000
00000010
00000100
00001000
00010000
00100000
01000000
,  // measure 73
00001000
00010000
00011000
00001000
00000100
00000010
00000001
00000012
,  // measure 74
00000000
00000013
00001000
00010000
01000000
00100000
10000000
10100000
,  // measure 75
00000000
01000000
00100000
00010000
00001000
00000010
00000100
00000101
,  // measure 76
00000000
00000100
00000010
00001000
00010000
00110000
00000000
21000000
,  // measure 77
00000000
31000000
00100000
00010000
00001000
00000010
00000100
00000101
,  // measure 78
00000000
00000100
00000010
00001000
00010000
01000000
10000000
11000000
,  // measure 79
00000000
00100000
01000000
00010000
00001000
00000100
00000010
00000011
,  // measure 80
00000000
00000010
00000100
00001000
00010000
01010000
00000000
20100000
,  // measure 81
00000000
30100000
01000000
00010000
00001000
00000100
00000010
00000011
,  // measure 82
00000000
00000010
00000100
00001000
00010000
00100000
01100000
10010000
;

//---------------dance-double - ----------------
#NOTES:
     dance-double:
     :
     Medium:
     9:
     0.368476,0.442501,0.213575,0.147860,0.000000,314.000000,288.000000,26.000000,18.000000,0.000000,0.000000,0.368476,0.442501,0.213575,0.147860,0.000000,314.000000,288.000000,26.000000,18.000000,0.000000,0.000000:
// measure 0
00000000
00000000
00000000
00000000
,  // measure 1
00000000
00000000
00000000
00000000
,  // measure 2
00000000
00000000
00000000
00000000
,  // measure 3
00000000
00000000
00000000
00000000
,  // measure 4
00000000
00000000
00000000
00000000
,  // measure 5
00000000
00000000
00000000
00000000
,  // measure 6
00000000
00000000
00000000
00000000
,  // measure 7
00000000
00000000
00000000
00000000
,  // measure 8
00000000
00000000
00000000
00000000
,  // measure 9
00000000
00000000
00000000
00000000
,  // measure 10
00000000
00000000
00000000
00000000
,  // measure 11
00011000
00000000
00001000
00000000
01000000
00010000
01000000
00000000
,  // measure 12
00100000
00000000
00000000
00000000
10000000
01000000
10000000
00000000
,  // measure 13
01000000
00100000
00010000
00001000
,  // measure 14
00011000
00000000
00000000
00000000
00001000
00000100
00000010
00000000
,  // measure 15
00000001
00000100
00000010
00001000
,  // measure 16
00001001
00000000
00000000
00000000
00000100
00000010
00000100
00000000
,  // measure 17
00010000
00000000
00001000
00000000
00100000
00010000
00000000
00010000
,  // measure 18
00000000
00010000
01000000
00000000
00200000
00000000
00300000
00000000
,  // measure 19
00011000
00000000
00010000
00000000
00000010
00001000
00000010
00000000
,  // measure 20
00000100
00000000
00000000
00000000
00000001
00000010
00000001
00000000
,  // measure 21
00000010
00000100
00001000
00010000
,  // measure 22
00011000
00000000
00000000
00000000
00010000
00100000
01000000
00000000
,  // measure 23
10000000
00100000
01000000
00010000
,  // measure 24
10010000
00000000
00000000
00000000
00100000
01000000
00100000
00000000
,  // measure 25
00001000
00000000
00010000
00000000
00000100
00001000
00000000
00001000
,  // measure 26
00000000
00001000
00000010
00000000
00000200
00000000
00000300
00000110
,  // measure 27
00000000
00000000
00000001
00000100
00001000
00000000
00000000
00011000
,  // measure 28
00000000
00000000
00010000
01000000
10000000
00000000
00000000
01100000
,  // measure 29
00000000
00000000
10000000
00100000
00010000
00000000
00000000
00011000
,  // measure 30
00000000
00000000
00001000
00000010
00000001
00000100
00001000
00010000
,  // measure 31
00000000
00000000
00010000
00100000
10000000
00000000
00000000
01100000
,  // measure 32
00000000
00000000
10000000
01000000
00010000
00000000
00000000
00011000
,  // measure 33
00000000
00000000
00001000
00000010
00000001
00000000
00000000
00000110
,  // measure 34
00000000
00000000
00000001
00000100
00001000
00010000
00001000
01000000
,  // measure 35
00000000
00000000
00010000
00000000
10000000
00010000
00000000
00100000
,  // measure 36
00000000
00000000
01000000
00000000
10000000
01000000
00000000
00100000
,  // measure 37
00000000
00001000
00010000
00000000
00001000
00010000
00000000
00000010
,  // measure 38
00000000
00001000
00000000
00010000
00000000
00001000
00000000
00000100
,  // measure 39
00000000
00000000
00001000
00000000
00000001
00001000
00000000
00000010
,  // measure 40
00000000
00000000
00000100
00000000
00000001
00000100
00000000
00000010
,  // measure 41
00000000
00001000
00010000
00001000
00010000
00000000
00001000
00010000
,  // measure 42
00000000
01000000
00000000
00010000
00000000
20000000
00000000
00000000
,  // measure 43
30000000
00000000
01000000
01000000
,  // measure 44
00010000
00010000
10000000
00100000
,  // measure 45
00010000
00000000
00002000
00000000
,  // measure 46
00003000
00000000
00010000
00001000
,  // measure 47
00000200
00000300
00000002
00000000
,  // measure 48
00000003
00000000
00000001
00000100
,  // measure 49
00002000
00000000
00003020
00000000
,  // measure 50
00020030
00000000
00032000
00000000
,  // measure 51
00003000
00000000
00000100
00000100
,  // measure 52
00001000
00001000
00000001
00000010
,  // measure 53
00001000
00000000
00020000
00000000
,  // measure 54
00030000
00000000
00001000
00010000
,  // measure 55
01000000
00000000
00010000
00000000
00100000
00010000
00000000
00010000
,  // measure 56
00000000
00000000
00001000
00000000
00000100
00001000
00000000
00001000
,  // measure 57
00000000
00001000
00010000
00000000
00100000
01000000
00100000
02000000
,  // measure 58
00000000
00000000
03000000
00000000
,  // measure 59
00011000
00000000
00010000
00000000
00000100
00001000
00000100
00000000
,  // measure 60
00000010
00000000
00000000
00000000
00000001
00000100
00000001
00000000
,  // measure 61
00000100
00000010
00001000
00010000
,  // measure 62
00011000
00000000
00000000
00000000
00010000
01000000
00100000
00000000
,  // measure 63
10000000
01000000
00100000
00010000
,  // measure 64
10010000
00000000
00000000
00000000
01000000
00100000
01000000
00000000
,  // measure 65
00001000
00000000
00010000
00000000
00000010
00001000
00000000
00001000
,  // measure 66
00000000
00001000
00000100
00000000
00000020
00000000
00000030
00000000
,  // measure 67
00011000
00000000
00001000
00000000
00100000
00010000
00100000
00000000
,  // measure 68
01000000
00000000
01000000
00000000
10000000
00100000
10000000
00000000
,  // measure 69
00100000
01000000
00010000
00001000
,  // measure 70
00011000
00000000
00010000
00000000
00001000
00000010
00000100
00000000
,  // measure 71
00000001
00000010
00000100
00001000
,  // measure 72
00001001
00000000
00000100
00000000
00000010
00000100
00000010
00000000
,  // measure 73
00010000
00000000
00001000
00000000
01000000
00010000
00000000
00010000
,  // measure 74
00000000
00010000
00100000
00000000
02000000
00000000
03000000
01100000
,  // measure 75
00000000
00000000
10000000
01000000
00010000
00000000
00000000
00011000
,  // measure 76
00000000
00000000
00001000
00000100
00000001
00001000
00000000
00000220
,  // measure 77
00000000
00000330
00000001
00000010
00001000
00000000
00000000
00011000
,  // measure 78
00000000
00000000
00010000
00100000
10000000
01000000
00010000
00001000
,  // measure 79
00000000
00000000
00001000
00000010
00000001
00000000
00000000
00000110
,  // measure 80
00000000
00000000
00000001
00000100
00001000
00010000
00000000
00022000
,  // measure 81
00000000
00033000
00010000
00100000
10000000
00000000
00000000
01100000
,  // measure 82
00000000
00000000
10000000
01000000
00010000
00001000
00010000
00000100
;
