#TITLE:Light Me Up;
#SUBTITLE:;
#ARTIST:LazuLight;
#TITLETRANSLIT:;
#SUBTITLETRANSLIT:;
#ARTISTTRANSLIT:;
#GENRE:にじさんじ;
#CREDIT:;
#BANNER:Light Me Up.png;
#BACKGROUND:../bg.png;
#LYRICSPATH:;
#CDTITLE:../cdtitle.png;
#MUSIC:Light Me Up.ogg;
#OFFSET:0.528000;
#SAMPLESTART:58.839001;
#SAMPLELENGTH:15.000000;
#SELECTABLE:YES;
#BPMS:0.000000=190.000000
;
#STOPS:
;
#BGCHANGES:1.625=Light Me Up.avi=1.000=0=0=0=StretchNoLoop====,
99999=-nosongbg-=1.000=0=0=0 // don't automatically add -songbackground-
;
#KEYSOUNDS:;
#ATTACKS:;

//---------------dance-single - ----------------
#NOTES:
     dance-single:
     :
     Beginner:
     5:
     0.185920,0.266796,0.111552,0.130144,0.000000,140.000000,128.000000,12.000000,14.000000,0.000000,0.000000,0.185920,0.266796,0.111552,0.130144,0.000000,140.000000,128.000000,12.000000,14.000000,0.000000,0.000000:
0000
0000
0000
0000
,
0000
0000
0000
0000
,
0000
0000
0000
0000
,
0000
0000
0000
0000
,
0000
0000
0000
0000
,
1000
0000
1000
0000
,
0010
0000
0000
0000
,
1001
0000
0000
0000
,
0110
0000
0000
0000
,
1001
0000
0000
0000
,
0100
0000
0100
0000
,
0100
0000
0010
0000
,
0001
0000
1000
0000
,
0001
0000
0000
0000
,
1000
0000
0100
0000
,
0010
0000
1000
0000
,
0010
0000
0000
0000
,
0110
0000
0000
0000
,
0100
0000
0000
0000
,
0100
0000
0000
0000
,
0001
0000
0000
0000
,
0100
0000
0000
0000
,
1000
0000
0100
0000
,
1000
0000
0001
0000
,
0010
0000
0100
0000
,
0000
0000
0000
0000
,
0010
0000
0010
0000
,
0001
0000
1000
0000
,
0010
0000
0010
0000
,
0100
0010
0010
0000
,
1000
0100
1000
0000
,
0001
0010
0001
0000
,
2000
0000
3000
0000
,
0002
0000
0003
0000
,
1001
0000
0000
0000
,
0100
0000
0000
0000
,
0010
0000
0000
0000
,
0001
0000
0000
0000
,
1001
0000
0000
0000
,
0100
0000
0000
0000
,
0010
0000
0010
0000
,
1000
0000
1000
0000
,
0001
0001
0001
0000
,
0020
0000
0030
0000
,
0100
0100
0010
0000
,
2002
0000
0000
3003
0000
0000
0000
0000
,
0000
0000
0000
0000
,
1000
0000
0100
0000
,
0010
0010
0010
0000
,
1000
0000
0001
0000
,
0100
0100
0100
0000
,
1000
0000
0010
0000
,
0100
0100
0010
0000
,
2000
0000
3000
0000
,
0010
0010
0010
0000
,
0100
0000
0100
0000
,
0010
0010
0010
0000
,
1000
0000
0001
0000
,
1000
1000
0001
0001
,
1000
0000
0100
0000
,
0010
0000
0110
0000
,
0002
0000
0003
0000
,
2000
0000
3000
0000
,
0020
0000
0000
0000
,
0030
0000
0000
0000
,
1000
0000
0100
0100
,
0100
0000
0010
0010
,
0020
0000
0000
0000
,
0030
0000
0000
0000
,
1001
0000
0000
0000
,
0110
0000
0000
0000
,
2002
0000
0000
0000
,
3003
0000
0000
0000
,
0100
0000
0100
0000
,
0100
0000
0010
0000
,
0001
0000
1000
0000
,
0001
0000
0000
0000
,
1000
0000
0100
0000
,
0010
0000
1000
0000
,
0010
0010
0010
0000
,
0100
0000
0010
0000
,
2002
0000
0000
0000
,
3003
0000
0000
0000
;

//---------------dance-single - ----------------
#NOTES:
     dance-single:
     :
     Easy:
     7:
     0.337312,0.457364,0.269584,0.130144,0.000000,254.000000,225.000000,29.000000,14.000000,0.000000,0.000000,0.337312,0.457364,0.269584,0.130144,0.000000,254.000000,225.000000,29.000000,14.000000,0.000000,0.000000:
0000
0000
0000
0000
,
0000
0000
0000
0000
,
0000
0000
0000
0000
,
0000
0000
0000
0000
,
0000
0000
0000
0000
,
1000
1000
0001
0001
,
1000
0001
0100
0000
,
0110
0000
0000
0000
,
0011
0000
0000
0000
,
1010
0000
0000
0000
,
1000
0010
0001
0010
,
1000
0010
0100
0010
,
1010
0000
1100
0000
,
0001
1000
0100
0000
,
1000
0001
0100
0001
,
1000
0100
0010
0000
,
0001
0000
0001
0000
0100
0000
0000
0010
,
0000
0100
0110
0000
,
1000
0100
0000
0100
,
0001
0100
0000
0100
,
0010
0100
0000
0100
,
1000
0100
0001
0100
,
1000
0010
1000
0100
,
1000
0001
0100
0010
,
1000
0000
0001
0000
0010
0000
0000
0100
,
0000
0000
0000
0000
,
1000
0010
1000
0010
,
0001
0010
0001
0010
,
1000
0100
0010
0100
,
1000
0001
0100
0010
,
1000
0100
1000
0010
,
1000
0001
0010
0100
,
2000
0000
0000
0000
3001
0000
0100
0010
,
0000
0100
0110
0000
,
1001
0000
0100
0000
,
1000
0100
0010
0000
,
0001
0000
0110
0000
,
0001
1000
0100
1000
,
0010
0000
0110
0000
,
0001
0010
0200
0300
,
1000
0100
1000
0100
,
0010
0001
0010
0001
,
0100
0100
0001
0001
,
0020
0000
0230
0000
,
1300
0000
1000
0000
0001
0000
0100
0020
,
0000
0000
0030
0000
,
0000
0000
0000
0000
,
1000
0100
0001
0100
,
1000
0100
0110
0000
,
0001
0010
1000
0010
,
0011
0011
1001
0000
,
0001
0100
1000
0100
,
0001
0100
0010
0100
,
1002
0000
0013
0000
,
0100
0010
0110
0000
,
0001
0010
0001
0010
,
0100
0100
0110
0000
,
1000
0001
0010
0001
,
0100
0100
0010
0010
,
1000
0100
0001
0100
,
1000
1000
0001
0000
,
1001
0000
0100
1000
,
1100
0000
0001
0100
,
0202
0000
0000
0000
,
0303
0001
0010
0100
,
0110
0000
0001
0010
,
0011
0000
0010
1000
,
2020
0000
0000
0000
,
3030
0010
0001
0100
,
0110
0000
0000
0000
,
0011
0000
0000
0000
,
2020
0000
0000
0000
,
3030
0000
0000
0000
,
1000
0010
0001
0010
,
1000
0010
0100
0010
,
1010
0000
1100
0000
,
0001
1000
0100
0000
,
1000
0001
0100
0001
,
1000
0100
0010
0000
,
0001
0001
0100
0000
,
1000
1000
0100
0000
,
0220
0000
0000
0000
,
0330
0000
0000
0000
;

//---------------dance-single - ----------------
#NOTES:
     dance-single:
     :
     Medium:
     10:
     0.436913,0.571705,0.325360,0.185920,0.023240,329.000000,294.000000,35.000000,20.000000,0.000000,0.000000,0.436913,0.571705,0.325360,0.185920,0.023240,329.000000,294.000000,35.000000,20.000000,0.000000,0.000000:
0000
0000
0000
0000
,
0000
0000
0000
0000
,
0000
0000
0000
0000
,
0000
0000
0000
0000
,
0000
0000
0000
0000
,
0001
0001
0010
0001
,
0100
0000
0000
0100
0000
0000
0010
0000
1000
0000
0000
0000
0001
0000
0000
0000
,
1001
0000
0000
0000
,
0110
0000
0000
0000
,
1001
0000
0000
0000
,
0001
0000
1000
0000
0001
0100
0010
0000
,
1000
0100
0010
0000
0001
0000
1000
0000
,
0100
0110
0100
1001
,
0001
0100
0020
0030
,
1000
0000
1100
0000
0001
0100
0001
0100
,
0000
0010
1000
0000
0001
0000
1000
0000
,
0100
0000
0100
0000
0010
0000
0001
1000
,
0000
0001
1001
0000
,
1000
0000
0100
0000
0000
0000
0100
0001
,
0000
0001
0000
0000
0000
0000
0100
0000
,
1000
0000
0100
0000
0000
0000
0001
0100
,
0000
0100
1000
0000
0001
0000
0000
0000
,
1000
0000
0100
0000
0001
0000
0100
0010
,
0000
0100
0010
0000
0001
0000
1000
0000
,
0010
0000
0010
0000
0100
0000
0001
0010
,
0000
0000
0000
0000
,
0010
1000
0010
0001
,
1000
0100
1000
0000
0001
0100
0001
0000
,
1000
0000
0100
0010
0000
0001
0010
0000
,
0100
1000
0001
0000
1000
0000
1001
0000
,
0001
0000
0100
0000
0010
1000
0010
0000
,
0100
0001
0010
0000
0100
0000
1000
0000
,
0001
0010
0001
0000
0100
0010
0100
0010
,
0000
0100
0001
1000
,
2001
0000
3100
0000
,
0010
0000
0000
0010
0000
0000
0001
0000
0100
0000
0000
0000
0000
0000
0000
0000
,
0010
0000
0110
0000
,
0001
0010
1000
0100
,
0102
0000
0013
0000
,
0200
0000
2000
3300
,
0001
0000
0100
0000
0001
0100
0010
0000
,
1000
0000
0100
0000
1000
0100
0010
0000
,
0001
0011
0001
0011
,
0001
0100
0010
1000
,
0100
0000
0100
0000
1000
0010
0000
0220
,
0000
0000
0330
0000
,
0000
0000
0000
0000
,
0001
0010
1000
0010
,
0001
0010
0100
0000
1100
0000
0001
0000
,
1000
0100
0010
0000
0001
0100
0010
0000
,
1010
0011
1001
0000
,
1000
0100
0001
0100
,
1000
0100
0010
0000
0001
0000
1000
0000
,
0002
0000
0203
0000
,
0310
0100
0110
0000
,
1000
0000
0100
0000
0001
0100
1000
0000
,
1100
0101
2002
3003
,
0001
0100
0010
0000
1000
0100
0010
0000
,
0011
0011
1010
1010
,
0001
0000
0010
0000
0100
1000
0010
0000
,
0100
0000
0000
0100
0000
0000
0001
0000
1000
0000
0000
0000
0001
0000
0000
0000
,
0202
0000
0000
0000
0303
0000
0000
0000
0001
0000
0000
0010
0000
0000
0100
0000
,
1000
0000
0000
0000
1000
0000
0000
0000
0100
0000
0000
0010
0000
0000
0001
0000
,
2000
0000
0100
0000
0100
0000
3010
0200
,
0000
0301
1000
0000
0010
0000
0100
0000
,
0110
0000
0010
0000
0010
1000
0010
1000
,
0100
0000
0100
0000
0010
0001
0010
0001
,
0100
0010
0100
0000
0010
1000
0001
1000
,
0000
1000
0100
0000
1000
0001
0100
0000
,
1001
0000
0000
0000
,
0110
0000
0000
0000
,
2002
0000
0000
0000
,
3003
0000
0000
0000
,
0001
0000
1000
0000
0001
0100
0010
0000
,
1000
0100
0010
0000
0001
0000
1000
0000
,
0100
0110
0100
1001
,
0001
0100
0020
0030
,
1000
0000
1100
0000
0001
0100
0001
0100
,
0000
0010
1000
0000
0100
0000
0010
0000
,
0001
0000
0001
0000
1000
0000
0100
1000
,
0000
0010
0100
0000
0001
0000
1000
0000
,
2002
0000
0000
0000
,
3003
0000
0000
0000
;

//---------------dance-single - ----------------
#NOTES:
     dance-single:
     :
     Hard:
     14:
     0.706497,0.876614,0.427617,0.213808,0.153384,532.000000,486.000000,46.000000,23.000000,0.000000,0.000000,0.706497,0.876614,0.427617,0.213808,0.153384,532.000000,486.000000,46.000000,23.000000,0.000000,0.000000:
0000
0000
0000
0000
,
0000
0000
0000
0000
,
0000
0000
0000
0000
,
0000
0000
0000
0000
,
0000
0000
0000
0000
,
0001
0100
0001
0100
0010
1000
0010
1000
,
0100
0000
0000
1001
0000
0000
0011
0000
0110
0000
0000
0000
1000
0000
0000
0000
,
1001
0000
0000
0000
,
0110
0000
0000
0000
0000
0000
0000
0010
0100
0000
0001
0000
0100
0000
0010
0000
,
0220
0000
0000
0330
,
1000
0000
0100
0000
1000
0000
0001
0010
0001
0000
1000
0000
0001
0000
0100
0000
,
1000
0100
1000
0100
0001
1000
0010
0100
,
0001
0010
0011
0000
1000
0100
1100
1000
,
0000
0001
0010
0100
1000
0100
0010
0001
,
1000
0000
0010
0000
1010
0000
0010
0100
0001
0000
1000
0000
0001
0000
0010
0100
,
0010
0001
1000
0100
1000
0001
0100
0010
,
0100
0100
0001
0001
0010
0100
1000
0001
,
0000
1000
0100
0000
0220
0000
0330
0000
,
1000
0000
0100
0000
0001
0000
0100
1000
,
0000
1000
0001
0000
0000
0000
0001
0000
,
0100
0000
0010
0001
0000
0001
0010
0100
,
0000
0001
1000
0000
0001
0000
1001
0000
,
1000
0100
0010
0000
0100
0010
0001
1000
,
0000
1000
0100
0000
0010
0100
0110
0000
,
0100
1000
0001
0000
1000
0100
0010
0001
,
0000
1000
0010
0000
0100
0000
0110
0000
,
1000
0100
1000
0100
0010
0001
0100
0010
,
1000
0001
1000
0001
0100
0010
1000
0100
,
0010
0100
1000
0010
0100
0001
0010
0100
,
0010
0001
0010
0001
1000
0010
0100
0000
,
0110
0000
0001
1000
0100
1000
0100
0010
,
0001
0010
0100
1000
0010
0100
0010
1000
,
0001
0100
0001
0100
0010
1000
0100
0010
,
0000
0001
0010
0100
1000
0000
0001
0000
,
2001
0000
0000
0000
0000
0000
0000
0000
3100
0000
0000
0100
0000
0000
0010
0001
,
1000
0000
0000
1000
0000
0000
0001
0000
0100
0000
0000
0000
0010
0000
0000
0000
,
0220
0000
0000
0000
0330
0000
0000
0000
0001
0000
0000
0100
0000
0000
0010
0000
,
2000
3100
0002
0103
,
2000
0000
0000
0000
0000
0000
0000
0000
3010
0000
0000
0100
0000
0000
0001
0000
,
2000
0000
0000
0002
3000
0000
0103
0000
,
0010
0100
0010
0100
0001
0010
0100
1000
,
0000
0100
0010
0100
0010
0001
1000
0100
,
0010
0010
0001
0001
1000
1000
0010
0010
,
0100
0001
0100
0001
1000
0100
1000
0010
,
0100
0000
0100
0000
0010
0000
0010
0000
1000
0000
0100
0010
0001
0000
2000
0000
,
0000
0000
3000
0000
,
0000
0000
0000
0000
,
1000
0100
1000
0010
0100
0010
1000
0100
,
0010
0001
1000
0000
1001
0000
0001
0010
,
0100
0000
1000
0100
1000
0000
0001
0000
0100
0000
0010
1000
0010
0000
0100
0000
,
0001
0011
2100
3001
,
1000
0100
1000
0010
0100
0010
1000
0100
,
0010
0001
1000
0001
0100
0010
1000
0000
,
2020
0000
0000
0000
3030
0000
0001
0010
0001
0000
0000
0010
0000
0000
0100
0000
,
1000
0000
1000
0000
0001
0000
0100
0000
0010
0100
0010
0000
1000
0001
1000
0001
,
1000
0001
1000
0010
1000
0010
0100
0001
,
0011
0001
1001
0001
0101
0000
0010
1000
,
0100
0010
0100
1000
0010
0100
0001
1000
,
1100
1000
1010
0000
0011
0010
1010
0000
,
0001
0010
0001
0010
0100
0010
0001
1000
,
0010
0000
0000
1010
0000
0000
0110
0000
0101
0000
0000
0000
1000
0000
0000
0000
,
2001
0000
0000
0000
3100
0000
0000
0000
0011
0000
0000
0001
0000
0000
1000
0000
,
0020
0000
0000
0000
0130
0000
0000
0000
0110
0000
0000
0100
0000
0000
0001
0000
,
1000
0100
1000
0000
0001
0010
0001
0000
1000
0000
0010
0000
0100
0000
0002
0000
,
0000
0103
0010
1000
0100
0010
0001
0000
,
0011
0001
1001
1000
1100
0100
0010
0001
,
0101
0001
1001
1000
1010
0010
0100
0001
,
1000
0010
1000
0000
0001
0100
0001
0000
1000
0000
0100
0010
0001
0000
2000
0000
,
0000
3100
1000
0010
0100
0001
1000
0100
,
0110
0000
0000
0000
,
1001
0000
0000
0000
0000
0000
0001
0000
0010
0000
0100
1000
0100
1000
0100
1000
,
0020
0000
0000
0000
,
0030
0000
0000
0000
,
1000
0000
0100
0000
1000
0000
0001
0010
0001
0000
1000
0000
0001
0000
0100
0000
,
1000
0100
1000
0100
0001
1000
0010
0100
,
0001
0010
0011
0000
1000
0100
1100
1000
,
0000
0001
0010
0100
1000
0100
0010
0001
,
1000
0000
0010
0000
1010
0000
0010
0100
0001
0000
1000
0000
0001
0000
0010
0100
,
0010
0001
1000
0100
1000
0001
0100
0010
,
1000
0000
1000
0000
0001
0000
0100
0010
0100
0000
0010
0000
0001
0000
0010
0000
,
1000
0100
1000
0100
0010
0001
0100
0000
,
0220
0000
0000
0330
,
1001
0000
0000
0000
;

//---------------dance-double - ----------------
#NOTES:
     dance-double:
     :
     Easy:
     7:
     0.328016,0.381137,0.223104,0.176624,0.000000,247.000000,223.000000,24.000000,19.000000,0.000000,0.000000,0.328016,0.381137,0.223104,0.176624,0.000000,247.000000,223.000000,24.000000,19.000000,0.000000,0.000000:
00000000
00000000
00000000
00000000
,
00000000
00000000
00000000
00000000
,
00000000
00000000
00000000
00000000
,
00000000
00000000
00000000
00000000
,
00000000
00000000
00000000
00000000
,
10000000
10000000
00010000
00010000
,
00100000
01000000
10010000
00000000
,
01100000
00000000
00000000
00000000
,
00011000
00000000
00000000
00000000
,
00000110
00000000
00000000
00000000
,
00000001
00000010
00001000
00000010
,
00000001
00000100
00001000
00010000
,
00011000
00000000
00110000
00000000
,
10000000
01000000
00100000
00000000
,
00010000
10000000
01000000
10000000
,
00100000
01000000
00010000
00000000
,
00100000
00000000
00100000
00000000
00001000
00000000
00000000
00010000
,
00000000
00001000
00011000
00000000
,
00010000
00000010
00000000
00000010
,
00000001
00000010
00000000
00000010
,
00010000
00001000
00000000
00001000
,
01000000
10000000
01000000
00000000
,
00010000
00100000
00010000
00100000
,
01000000
10000000
00100000
10000000
,
00010000
00000000
01000000
00000000
00001000
00000000
00000000
00100000
,
00000000
00000000
00000000
00000000
,
00010000
01000000
10000000
01000000
,
00010000
00100000
10000000
00100000
,
00001000
00010000
00000010
00001000
,
00000100
00000010
00000001
00000000
,
00000001
00001000
00000100
00001000
,
00000001
00000100
00000010
00010000
,
00002000
00000000
00000000
00000000
00013000
00000000
00001000
00100000
,
00000000
01000000
10000000
00010000
,
20010000
00000000
31000000
00000000
,
20000000
00000000
30100000
00000000
,
02000000
00000000
03010000
00000000
,
00100000
00100000
00001000
00010000
,
00002000
00000000
00003010
00000000
,
00000002
00000000
00002000
00003003
,
00000001
00000100
00000001
00000100
,
00001000
00000100
00001000
00000100
,
00000010
00000010
00001000
00001000
,
00000200
00000000
00020300
00000000
,
00031000
00000000
00001000
00000000
00100000
00000000
00010000
02000000
,
00000000
00000000
03000000
00000000
,
00000000
00000000
00000000
00000000
,
00100000
10000000
01000000
10000000
,
00100000
00100000
00110000
00000000
,
00001000
00010000
01000000
00010000
,
00001000
00010000
00011000
00000000
,
00000010
00001000
00000100
00001000
,
00000010
00000001
00000010
00001000
,
00000002
00000000
00000013
00000000
,
00000100
00000010
00000110
00000000
,
00000001
00000010
00001000
00010000
,
00001000
00010000
00011000
00000000
,
00001000
00010000
00100000
01000000
,
00001000
00001000
00010000
00010000
,
01000000
10000000
00010000
00100000
,
00001000
00001000
00010000
00000000
,
00011000
00000000
00000100
00001000
,
00001010
00000000
00000100
00000001
,
00000022
00000000
00000000
00000000
,
00000033
00000100
00010000
00001000
,
00011000
00000000
00100000
00010000
,
01010000
00000000
00100000
10000000
,
22000000
00000000
00000000
00000000
,
33000000
00100000
00001000
00010000
,
00011000
00000000
00000000
00000000
,
00000110
00000000
00000000
00000000
,
00002002
00000000
00000000
00000000
,
00003003
00000000
00000000
00000000
,
00000001
00000010
00001000
00000010
,
00000001
00000100
00001000
00010000
,
00011000
00000000
00110000
00000000
,
10000000
01000000
00100000
00000000
,
00010000
10000000
01000000
10000000
,
00100000
01000000
00010000
00000000
,
00100000
00100000
00001000
00010000
,
00000100
00001000
00000010
00000000
,
00000220
00000000
00000000
00000000
,
00000330
00000000
00000000
00000000
;

//---------------dance-double - ----------------
#NOTES:
     dance-double:
     :
     Medium:
     11:
     0.452849,0.571705,0.269584,0.195216,0.023240,341.000000,312.000000,29.000000,21.000000,0.000000,0.000000,0.452849,0.571705,0.269584,0.195216,0.023240,341.000000,312.000000,29.000000,21.000000,0.000000,0.000000:
00000000
00000000
00000000
00000000
,
00000000
00000000
00000000
00000000
,
00000000
00000000
00000000
00000000
,
00000000
00000000
00000000
00000000
,
00000000
00000000
00000000
00000000
,
00000001
00000001
00000010
00000001
,
00000100
00000000
00000000
00000100
00000000
00000000
00001000
00000000
00010000
00000000
00000000
00000000
00001000
00000000
00000000
00000000
,
00011000
00000000
00000000
00000000
,
01100000
00000000
00000000
00000000
,
10010000
00000000
00000000
00000000
,
10000000
00000000
00010000
00000000
10000000
01000000
00100000
00000000
,
00010000
01000000
00100000
00000000
00010000
00000000
00001000
00000000
,
00000100
00000100
00000001
00000000
00001000
00001000
00000100
00000010
,
00000000
00000001
00001000
00000000
00000200
00000000
00010300
00001000
,
00010000
00000000
00011000
00000000
00001000
00010000
00100000
00010000
,
00000000
00100000
10000000
00000000
00010000
00100000
01000000
00000000
,
10000000
00000000
10000000
00000000
01000000
00010000
00001000
00010000
,
00000000
00001000
00011000
00000000
,
00100000
00000000
00010000
00000000
00000000
00000000
10000000
00100000
,
00000000
00100000
00000000
00000000
00000000
00000000
01000000
00000000
,
00010000
00000000
00010000
00000000
00000000
00000000
10000000
01000000
,
00000000
01000000
00010000
00000000
00001000
00000000
00000000
00000000
,
00000010
00000000
00000001
00000000
00001000
00000000
00000001
00000100
,
00000000
00000100
00000010
00000000
00001000
00000100
00001000
00000000
,
00000001
00000000
00000100
00000000
00000010
00000000
00010000
00001000
,
00000000
00000000
00000000
00000000
,
01000000
00010000
00100000
00010000
,
10000000
01000000
10000000
00000000
00100000
01000000
00100000
00000000
,
01000000
00000000
00001000
00100000
00000000
00001000
00010000
00000000
,
00000100
00001000
00000001
00000000
00001000
00000000
00001001
00000000
,
00000001
00000000
00000010
00000000
00000100
00001000
00000010
00000000
,
00001000
00000100
00000010
00000000
00000001
00000000
00000100
00000000
,
00001000
00010000
00001000
00000000
01000000
00010000
01000000
00001000
,
00000000
00010000
01000000
10000000
,
20010000
00000000
31000000
00000000
,
00100000
00000000
00000000
00100000
00000000
00000000
00001000
00000000
00010000
00000000
00000000
00000000
00000000
00000000
00000000
00000000
,
00000100
00000000
00000110
00000000
,
00001000
00000010
00000001
00000100
,
00021000
00000000
01030000
00000000
,
20000000
00000000
00020000
30030000
,
10000000
00000000
01000000
00000000
10000000
01000000
00010000
00000000
,
00001000
00000000
00010000
00000000
00001000
00000100
00000010
00000000
,
00001000
00000010
00001000
00000000
00000001
00000100
00000001
00000000
,
00001000
00000100
00000010
00000100
,
00010000
00000000
00010000
00000000
00001000
01000000
00000000
02200000
,
00000000
00000000
03300000
00000000
,
00000000
00000000
00000000
00000000
,
00010000
00000000
00100000
00000000
10000000
00000000
00100000
00010000
,
00000000
00010000
00001000
00000000
00011000
00000000
00000010
00000000
,
00001000
00000100
00000010
00000000
00000001
00000100
00000010
00000000
,
00001010
00001010
00011000
00000000
,
00001000
00000000
00000010
00000000
00000001
00000000
00000010
00001000
,
00000000
00001000
00010000
00000000
00100000
00000000
01000000
00000000
,
00020000
00000000
00230000
00000000
,
01300000
00100000
01100000
00020000
,
10030000
00000000
00010000
00000000
10000000
01000000
00010000
00000000
,
00011000
00001100
00002002
00003003
,
00001000
00000100
00000010
00000000
00000001
00000100
00000010
00000000
,
00001010
00001010
00011000
00011000
,
00001000
00000000
00100000
00000000
00010000
10000000
00100000
00000000
,
01000000
00000000
00000000
01000000
00000000
00000000
00010000
00000000
00100000
00000000
00000000
00000000
00001000
00000000
00000000
00000000
,
00022000
00000000
00000000
00000000
00033000
00000000
00000000
00000000
00010000
00000000
00000000
00010000
00000000
00000000
00000010
00000000
,
00001000
00000000
00000000
00000000
00001000
00000000
00000000
00000000
00000100
00000000
00000000
00000100
00000000
00000000
00000010
00000000
,
00000002
00000000
00000010
00000000
00000010
00000000
00001003
00000020
,
00000000
00000130
00000001
00000000
00000010
00000000
00000100
00000000
,
00000110
00000000
00001000
00000000
00001000
00010000
00001000
00010000
,
00100000
00000000
00100000
00000000
10000000
00010000
10000000
00010000
,
00100000
01000000
00100000
00000000
00010000
10000000
00010000
01000000
,
00000000
01000000
00010000
00000000
01000000
00001000
00010000
00000000
,
00011000
00000000
00000000
00000000
,
00000110
00000000
00000000
00000000
,
00002002
00000000
00000000
00000000
,
00003003
00000000
00000000
00000000
,
00000001
00000000
00001000
00000000
00000001
00000100
00000010
00000000
,
00001000
00000100
00000010
00000000
00001000
00000000
00010000
00000000
,
01000000
01000000
10000000
00000000
00010000
00010000
01000000
00100000
,
00000000
10000000
00010000
00000000
02000000
00000000
03001000
00010000
,
00001000
00000000
00011000
00000000
00010000
00001000
00000010
00001000
,
00000000
00000010
00000001
00000000
00001000
00000010
00000100
00000000
,
00000001
00000000
00000001
00000000
00000100
00001000
00010000
00001000
,
00000000
00010000
01000000
00000000
10000000
00000000
00010000
00000000
,
20020000
00000000
00000000
00000000
,
30030000
00000000
00000000
00000000
;

//---------------dance-double - ----------------
#NOTES:
     dance-double:
     :
     Hard:
     14:
     0.667985,0.762273,0.371841,0.223104,0.125496,503.000000,463.000000,40.000000,24.000000,0.000000,0.000000,0.667985,0.762273,0.371841,0.223104,0.125496,503.000000,463.000000,40.000000,24.000000,0.000000,0.000000:
// measure 0
00000000
00000000
00000000
00000000
,  // measure 1
00000000
00000000
00000000
00000000
,  // measure 2
00000000
00000000
00000000
00000000
,  // measure 3
00000000
00000000
00000000
00000000
,  // measure 4
00000000
00000000
00000000
00000000
,  // measure 5
00000010
00000001
00000010
00000001
00001000
00000100
00001000
00000100
,  // measure 6
00010000
00000000
00000000
00010000
00000000
00000000
00000010
00000000
00001010
00000000
00000000
00000000
00000001
00000000
00000000
00000000
,  // measure 7
00000011
00000000
00000000
00000000
,  // measure 8
00001100
00000000
00000000
00000000
00000000
00000000
00000000
00010000
00001000
00000000
00100000
00000000
00001000
00000000
00010000
00000000
,  // measure 9
00022000
00000000
00000000
00033000
,  // measure 10
00100000
00000000
00010000
00000000
10000000
00000000
00100000
01000000
00100000
00000000
10000000
00000000
00010000
00000000
00100000
00000000
,  // measure 11
01000000
10000000
01000000
10000000
00010000
01000000
00100000
00010000
,  // measure 12
00001000
00010000
00011000
00000000
00010000
00000100
00001100
00001000
,  // measure 13
00000000
00000001
00000100
00000001
00000010
00000100
00001000
00000001
,  // measure 14
00001000
00000000
00000100
00000000
00001100
00000000
00010000
00001000
00010000
00000000
00001000
00000000
01000000
00000000
00010000
01000000
,  // measure 15
00100000
10000000
00010000
00100000
10000000
00100000
00010000
10000000
,  // measure 16
01000000
01000000
00010000
00010000
00001000
00000010
00001000
00010000
,  // measure 17
00000000
00010000
00001000
00000000
00022000
00000000
00033000
00000000
,  // measure 18
00010000
00000000
00000100
00000000
00000001
00000000
00000100
00010000
,  // measure 19
00000000
00010000
00001000
00000000
00000000
00000000
00001000
00000000
,  // measure 20
01000000
00000000
10000000
01000000
00000000
01000000
00010000
01000000
,  // measure 21
00000000
01000000
00001000
00000000
00010000
00000000
00011000
00000000
,  // measure 22
00001000
01000000
00001000
00000000
00010000
00001000
00010000
00000100
,  // measure 23
00000000
00001000
00000010
00000000
00000100
00000010
00000110
00000000
,  // measure 24
00000001
00001000
00000010
00000000
00000100
00000100
00000001
00000010
,  // measure 25
00000000
00000100
00000010
00000000
00001000
00000000
00011000
00000000
,  // measure 26
00100000
00010000
00100000
00010000
10000000
01000000
00100000
01000000
,  // measure 27
10000000
00010000
10000000
00010000
01000000
00100000
10000000
00010000
,  // measure 28
01000000
00001000
00010000
00000010
00001000
00000100
00010000
00001000
,  // measure 29
00100000
00010000
00100000
00001000
00010000
00000100
00010000
00000000
,  // measure 30
00011000
00000000
00001000
00010000
00100000
10000000
00100000
00000000
,  // measure 31
01000000
00010000
10000000
01000000
10000000
00010000
10000000
00000000
,  // measure 32
00100000
01000000
00100000
01000000
00010000
00100000
01000000
10000000
,  // measure 33
00000000
01000000
00010000
00001000
00000010
00000000
00000001
00000000
,  // measure 34
00002001
00000000
00000000
00000000
00000000
00000000
00000000
00000000
00003100
00000000
00000000
00000100
00000000
00000000
00000010
00000000
,  // measure 35
00000001
00000000
00000000
00000001
00000000
00000000
00001000
00000000
00000010
00000000
00000000
00000000
00010000
00000000
00000000
00000000
,  // measure 36
00022000
00000000
00000000
00000000
00033000
00000000
00000000
00000000
00001000
00000000
00000000
01000000
00000000
00000000
00010000
00000000
,  // measure 37
00200000
01300000
20000000
30010000
,  // measure 38
02000000
00000000
00000000
00000000
00000000
00000000
00000000
00000000
03100000
00000000
00000000
00100000
00000000
00000000
10000000
00000000
,  // measure 39
00020000
00000000
00000000
00200000
00030000
00000000
00301000
00000000
,  // measure 40
00010000
00001000
00010000
00001000
00100000
00010000
01000000
00001000
,  // measure 41
00000000
00010000
00001000
00010000
00000010
00001000
00000100
00001000
,  // measure 42
00000001
00000001
00000100
00000000
00001000
00001000
00010000
00000000
,  // measure 43
00100000
01000000
00100000
10000000
01000000
10000000
00010000
00000000
,  // measure 44
10000000
10000000
01000000
01000000
00010000
00001000
00000100
00000002
,  // measure 45
00000000
00000000
00000003
00000000
,  // measure 46
00000000
00000000
00000000
00000000
,  // measure 47
00001000
00000010
00010000
00000100
00001000
00000100
00010000
00001000
,  // measure 48
01000000
00100000
10000000
00000000
10010000
00000000
00010000
00100000
,  // measure 49
01000000
00000000
00000000
11000000
00000000
00000000
10000000
00000000
00100000
00000000
00000000
01100000
00000000
00000000
01000000
00000000
,  // measure 50
00001000
00011000
00210000
00301000
,  // measure 51
00010000
00000100
00001000
00000010
00000100
00000010
00001000
00000001
,  // measure 52
00000010
00000100
00001000
00000000
00000100
00000000
00010000
00000000
,  // measure 53
00022000
00000000
00000000
00000000
00033000
00000000
00001000
00010000
00001000
00000000
00000000
01000000
00000000
00000000
00010000
00000000
,  // measure 54
00100000
00000000
00100000
00000000
10000000
00000000
10000000
00000000
00100000
00010000
00100000
00000000
00001000
00010000
00001000
00000000
,  // measure 55
00010000
00001000
00010000
00000010
00001000
00000100
00000010
00000001
,  // measure 56
00000011
00000000
00001001
00000000
00001100
00000000
00000100
00010000
,  // measure 57
00001000
00010000
00100000
01000000
00100000
00010000
00001000
00010000
,  // measure 58
00000010
00001000
00001010
00000000
00010000
00001000
00011000
00000000
,  // measure 59
00100000
00010000
00100000
00001000
01000000
00001000
00010000
00000010
,  // measure 60
00001000
00000000
00000000
00001000
00000000
00000000
00000100
00000000
00000110
00000000
00000000
00000000
00000001
00000000
00000000
00000000
,  // measure 61
00001002
00000000
00000000
00000000
00000103
00000000
00000000
00000000
00001010
00000000
00000000
00000010
00000000
00000000
00000100
00000000
,  // measure 62
00000002
00000000
00000000
00000000
00001003
00000000
00000000
00000000
00001100
00000000
00000000
00000100
00000000
00000000
00001000
00000000
,  // measure 63
00000010
00001000
00000010
00000000
00010000
00001000
00010000
00000000
00001000
00000000
00100000
00000000
00010000
00000000
20000000
00000000
,  // measure 64
00000000
31000000
10000000
00010000
01000000
00100000
10000000
00000000
,  // measure 65
10010000
00000000
01010000
00010000
00100000
01000000
10000000
01000000
,  // measure 66
01100000
00000000
00110000
00010000
00100000
00001000
00010000
00000100
,  // measure 67
00000010
00000000
00000010
00000000
00000001
00000000
00000001
00000000
00001000
00000000
00000010
00000100
00000001
00000000
00002000
00000000
,  // measure 68
00000000
00003100
00010000
00000010
00001000
00000100
00000010
00000000
,  // measure 69
00000011
00000000
00000000
00000000
,  // measure 70
00001100
00000000
00000000
00000000
00000000
00000000
00010000
00000000
00001000
00000000
00100000
00010000
00100000
00010000
00100000
00010000
,  // measure 71
00200000
00000000
00000000
00000000
,  // measure 72
00300000
00000000
00000000
00000000
,  // measure 73
00100000
00000000
00010000
00000000
10000000
00000000
00100000
01000000
00100000
00000000
10000000
00000000
00010000
00000000
00100000
00000000
,  // measure 74
01000000
10000000
01000000
10000000
00010000
01000000
00100000
00010000
,  // measure 75
00001000
00010000
00011000
00000000
00010000
00000100
00001100
00001000
,  // measure 76
00000000
00000001
00000100
00000001
00000010
00000100
00001000
00000001
,  // measure 77
00001000
00000000
00000100
00000000
00001100
00000000
00010000
00001000
00010000
00000000
00001000
00000000
01000000
00000000
00010000
01000000
,  // measure 78
00100000
10000000
00010000
00100000
10000000
00100000
00010000
10000000
,  // measure 79
01000000
01000000
00010000
00010000
00001000
00000010
00000001
00002000
,  // measure 80
00003000
00001000
00000100
00000001
00000100
00001000
00000010
00000000
,  // measure 81
00000220
00000000
00000000
00000330
,  // measure 82
00001001
00000000
00000000
00000000
;
