#VERSION:0.83;
#TITLE:Let's Get Ridiculous;
#SUBTITLE:;
#ARTIST:Redfoo;
#TITLETRANSLIT:;
#SUBTITLETRANSLIT:;
#ARTISTTRANSLIT:;
#GENRE:Popular Songs;
#ORIGIN:;
#CREDIT:;
#BANNER:Let's Get Ridiculous.png;
#BACKGROUND:Let's Get Ridiculous-bg.png;
#PREVIEWVID:;
#JACKET:Let's Get Ridiculous-jacket.png;
#CDIMAGE:;
#DISCIMAGE:;
#LYRICSPATH:;
#CDTITLE:../cdtitle.png;
#MUSIC:Let's Get Ridiculous.ogg;
#OFFSET:1.867000;
#SAMPLESTART:15.008000;
#SAMPLELENGTH:15.000000;
#SELECTABLE:YES;
#BPMS:0.000=128.000;
#STOPS:96.000=1.406,
157.000=1.406;
#DELAYS:;
#WARPS:;
#TIMESIGNATURES:0.000=4=4;
#TICKCOUNTS:0.000=4;
#COMBOS:0.000=1;
#SPEEDS:0.000=1.000=0.000=0;
#SCROLLS:0.000=1.000;
#FAKES:;
#LABELS:0.000=Song Start;
#BGCHANGES:4.000=Let's Get Ridiculous.avi=1.000=0=0=0=StretchNoLoop====,
99999=-nosongbg-=1.000=0=0=0 // don't automatically add -songbackground-
;
#KEYSOUNDS:;
#ATTACKS:
;

//---------------dance-single - ----------------
#NOTEDATA:;
#CHARTNAME:;
#STEPSTYPE:dance-single;
#DESCRIPTION:;
#CHARTSTYLE:;
#DIFFICULTY:Challenge;
#METER:10;
#RADARVALUES:0.356890,0.404172,0.119342,0.071605,0.000000,314.000000,299.000000,15.000000,9.000000,48.000000,0.000000,0.000000,0.000000,0.000000,0.356890,0.404172,0.119342,0.071605,0.000000,314.000000,299.000000,15.000000,9.000000,48.000000,0.000000,0.000000,0.000000,0.000000;
#CREDIT:led_light;
#NOTES:
0000
0000
0000
0000
,
0000
0000
0000
0000
,
0000
0000
0000
0000
,
0000
0000
0000
0000
,
0000
0000
0000
0000
,
1000
1000
0010
0010
,
0001
0001
0100
0100
,
1000
1000
0001
0001
,
0100
0010
0100
0000
0010
0000
0110
0000
,
1000
0100
1000
0000
0001
0100
0001
0000
,
1000
0100
0001
0100
1000
0000
MMMM
0000
,
0010
1000
0010
0000
0100
1000
0100
0000
,
0010
1000
0100
1000
0010
0000
MMMM
0000
,
0001
0010
0001
0000
1000
0010
1000
0000
,
0001
0010
1000
0010
0001
0000
MMMM
0000
,
0100
0001
0100
0000
0010
0001
0010
0000
,
0100
0001
0010
0001
0100
0000
MMMM
0000
,
1001
0000
0200
0300
,
0020
0030
0200
0300
,
1001
0000
0020
0030
,
0200
0300
0020
0030
,
1001
0100
1001
0010
,
0110
1000
0110
0001
,
1000
0100
0001
0100
1000
0100
0001
0100
,
MMMM
0000
0001
0100
0001
0000
0001
0010
,
0001
0000
0001
0100
0010
0100
0001
0100
,
0010
0000
1000
0100
1000
0000
1000
0010
,
1000
0000
1000
0100
0010
0001
MMMM
0000
,
MMMM
0000
1000
0100
1000
0000
1000
0010
,
1000
0000
1000
0100
0010
0100
1000
0100
,
0010
0000
0001
0100
0010
0100
0001
0010
,
1000
0010
0002
0000
0000
0000
0000
0000
,
0013
0000
1001
0000
0100
0000
0001
1000
,
0010
0000
1000
0001
0100
0000
0010
0000
,
1100
0000
0001
0010
1000
0000
0010
0001
,
1000
0000
1000
0010
0001
0010
1000
0001
,
1000
0000
0220
0000
0330
0000
1000
0100
,
0001
0000
0100
0000
0100
0000
1000
0100
,
0001
0000
0100
1000
0010
0000
0010
0001
,
0100
MMMM
1001
0010
,
0010
0001
0010
0000
0010
1000
0010
0000
,
0100
0000
0100
0000
1000
0100
0001
0000
,
0100
1000
0001
0000
0010
1000
0001
0000
,
0100
0100
0110
0001
,
1000
0100
1000
0000
0010
1000
0100
0000
,
0001
0001
0001
0000
0010
0001
0100
0000
,
1000
1000
1000
0000
0100
1000
0010
0000
,
0010
0100
0001
0000
1001
0000
0001
0000
,
0010
0000
0010
0000
1000
0001
1000
0000
,
0100
0100
0001
0001
,
1000
0100
1000
0000
0010
0100
0010
0100
,
0010
0010
1000
1000
,
0100
0000
0100
0000
0001
1000
0001
0000
,
0010
0010
1000
1000
,
0001
0100
0001
0000
0010
0100
0010
0000
,
0100
0010
0110
0000
1000
0100
1000
0000
,
0001
0100
0001
0000
1000
0100
0001
0100
,
1000
0000
MMMM
0000
0010
1000
0010
0000
,
0100
1000
0100
0000
0010
1000
0100
1000
,
0010
0000
MMMM
0000
0001
0010
0001
0000
,
1000
0010
1000
0000
0001
0010
1000
0010
,
0001
0000
MMMM
0000
0100
0001
0100
0000
,
0010
0001
0010
0000
MMMM
0100
0001
0010
,
0100
1000
0001
0000
0110
0000
0000
0000
;

//---------------dance-single - ----------------
#NOTEDATA:;
#CHARTNAME:;
#STEPSTYPE:dance-single;
#DESCRIPTION:;
#CHARTSTYLE:;
#DIFFICULTY:Hard;
#METER:11;
#RADARVALUES:0.429632,0.429433,0.159123,0.055693,0.019890,378.000000,358.000000,20.000000,7.000000,0.000000,0.000000,0.000000,0.000000,0.000000,0.429632,0.429433,0.159123,0.055693,0.019890,378.000000,358.000000,20.000000,7.000000,0.000000,0.000000,0.000000,0.000000,0.000000;
#CREDIT:led_light;
#NOTES:
0000
0000
0000
0000
,
0000
0000
0000
0000
,
0000
0000
0000
0000
,
0000
0000
0000
0000
,
0000
0000
0000
0000
,
1000
0000
1000
0100
0010
0000
0010
0000
,
1000
0010
1000
0000
0010
0100
1000
0000
,
0010
0000
0010
0100
1000
0100
0010
0000
,
0001
0010
1000
0100
0010
0100
0110
0000
,
0001
0010
0001
0000
1000
0100
1000
0000
,
0001
0100
0010
1000
0001
0000
0110
0000
,
0100
1000
0100
0000
0010
0001
0010
0000
,
0100
1000
0100
0001
0100
0010
0110
0000
,
1000
0100
1000
0000
0001
0010
0001
0000
,
1000
0010
0100
0001
1000
0000
0110
0000
,
0010
0001
0010
0000
0100
1000
0100
0000
,
0010
0001
0010
1000
0010
0000
0110
0000
,
1001
0000
0002
0003
,
2000
0000
3001
0100
0010
0000
0000
0000
,
1100
0000
0002
0003
,
2000
0000
3001
0010
0100
0000
0000
0000
,
0101
0001
0011
0010
,
1010
0000
1000
0100
0010
0000
0001
0000
,
1000
1000
0001
0001
0100
0010
1000
0001
,
1000
0000
0000
0000
0001
0000
0010
0000
0100
0000
1000
0000
0001
0000
0000
0001
,
0000
0000
1000
0000
0100
0000
0010
0000
0001
0000
0100
0000
0010
0000
0000
0010
,
0000
0000
1000
0000
0100
0000
1000
0000
0010
0000
1000
0000
0001
0000
0000
0001
,
0000
0010
1000
0010
0001
1000
0010
0000
,
0010
0000
0000
0000
1000
0000
0100
0000
0010
0000
0001
0000
1000
0000
0000
1000
,
0000
0000
0001
0000
0010
0000
0100
0000
1000
0000
0010
0000
0100
0000
0000
0100
,
0000
0001
0010
0100
0010
0001
1000
0010
,
0001
0010
1000
0100
1000
0100
0010
0010
,
0110
0000
1000
0001
0010
0001
1000
0100
,
1000
0000
0010
0100
0001
1000
0100
0010
,
0100
0000
1000
1000
0001
0001
0010
0001
,
0100
0000
0010
0010
0100
0010
0001
0010
,
1000
0000
2200
0000
3300
0000
0010
0100
,
0010
0000
0001
0100
0010
1000
0001
0100
,
0001
0000
0100
0010
0100
0010
1000
0001
,
0010
0100
1001
0100
,
1000
0010
0001
0000
0010
0100
0010
1000
,
0010
0001
0010
0000
0100
0100
0100
0000
,
0010
0010
0010
0000
1000
0100
1000
0010
,
1000
0100
0100
0000
1001
0001
0100
0001
,
1000
0010
0100
0000
0001
0010
1000
0010
,
0001
0001
0001
0000
1000
0100
0001
0100
,
1000
1000
1000
0000
0001
0100
1000
0100
,
0001
0100
0010
0000
1001
0000
0001
1000
,
0010
0000
0010
0000
0100
0001
1000
0000
,
1000
0100
0010
0000
0001
0000
0001
1000
,
0100
1000
0001
0000
0100
0001
1000
0001
,
0100
0010
2000
0000
3001
0000
0001
0010
,
0100
0000
0100
0000
0001
0100
0001
0000
,
0100
0010
0001
0000
0100
0000
0100
0010
,
0001
0010
0100
0000
1000
0100
0001
0010
,
0100
0010
0110
0000
1000
0100
1000
0000
,
0001
0010
0001
0000
1000
0010
0100
0001
,
1000
0000
0110
0000
0010
0001
0010
0000
,
0100
1000
0100
0000
0010
0001
0010
1000
,
0010
0100
0110
0000
0001
0010
0001
0000
,
1000
0100
1000
0000
0001
0100
0010
1000
,
0001
0000
0110
0000
0100
1000
0100
0000
,
0010
0001
0010
0000
0100
1000
0100
0001
,
0100
0100
0010
0000
1001
0000
0000
0000
;

//---------------dance-single - ----------------
#NOTEDATA:;
#CHARTNAME:;
#STEPSTYPE:dance-single;
#DESCRIPTION:;
#CHARTSTYLE:;
#DIFFICULTY:Medium;
#METER:8;
#RADARVALUES:0.325065,0.353651,0.175035,0.055693,0.000000,286.000000,264.000000,22.000000,7.000000,0.000000,0.000000,0.000000,0.000000,0.000000,0.325065,0.353651,0.175035,0.055693,0.000000,286.000000,264.000000,22.000000,7.000000,0.000000,0.000000,0.000000,0.000000,0.000000;
#CREDIT:led_light;
#NOTES:
0000
0000
0000
0000
,
0000
0000
0000
0000
,
0000
0000
0000
0000
,
0000
0000
0000
0000
,
0000
0000
0000
0000
,
1000
1000
0001
0001
,
0100
0100
0010
0010
,
1000
1000
0100
0100
,
0010
0100
0010
0000
0001
0000
1001
0000
,
1000
1000
0001
0001
,
0100
0001
1000
0000
0100
0000
0000
0000
,
0010
0010
0100
0100
,
1000
0100
0010
0000
0100
0000
1001
0000
,
0001
0001
1000
1000
,
0100
1000
0001
0000
0100
0000
0000
0000
,
0010
0010
0100
0100
,
0001
0100
0010
0000
0100
0000
1001
0000
,
0110
0000
0002
0003
,
2000
0100
3001
0000
,
1001
0000
0200
0300
,
0020
0100
1030
0000
,
0110
0001
0110
0001
,
0110
1000
0110
1000
,
0001
0010
0100
0000
1000
0100
0010
0000
,
0001
0000
1000
0100
1000
0000
0001
0000
,
0001
0000
1000
0100
1000
0000
0010
0000
,
0010
0000
0001
0100
0001
0000
1000
0000
,
1000
0000
0001
0100
0001
0000
0010
0000
,
0010
0000
1000
0010
1000
0000
0100
0000
,
0100
0000
0001
0010
0001
0000
0100
0000
,
0100
0000
1000
0100
0001
0000
0100
1000
,
0001
0200
0000
0000
,
0310
0100
0100
0001
,
1100
0000
1000
0100
1000
0000
1000
0000
,
1010
0000
0100
0010
0010
0000
0001
0010
,
0010
0000
1000
0010
0001
0000
1000
0100
,
0001
2002
3003
0010
,
0100
0000
0010
1000
0100
0000
0010
0001
,
1000
0000
0001
1000
0100
0000
1000
0100
,
0010
0001
1001
0001
,
1000
0000
0001
0000
1000
0100
1000
0000
,
0001
0000
1100
0000
0010
0001
0010
0000
,
0100
1000
0100
0000
0010
0001
0010
0100
,
1000
1000
1001
0001
,
1000
1000
1000
0000
0001
0100
0010
0000
,
0010
0000
0101
0000
1000
0100
0010
0000
,
0010
0000
1100
0000
1000
0100
0001
0000
,
0001
0100
1000
0000
1001
0000
0001
0000
,
1000
0000
0001
0000
1000
1000
0100
0000
,
1000
0010
0100
0100
,
0010
0000
0100
0000
0010
1000
0010
0000
,
0100
0010
1000
1000
,
0001
0000
0001
0000
0100
0010
0100
0000
,
0010
0010
1000
1000
,
0100
0000
0100
0000
0010
0100
0010
0000
,
0001
1001
1000
1000
,
0001
0000
0001
0000
0100
0001
1000
0000
,
0100
0000
0010
0010
,
0100
0000
0100
0000
1000
0100
0010
0000
,
0100
1001
0001
0001
,
1000
0000
1000
0000
0100
1000
0001
0000
,
0100
0000
0010
0010
,
0100
0000
0100
0000
0001
0100
0010
0000
,
0100
1001
0110
0000
;

//---------------dance-single - ----------------
#NOTEDATA:;
#CHARTNAME:;
#STEPSTYPE:dance-single;
#DESCRIPTION:;
#CHARTSTYLE:;
#DIFFICULTY:Easy;
#METER:5;
#RADARVALUES:0.190948,0.328390,0.079561,0.039781,0.000000,168.000000,158.000000,10.000000,5.000000,0.000000,0.000000,0.000000,0.000000,0.000000,0.190948,0.328390,0.079561,0.039781,0.000000,168.000000,158.000000,10.000000,5.000000,0.000000,0.000000,0.000000,0.000000,0.000000;
#CREDIT:led_light;
#NOTES:
0000
0000
0000
0000
,
0000
0000
0000
0000
,
0000
0000
0000
0000
,
0000
0000
0000
0000
,
0000
0000
0000
0000
,
1000
0000
1000
0000
,
0100
1000
0001
0000
,
0100
0000
0100
0000
,
0001
0100
0010
0000
,
1000
0000
1000
0000
,
0100
0001
0100
0000
,
1000
0000
1000
0000
,
0010
0001
0100
0000
,
0001
0000
0001
0000
,
0010
1000
0010
0000
,
0001
0000
0001
0000
,
0100
1000
0010
0000
,
0110
0000
0001
0000
,
2000
0000
3100
0000
,
1001
0000
0100
0000
,
0020
0000
1030
0000
,
1100
0100
0101
0100
,
0011
0010
1010
0010
,
0200
0001
1000
0001
,
0310
1000
0100
0001
,
0000
1000
0100
0001
,
0000
1000
0010
0001
,
0000
0010
0100
0000
,
0000
0001
0100
1000
,
0000
0001
0100
1000
,
0000
0001
0010
1000
,
0100
0002
0000
0000
,
0003
1000
0000
0001
,
0000
1000
0001
1000
,
0000
0100
0010
0100
,
0000
0100
0010
0100
,
0000
1001
0000
0001
,
0000
1000
0100
1000
,
0000
0001
0100
0001
,
0000
0010
0110
0100
,
0001
0000
0100
0100
,
1000
0000
0100
0100
,
0010
0000
0100
0010
,
0200
0300
1000
1000
,
0010
0000
0001
0100
,
1000
0000
1000
0010
,
0001
0000
0010
0100
,
0010
0000
1001
0000
,
0001
0000
1000
0100
,
0100
0000
0010
0000
,
0010
0000
0001
0001
,
0001
0000
1000
0000
,
1000
0000
0100
1000
,
0001
0000
0100
0000
,
0100
0000
0001
0100
,
0010
0000
1000
0000
,
1000
0000
0100
0001
,
0100
0000
1000
0000
,
1000
0000
0010
0001
,
0100
0000
0001
0000
,
0001
0000
0010
1000
,
0010
0000
0001
0000
,
0001
0000
0100
1000
,
0010
0000
0110
0000
;

//---------------dance-single - ----------------
#NOTEDATA:;
#CHARTNAME:;
#STEPSTYPE:dance-single;
#DESCRIPTION:;
#CHARTSTYLE:;
#DIFFICULTY:Beginner;
#METER:1;
#RADARVALUES:0.070469,0.126304,0.031825,0.015912,0.000000,62.000000,58.000000,4.000000,2.000000,0.000000,0.000000,0.000000,0.000000,0.000000,0.070469,0.126304,0.031825,0.015912,0.000000,62.000000,58.000000,4.000000,2.000000,0.000000,0.000000,0.000000,0.000000,0.000000;
#CREDIT:led_light;
#NOTES:
0000
0000
0000
0000
,
0000
0000
0000
0000
,
0000
0000
0000
0000
,
0000
0000
0000
0000
,
0000
0000
0000
0000
,
1000
0000
0000
0000
,
0000
0000
0000
0000
,
0001
0000
0000
0000
,
0000
0000
0000
0000
,
1000
0000
1000
0000
,
1000
0000
0000
0000
,
1000
0000
1000
0000
,
1000
0000
0000
0000
,
0001
0000
0001
0000
,
0001
0000
0000
0000
,
0001
0000
0001
0000
,
0001
0000
0000
0000
,
1001
0000
0000
0000
,
0000
0000
0000
0000
,
0110
0000
0000
0000
,
0000
0000
0000
0000
,
1000
0000
0000
0000
,
1000
0000
0000
0000
,
0002
0000
0000
0000
,
0003
1000
0000
0000
,
0000
1000
0000
0000
,
0000
1000
0000
0000
,
0000
1000
0000
0000
,
0000
0001
0000
0000
,
0000
0001
0000
0000
,
0000
0002
0000
0000
,
0000
0003
0000
0000
,
0000
0010
0000
0000
,
0000
0100
0000
0000
,
0000
0010
0000
0000
,
0000
0010
0000
0000
,
0000
1000
0000
0000
,
0000
1000
0000
0000
,
0000
0001
0000
0000
,
0000
1000
0001
0000
,
0000
0000
0001
0000
,
0000
0000
1000
0000
,
0000
0000
0100
0000
,
0000
0000
0010
0000
,
0000
0000
0100
0000
,
0000
0000
0100
0000
,
0000
0000
0010
0000
,
0000
0000
1001
0000
,
0000
0000
0000
0000
,
0000
0000
0000
0000
,
0000
0000
0000
0000
,
0000
0000
0001
0000
,
0000
0000
0000
0000
,
0000
0000
1000
0000
,
0000
0000
0000
0000
,
0000
0000
0001
0000
,
0001
0000
0001
0000
,
0000
0000
0001
0000
,
0001
0000
0001
0000
,
0000
0000
1000
0000
,
1000
0000
1000
0000
,
0000
0000
1000
0000
,
1000
0000
1000
0000
,
0000
0000
1001
0000
;

//---------------dance-double - ----------------
#NOTEDATA:;
#CHARTNAME:;
#STEPSTYPE:dance-double;
#DESCRIPTION:;
#CHARTSTYLE:;
#DIFFICULTY:Challenge;
#METER:11;
#RADARVALUES:0.371666,0.404172,0.143211,0.071605,0.000000,327.000000,309.000000,18.000000,9.000000,88.000000,0.000000,0.000000,0.000000,0.000000,0.371666,0.404172,0.143211,0.071605,0.000000,327.000000,309.000000,18.000000,9.000000,88.000000,0.000000,0.000000,0.000000,0.000000;
#CREDIT:led_light;
#NOTES:
00000000
00000000
00000000
00000000
,
00000000
00000000
00000000
00000000
,
00000000
00000000
00000000
00000000
,
00000000
00000000
00000000
00000000
,
00000000
00000000
00000000
00000000
,
00000010
00000010
00001000
00001000
,
00010000
00100000
00010000
00000000
00100000
00000000
00100000
00000000
,
10000000
10000000
00010000
00010000
,
00100000
01000000
00100000
00000000
01000000
00000000
10010000
00000000
,
00100000
00010000
00100000
00000000
00001000
00010000
00001000
00000000
,
00100000
00010000
00001000
00010000
00100000
00000000
MMMMMMMM
00000000
,
00010000
00001000
00010000
00000000
00000010
00001000
00000010
00000000
,
00010000
00001000
00000010
00001000
00010000
00000000
MMMM1100
00000000
,
00000010
00001000
00000010
00000000
00010000
00001000
00010000
00000000
,
00000010
00001000
00010000
00001000
00000010
00000000
MMMMMMMM
00000000
,
00001000
00010000
00001000
00000000
00100000
00010000
00100000
00000000
,
00001000
00010000
00100000
00010000
00001000
00000000
MMMMMMMM
00000000
,
00011000
00000000
00020000
00030000
,
00000200
00000000
00001300
00000010
00020000
00000000
00030000
00000000
,
00011000
00000000
00002000
00003000
,
00200000
00000000
00310000
01000000
00002000
00000000
00003000
00000000
,
00101000
00010000
00001100
00000010
,
00010100
00001000
01010000
00100000
,
01000000
00001000
00010000
00001000
00000010
00000001
00000010
00001000
,
MMMMMMMM
00000000
00000100
00000001
00000100
00000000
00001000
00000100
,
00001000
00000000
00000010
00000100
00001000
00000100
00000010
00000100
,
00001000
00000000
00010000
01000000
00010000
00000000
01000000
10000000
,
01000000
00000000
00100000
00010000
01000000
00100000
MMMMMMMM
00000000
,
MMMMMMMM
00000000
00010000
00100000
00010000
00000000
00100000
10000000
,
00100000
00000000
00010000
01000000
00100000
01000000
00010000
01000000
,
00100000
00000000
00010000
00001000
00000010
00000100
00010000
00001000
,
00000100
00000010
00002000
00000000
00000000
00000000
00003100
00001000
,
00001001
00000000
00000100
00000000
00000010
00000000
00000100
00000001
,
00000010
00000000
00000100
00001000
00000010
00001000
00000100
00000000
,
00011000
00000000
00000100
00000010
00001000
00000000
00010000
00001000
,
00010000
00000000
00010000
00100000
10000000
00100000
00010000
00001000
,
00010000
00000000
00022000
00000000
00033000
00000000
01000000
10000000
,
01000000
00000000
00100000
00010000
00100000
01000000
10000000
01000000
,
00100000
00000000
10000000
01000000
00010000
00000000
10000000
00100000
,
00010000
MMMMMMMM
10010000
00100000
,
00100000
00010000
01000000
00000000
00100000
10000000
01000000
00100000
,
01000000
00000000
10010000
00000000
10000000
01000000
00010000
00000000
,
01000000
00010000
00001000
00000000
00010000
00001000
00000100
00000010
,
00000100
00000010
00000110
00000001
,
00001000
00000100
00001000
00000000
00000010
00000100
00000010
00000000
,
00001000
00000001
00000010
00000000
00001000
00010000
00001000
00000000
,
00010000
01000000
10000000
00000000
00010000
00100000
00100000
00000000
,
10000000
00100000
00100000
00000000
10010000
00000000
00010000
00000000
,
00100000
00000000
00100000
00000000
10000000
00100000
10000000
00000000
,
00100000
00010000
10000000
10000000
,
00010000
00000000
00010000
00000000
00100000
01000000
00100000
00000000
,
00010000
01000000
00100000
00100000
,
00010000
00000000
00010000
00000000
00001000
00000010
00001000
00000000
,
00000010
00000010
00000001
00000001
,
00001000
00000000
00001000
00000000
00000010
00000100
00000010
00000000
,
00000100
00000000
00001001
00000000
00000010
00001000
00000010
00000000
,
00010000
00001000
00010000
00000000
00000010
00001000
00010000
00001000
,
00000010
00000000
MMMMMMMM
00000000
00001000
00010000
00001000
00000000
,
00100000
00010000
00100000
00000000
00001000
00010000
00100000
00010000
,
00001000
00000000
0101MMMM
00000000
00100000
00010000
00100000
00000000
,
00001000
00010000
00001000
00000000
00100000
00010000
00001000
00010000
,
00100000
00000000
MMMMMMMM
00000000
00010000
00001000
00010000
00000000
,
00000010
00001000
00000010
00000000
MMMMMMMM
00001000
00000100
00001000
,
00010000
01000000
00100000
00000000
10010000
00000000
00000000
00000000
;

//---------------dance-double - ----------------
#NOTEDATA:;
#CHARTNAME:;
#STEPSTYPE:dance-double;
#DESCRIPTION:;
#CHARTSTYLE:;
#DIFFICULTY:Hard;
#METER:11;
#RADARVALUES:0.421676,0.404172,0.167079,0.063649,0.019890,371.000000,350.000000,21.000000,8.000000,0.000000,0.000000,0.000000,0.000000,0.000000,0.421676,0.404172,0.167079,0.063649,0.019890,371.000000,350.000000,21.000000,8.000000,0.000000,0.000000,0.000000,0.000000,0.000000;
#CREDIT:led_light;
#NOTES:
00000000
00000000
00000000
00000000
,
00000000
00000000
00000000
00000000
,
00000000
00000000
00000000
00000000
,
00000000
00000000
00000000
00000000
,
00000000
00000000
00000000
00000000
,
10000000
00000000
10000000
01000000
00010000
00000000
00010000
00000000
,
00001000
00010000
00001000
00000000
00010000
00000100
00010000
00000000
,
00001000
00000000
00001000
00000100
00000001
00000100
00000010
00000000
,
00000100
00001000
00000100
00000010
00000001
00000010
00000110
00000000
,
00000001
00000010
00000001
00000000
00001000
00000010
00001000
00000000
,
00000001
00000010
00000100
00010000
00001000
00000000
00011000
00000000
,
00100000
01000000
00100000
00000000
00010000
01000000
00010000
00000000
,
10000000
01000000
00010000
01000000
10000000
00000000
01100000
00000000
,
10000000
00100000
10000000
00000000
00010000
00100000
00010000
00000000
,
10000000
00100000
01000000
00001000
00010000
00000000
00011000
00000000
,
00000010
00000100
00000010
00000000
00001000
00000100
00001000
00000000
,
00000001
00000100
00001000
00000100
00000001
00000000
00000110
00000000
,
00001001
00000000
00000020
00000030
,
00002000
00000000
00013000
00100000
00010000
00000000
00000000
00000000
,
10010000
00000000
02000000
03000000
,
00020000
00000000
00031000
00000100
00001000
00000000
00000000
00000000
,
00001001
00000100
00001010
00000100
,
00011000
00000000
00001000
01000000
00100000
00000000
00010000
00000000
,
00001000
00100000
00010000
00100000
00001000
00010000
01000000
00010000
,
00001000
00000000
00000000
00000000
00010000
00000000
01000000
00000000
10000000
00000000
01000000
00000000
00010000
00000000
00000000
00010000
,
00000000
00000000
00001000
00000000
00100000
00000000
00010000
00000000
01000000
00000000
00001000
00000000
00010000
00000000
00000000
00010000
,
00000000
00000000
00000100
00000000
00001000
00000000
00000010
00000000
00000100
00000000
00000010
00000000
00001000
00000000
00000000
00001000
,
00000000
00000100
00000001
00000100
00001000
00000001
00001000
00000000
,
00000000
00000000
00000000
00000000
00000001
00000000
00000100
00000000
00000010
00000000
00000100
00000000
00000001
00000000
00000000
00000001
,
00000000
00000000
00001000
00000000
00000100
00000000
00000010
00000000
00000100
00000000
00010000
00000000
00001000
00000000
00000000
00001000
,
00000000
00100000
01000000
00100000
01000000
10000000
00100000
00010000
,
00001000
00000010
00000002
00000000
00000000
00000000
00001003
00000001
,
00001001
00000000
00000010
00000001
00000100
00000001
00001000
00000100
,
00000010
00000000
00000001
00001000
00000100
00000010
00000001
00000100
,
00000010
00000000
00001000
00000010
00000100
00000010
00010000
00001000
,
00010000
00000000
00001000
00100000
01000000
00100000
00010000
10000000
,
00100000
00000000
02200000
00000000
03300000
00000000
10000000
00100000
,
00010000
00000000
00100000
00010000
00001000
00010000
00001000
00000100
,
00000001
00000000
00000100
00001000
00000100
00001000
00010000
00001000
,
00010000
01000000
10010000
00100000
,
10000000
00100000
10000000
00000000
00010000
00100000
01000000
00100000
,
10000000
00100000
00010000
00000000
00100000
00010000
00100000
00000000
,
00001000
00010000
00001000
00000000
00100000
00010000
01000000
00001000
,
00010000
01000000
00100000
00000000
10010000
00100000
10000000
01000000
,
10000000
00100000
00010000
00000000
00000010
00010000
00000100
00010000
,
00001000
00001000
00001000
00000000
00100000
00001000
01000000
00001000
,
00010000
00010000
00010000
00000000
01000000
10000000
00100000
10000000
,
01000000
00100000
00010000
00000000
10010000
00000000
00010000
00000000
,
10000000
00000000
10000000
00000000
00100000
01000000
00100000
00000000
,
01000000
00001000
00010000
00000000
00001000
00000000
00001000
00010000
,
00000100
00010000
00001000
00000000
00010000
00000010
00001000
00000010
,
00000100
00000010
00002000
00000000
00003001
00000000
00000001
00000010
,
00001000
00000000
00001000
00000000
00010000
00001000
00010000
00000000
,
00001000
00100000
00001000
00000000
00010000
00000000
00010000
00100000
,
10000000
00100000
01000000
00000000
00100000
00010000
00100000
01000000
,
10000000
01000000
01100000
00000000
10000000
01000000
10000000
00000000
,
00010000
01000000
00010000
00000000
10000000
01000000
00100000
00001000
,
00010000
00000000
00011000
00000000
00000100
00000010
00000100
00000000
,
00001000
00000010
00001000
00000000
00000001
00000010
00001000
00000010
,
00000001
00000000
00000110
00000000
00000001
00000100
00000001
00000000
,
00001000
00000100
00001000
00000000
00000001
00000100
00000010
00010000
,
00001000
00000000
00011000
00000000
01000000
00100000
01000000
00000000
,
00010000
00100000
00010000
00000000
10000000
00100000
00010000
00100000
,
10000000
01100000
10010000
00000000
;

//---------------dance-double - ----------------
#NOTEDATA:;
#CHARTNAME:;
#STEPSTYPE:dance-double;
#DESCRIPTION:;
#CHARTSTYLE:;
#DIFFICULTY:Medium;
#METER:8;
#RADARVALUES:0.313699,0.353651,0.182991,0.071605,0.000000,276.000000,253.000000,23.000000,9.000000,0.000000,0.000000,0.000000,0.000000,0.000000,0.313699,0.353651,0.182991,0.071605,0.000000,276.000000,253.000000,23.000000,9.000000,0.000000,0.000000,0.000000,0.000000,0.000000;
#CREDIT:led_light;
#NOTES:
// measure 0
00000000
00000000
00000000
00000000
,  // measure 1
00000000
00000000
00000000
00000000
,  // measure 2
00000000
00000000
00000000
00000000
,  // measure 3
00000000
00000000
00000000
00000000
,  // measure 4
00000000
00000000
00000000
00000000
,  // measure 5
00100000
00100000
00100000
00000000
,  // measure 6
01000000
10000000
00010000
00000000
,  // measure 7
10000000
00000000
10000000
00000000
,  // measure 8
10000000
01000000
00010000
00000000
00010000
00000000
00011000
00000000
,  // measure 9
00000100
00000100
00010000
00010000
,  // measure 10
00000010
00001000
00000010
00000000
00000100
00000000
00000000
00000000
,  // measure 11
00001000
00001000
01000000
01000000
,  // measure 12
00010000
00100000
00010000
00000000
00010000
00000000
10010000
00000000
,  // measure 13
01000000
01000000
00001000
00001000
,  // measure 14
00100000
00010000
00100000
00000000
01000000
00000000
00000000
00000000
,  // measure 15
00010000
00010000
00000100
00000100
,  // measure 16
00001000
00000010
00001000
00000000
00001000
00000000
00001001
00000000
,  // measure 17
00000110
00000000
00002000
00003000
,  // measure 18
00000200
00001000
00010300
00000000
,  // measure 19
00011000
00000000
00200000
00300000
,  // measure 20
00020000
01000000
10030000
00000000
,  // measure 21
11000000
01000000
00110000
00010000
,  // measure 22
01010000
01000000
00011000
00001000
,  // measure 23
00200000
00010000
01000000
00001000
,  // measure 24
10300000
00000000
00100000
00010000
00100000
00000000
00001000
00010000
,  // measure 25
00001000
00000000
00001000
00010000
00001000
00000000
00100000
00000000
,  // measure 26
00011000
00000000
00010000
00001000
00010000
00000000
00000010
00001000
,  // measure 27
00000010
00000000
00000100
00000001
00000010
00000000
00000000
00000000
,  // measure 28
00000000
00000000
00000100
00001000
00000100
00000000
00010000
00001000
,  // measure 29
00010000
00000000
00010000
00001000
00010000
00000000
00000100
00000000
,  // measure 30
00011000
00000000
00010000
01000000
10000000
00000000
10000000
01000000
,  // measure 31
00010000
00002000
00000000
00000000
,  // measure 32
00013000
01000000
01000000
00100000
,  // measure 33
11000000
00000000
00010000
00000000
00010000
00000000
00100000
01000000
,  // measure 34
00100000
00000000
00010000
00001000
00010000
00000000
00001000
00000100
,  // measure 35
00001000
00000000
00001000
00000010
00000010
00000000
00000001
00000010
,  // measure 36
00001000
00002002
00003003
00001000
,  // measure 37
00001000
00000000
00000001
00000100
00000001
00000000
00000001
00000100
,  // measure 38
00001000
00000000
00010000
00001000
00010000
00000000
01000000
10000000
,  // measure 39
00010000
10000000
10010000
00010000
,  // measure 40
10000000
00000000
00010000
00000000
00010000
01000000
00100000
00000000
,  // measure 41
10000000
00000000
11000000
00000000
00100000
00010000
00100000
00000000
,  // measure 42
01000000
00010000
01000000
00000000
00100000
00010000
00100000
01000000
,  // measure 43
00010000
00010000
00011000
00000100
,  // measure 44
00000010
00000100
00001000
00000000
00000001
00000100
00001000
00000000
,  // measure 45
00001000
00000000
00011000
00000000
00010000
00100000
10000000
00000000
,  // measure 46
10000000
00000000
10010000
00000000
10000000
01000000
00010000
00000000
,  // measure 47
01000000
00010000
00001000
00000000
00011000
00000000
00001000
00000000
,  // measure 48
00010000
00000000
00010000
00000000
00000100
00001000
00000010
00000000
,  // measure 49
00001000
00000100
00000010
00000010
,  // measure 50
00000100
00000000
00001000
00000000
00000001
00001000
00000001
00000000
,  // measure 51
00000020
00000030
00000100
00000100
,  // measure 52
00000100
00000000
00000010
00000001
,  // measure 53
00001000
00000000
00000001
00000000
,  // measure 54
00000001
00000000
00000000
00000000
00000001
00000010
00001000
00000000
,  // measure 55
00001000
00011000
00100000
00100000
,  // measure 56
00001000
00000000
00001000
00000000
01000000
00010000
01000000
00000000
,  // measure 57
00100000
00000000
00010000
00010000
,  // measure 58
00000010
00000000
00000010
00000000
00001000
00000100
00001000
00000000
,  // measure 59
00001000
00001001
00000010
00000010
,  // measure 60
00010000
00000000
00010000
00000000
00000100
00001000
00000100
00000000
,  // measure 61
00000010
00000000
00001000
00001000
,  // measure 62
00100000
00000000
00100000
00000000
00010000
01000000
00010000
00000000
,  // measure 63
00010000
10010000
01100000
00000000
;

//---------------dance-double - ----------------
#NOTEDATA:;
#CHARTNAME:;
#STEPSTYPE:dance-double;
#DESCRIPTION:;
#CHARTSTYLE:;
#DIFFICULTY:Easy;
#METER:4;
#RADARVALUES:0.177308,0.202086,0.063649,0.023868,0.000000,156.000000,148.000000,8.000000,3.000000,0.000000,0.000000,0.000000,0.000000,0.000000,0.177308,0.202086,0.063649,0.023868,0.000000,156.000000,148.000000,8.000000,3.000000,0.000000,0.000000,0.000000,0.000000,0.000000;
#CREDIT:led_light;
#NOTES:
00000000
00000000
00000000
00000000
,
00000000
00000000
00000000
00000000
,
00000000
00000000
00000000
00000000
,
00000000
00000000
00000000
00000000
,
00000000
00000000
00000000
00000000
,
10000000
00000000
10000000
00000000
,
00100000
01000000
00100000
00000000
,
00010000
00000000
00010000
00000000
,
00001000
00001000
00010000
00000000
,
00000100
00000000
00000100
00000000
,
00000100
00000010
00000100
00000000
,
00000001
00000000
00000001
00000000
,
00000100
00010000
00001000
00000000
,
00100000
00000000
00100000
00000000
,
00100000
01000000
00100000
00000000
,
10000000
00000000
10000000
00000000
,
00100000
00010000
10000000
00000000
,
01100000
00000000
00010000
00000000
,
01000000
00000000
00010000
00000000
,
00011000
00000000
00000100
00000000
,
00010000
00000000
00000100
00000000
,
00000110
00000000
00000100
00000000
,
00001001
00000000
00000010
00000000
,
00020000
00000000
00000000
00000000
,
00030000
00001000
00010000
01000000
,
00000000
00010000
01000000
10000000
,
00000000
10000000
00100000
00010000
,
00000000
00010000
00001000
00000000
,
00000000
00010000
00001000
00000100
,
00000000
00001000
00000100
00000001
,
00000000
00000001
00000010
00001000
,
00000010
00000002
00000000
00000000
,
00000003
00001000
00000000
00001000
,
00000000
00000100
00000010
00000100
,
00000000
00010000
00001000
00010000
,
00000000
00000010
00001000
00000010
,
00000000
00000110
00000000
00000001
,
00000000
00000001
00001000
00000001
,
00000000
00000010
00000010
00001000
,
00000000
00010000
00011000
00000000
,
00001000
00000000
00010000
00100000
,
10000000
00000000
00010000
00000000
,
00010000
00000000
00100000
01000000
,
00200000
00300000
10000000
10000000
,
00100000
00000000
01000000
01000000
,
00010000
00000000
00001000
00001000
,
00010000
00000000
00000100
00000100
,
00000010
00000000
00001001
00000000
,
00000001
00000000
00000010
00000010
,
00000010
00000000
00001000
00000000
,
00001000
00000000
00010000
01000000
,
10000000
00000000
10000000
00000000
,
10000000
00000000
00100000
01000000
,
00100000
00000000
00010000
00000000
,
00010000
00000000
00001000
00001000
,
00010000
00000000
00000100
00000000
,
00000100
00000000
00000100
00000010
,
00000100
00000000
00000001
00000000
,
00000001
00000000
00000100
00010000
,
00001000
00000000
00100000
00000000
,
00100000
00000000
00100000
01000000
,
00100000
00000000
10000000
00000000
,
10000000
00000000
00100000
00010000
,
10000000
00000000
01100000
00000000
;
