#VERSION:0.83;
#TITLE:Let's Get It Started;
#SUBTITLE:;
#ARTIST:ILUNA;
#TITLETRANSLIT:;
#SUBTITLETRANSLIT:;
#ARTISTTRANSLIT:;
#GENRE:にじさんじ;
#ORIGIN:;
#CREDIT:;
#BANNER:Let's Get It Started.png;
#BACKGROUND:../bg.png;
#PREVIEWVID:;
#JACKET:Let's Get It Started-jacket.png;
#CDIMAGE:;
#DISCIMAGE:;
#LYRICSPATH:;
#CDTITLE:../cdtitle.png;
#MUSIC:Let's Get It Started.ogg;
#OFFSET:1.144000;
#SAMPLESTART:48.941002;
#SAMPLELENGTH:15.000000;
#SELECTABLE:YES;
#BPMS:0.000=118.000,
164.000=59.000,
166.000=118.000;
#STOPS:;
#DELAYS:;
#WARPS:;
#TIMESIGNATURES:0.000=4=4;
#TICKCOUNTS:0.000=4;
#COMBOS:0.000=1;
#SPEEDS:0.000=1.000=0.000=0;
#SCROLLS:0.000=1.000;
#FAKES:;
#LABELS:0.000=Song Start;
#BGCHANGES:2.250=Let's Get It Started.avi=1.000=0=0=0=StretchNoLoop====,
99999=-nosongbg-=1.000=0=0=0 // don't automatically add -songbackground-
;
#KEYSOUNDS:;
#ATTACKS:
;

//---------------dance-single - ----------------
#NOTEDATA:;
#CHARTNAME:;
#STEPSTYPE:dance-single;
#DESCRIPTION:;
#CHARTSTYLE:;
#DIFFICULTY:Beginner;
#METER:1;
#RADARVALUES:0.036240,0.070581,0.000000,0.065466,0.000000,31.000000,31.000000,0.000000,8.000000,0.000000,0.000000,0.000000,0.000000,0.000000,0.036240,0.070581,0.000000,0.065466,0.000000,31.000000,31.000000,0.000000,8.000000,0.000000,0.000000,0.000000,0.000000,0.000000;
#CREDIT:led_light;
#NOTES:
0000
0000
0000
0000
,
0000
0000
0000
0000
,
0000
0000
0000
0000
,
0000
0000
0000
0000
,
0000
0000
0000
0000
,
0100
0000
0000
0000
,
0000
0000
0000
0000
,
0100
0000
0000
0000
,
0000
0000
0000
0000
,
0001
0000
0000
0000
,
0000
0000
0000
0000
,
1000
0000
0000
0000
,
0000
0000
0000
0000
,
0100
0000
0000
0000
,
0100
0000
0000
0000
,
0010
0000
0000
0000
,
0010
0000
0000
0000
,
0002
0000
0000
0000
,
0003
0000
0000
0000
,
0020
0000
0000
0000
,
0030
0000
0000
0000
,
0200
0000
0000
0000
,
0300
0000
0000
0000
,
2000
0000
0000
0000
,
3000
0000
0000
0000
,
1000
0000
0000
0000
,
0000
0000
0000
0000
,
0001
0000
0000
0000
,
0000
0000
0000
0000
,
0100
0000
0000
0000
,
0100
0000
0000
0000
,
0010
0000
0000
0000
,
0000
0000
0000
0000
,
2000
0000
0000
0000
,
3000
0000
0000
0000
,
0200
0000
0000
0000
,
0300
0000
0000
0000
,
0020
0000
0000
0000
,
0030
0000
0000
0000
,
0002
0000
0000
0000
,
0003
0000
0000
0000
,
0000
0000
0001
0000
,
0000
0000
0000
0000
,
0000
0000
1000
0000
,
0000
0000
0000
0000
,
0000
0000
0010
0000
,
0000
0000
0010
0000
,
0000
0000
0100
0000
,
0000
0000
0000
0000
,
0000
0000
0010
0000
,
0000
0000
0000
0000
,
0000
0000
0010
0000
,
0000
0000
0000
0000
,
0000
0000
1000
0000
,
0000
0000
0000
0000
,
0000
0000
0001
0000
,
0000
0000
0000
0000
,
0000
0000
1000
0000
;

//---------------dance-single - ----------------
#NOTEDATA:;
#CHARTNAME:;
#STEPSTYPE:dance-single;
#DESCRIPTION:;
#CHARTSTYLE:;
#DIFFICULTY:Easy;
#METER:4;
#RADARVALUES:0.151976,0.259922,0.073650,0.155483,0.000000,130.000000,121.000000,9.000000,19.000000,0.000000,0.000000,0.000000,0.000000,0.000000,0.151976,0.259922,0.073650,0.155483,0.000000,130.000000,121.000000,9.000000,19.000000,0.000000,0.000000,0.000000,0.000000,0.000000;
#CREDIT:led_light;
#NOTES:
0000
0000
0000
0000
,
0000
0000
0000
0000
,
0000
0000
0000
0000
,
0000
0000
0000
0000
,
0000
0000
0000
0000
,
0010
0010
0010
0000
,
1000
0100
0001
0000
,
0100
0100
0100
0000
,
2000
0000
0000
3000
,
0000
0001
0001
0000
,
1000
0001
0000
0101
,
0000
0010
0010
0000
,
0200
0000
0300
1100
,
0000
0010
0010
0110
,
1000
0001
0100
0110
,
0000
0010
0010
1001
,
0100
1000
0010
0011
,
0200
0000
0000
0000
,
0020
0000
0000
0330
,
2000
0000
0000
0000
,
0002
0000
0000
3003
,
0002
0000
0000
0000
,
0200
0000
0000
0003
,
0020
0000
0000
0000
,
0330
0000
0000
0000
,
0110
0010
0100
0001
,
1000
0000
0001
0001
,
1000
0100
0001
0010
,
1000
0000
1000
1000
,
0100
0000
0010
0010
,
0001
0000
1000
0010
,
0100
0100
0010
1000
,
0002
0000
0003
0000
,
2000
0000
0100
0000
,
0000
0000
3100
0000
,
0002
0000
0010
0000
,
0000
0000
0013
0000
,
0002
0000
0100
0000
,
0000
0000
0103
0000
,
2000
0000
0010
0000
,
3200
0000
0010
0000
,
0300
0000
1001
0000
,
0000
0000
0000
0000
,
0000
0000
0001
0010
,
1000
0100
0001
0000
,
0001
0001
0010
0000
,
0100
0100
1000
0000
,
0001
0100
0010
0010
,
0100
0001
2000
0000
,
3000
1001
0100
0100
,
0100
0000
0001
0010
,
1000
0000
0010
0010
,
0010
0000
0002
0000
,
0000
0003
1000
1000
,
1000
0000
0100
1000
,
0010
0000
0100
0100
,
0100
0000
0020
0030
,
0100
0001
2000
3000
;

//---------------dance-single - ----------------
#NOTEDATA:;
#CHARTNAME:;
#STEPSTYPE:dance-single;
#DESCRIPTION:;
#CHARTSTYLE:;
#DIFFICULTY:Challenge;
#METER:12;
#RADARVALUES:0.417349,0.543474,0.261866,0.319149,0.155483,357.000000,325.000000,32.000000,39.000000,0.000000,0.000000,0.000000,0.000000,0.000000,0.417349,0.543474,0.261866,0.319149,0.155483,357.000000,325.000000,32.000000,39.000000,0.000000,0.000000,0.000000,0.000000,0.000000;
#CREDIT:led_light;
#NOTES:
0000
0000
0000
0000
,
0000
0000
0000
0000
,
0000
0000
0000
0000
,
0000
0000
0000
0000
,
0000
0000
0000
0000
,
1000
0000
0000
0000
0101
0000
0000
0000
2200
0000
0000
0000
3300
0000
1000
0010
,
0000
1000
0010
0000
0100
0000
0001
0000
2000
0000
0000
3010
0000
0000
0100
0000
,
0001
0000
1100
0000
0022
0000
0033
0220
,
0000
0000
0000
0000
0330
0000
0000
0000
1000
0000
0001
0100
0000
0200
0000
0300
,
0001
0000
1000
0000
0100
0010
0001
0000
1000
0000
0000
1000
0000
0000
0100
1000
,
0100
0010
0001
0000
1000
0000
0000
1000
0000
0000
0100
0000
0110
0000
0000
0000
,
0001
0000
0010
0000
1000
0000
0010
0000
0001
0000
0000
0001
0000
0000
1000
0100
,
1000
0010
0100
0010
0100
0001
1000
0000
,
1001
0000
0000
0000
0001
0000
0010
0000
0100
0000
1000
0010
1000
0000
0001
0000
,
0010
0000
0100
0000
1000
0000
0010
0100
0010
0000
0100
0000
0110
0000
0000
0000
,
1001
0000
0000
0000
0001
0000
0010
0100
1000
0000
0100
0010
0001
0000
0000
0001
,
0010
0000
0001
1000
0010
0100
0010
0100
0001
0000
1000
0000
1100
0000
0000
0000
,
2000
0000
3010
1000
0100
0001
0100
0010
,
0200
0000
1300
0100
0010
0001
1000
0001
,
0100
0010
1000
0001
1000
0010
0100
0001
,
2000
0100
0010
3100
,
0002
0000
0103
0001
0010
1000
0010
0100
,
0020
0000
0031
0010
0100
1000
0001
1000
,
0010
0100
0010
0100
1000
0100
0010
0001
,
0020
0000
0000
0000
0000
0000
0000
0000
0030
0000
0000
0000
0100
0001
1000
0000
,
1100
0000
0000
0000
0011
0000
0000
0000
1000
0000
0001
0100
0010
0000
1000
0000
,
0001
0000
1010
0010
0100
0001
1000
0100
,
0010
0000
0110
0000
1000
0100
0001
0100
,
2000
0000
3010
1000
0100
0010
0100
0010
,
0011
0000
1000
0001
0100
0010
0100
0010
,
1010
0000
0100
0001
0010
1000
0010
0001
,
0100
0010
0100
0010
1000
0001
0010
0200
,
0000
0000
0000
0000
0300
1000
0001
0000
,
2000
0000
3000
0100
1000
0000
0001
0000
,
0010
0000
0000
0100
0010
0000
0000
0000
0001
0000
0000
0000
2000
0000
0000
0000
,
3002
0000
0000
0000
0003
0000
0100
0000
0001
0000
0000
0100
0001
0000
0000
0000
,
1000
0000
0000
0010
0100
0000
0000
0000
0010
0000
0000
0000
2000
0000
0000
0000
,
3200
0000
0300
0010
0100
1000
0001
0000
,
2000
0000
3000
0001
0100
0010
1000
0000
,
0002
0000
0003
0100
0001
0010
0100
0000
,
0020
0000
0000
0000
0030
1000
0010
0001
,
2000
0000
3000
0000
0000
0000
0011
0000
0000
0000
0000
0000
,
1000
0000
0000
0001
0000
0000
0100
0000
0000
0000
0000
0000
0000
0000
0000
0000
,
0000
0010
0100
0000
0110
0000
1001
0000
,
1000
0100
0001
0100
2000
0000
3010
1000
,
0100
0010
0100
0010
0011
0000
1000
0001
,
0100
0010
0100
0010
1010
0000
0100
0001
,
0010
1000
0010
0001
0100
0010
0100
0010
,
1000
0001
0010
0100
1000
0010
1000
0100
,
1000
0001
0100
0000
1001
0000
1100
0000
,
0202
0000
0000
0000
0303
0000
0001
0010
0000
0001
0010
0000
0100
0000
1000
0000
,
0001
0000
0100
0010
0000
1000
0100
0000
0010
0000
0000
0000
1100
0000
0000
0000
,
0202
0000
0303
0220
0000
0000
0330
0100
,
0010
0000
1000
0100
0000
0010
0001
0000
1000
0000
0000
0000
0101
0000
0000
0000
,
2200
0000
0000
0000
3300
0000
1000
0010
0000
1000
0010
0000
0100
0000
0001
0000
,
1000
0000
0100
0010
0000
0001
0100
0000
0010
0000
0000
0000
0101
0000
0000
0000
,
2200
0000
3300
0220
0000
0000
0330
0001
,
0100
0000
0001
0010
0000
0100
1000
0000
0002
0000
0000
0000
0003
0000
0000
0000
;

//---------------dance-single - ----------------
#NOTEDATA:;
#CHARTNAME:;
#STEPSTYPE:dance-single;
#DESCRIPTION:;
#CHARTSTYLE:;
#DIFFICULTY:Medium;
#METER:6;
#RADARVALUES:0.229133,0.283552,0.106383,0.302782,0.000000,196.000000,183.000000,13.000000,37.000000,0.000000,0.000000,0.000000,0.000000,0.000000,0.229133,0.283552,0.106383,0.302782,0.000000,196.000000,183.000000,13.000000,37.000000,0.000000,0.000000,0.000000,0.000000,0.000000;
#CREDIT:led_light;
#NOTES:
// measure 0
0000
0000
0000
0000
,  // measure 1
0000
0000
0000
0000
,  // measure 2
0000
0000
0000
0000
,  // measure 3
0000
0000
0000
0000
,  // measure 4
0000
0000
0000
0000
,  // measure 5
0100
0100
0200
0300
,  // measure 6
0010
0100
0010
0000
0002
0000
0003
0000
,  // measure 7
1000
1000
2000
3000
,  // measure 8
0220
0330
0000
0000
,  // measure 9
0000
1000
0001
0000
0100
0000
0100
0000
,  // measure 10
0001
1000
0100
0000
0000
0000
0110
0000
,  // measure 11
0000
0000
0001
1000
0010
0000
0010
0000
,  // measure 12
0200
0000
0300
1100
,  // measure 13
0000
0000
0010
0000
0010
1000
0100
0000
,  // measure 14
0001
0000
0001
0100
1000
0000
1001
0000
,  // measure 15
0000
0000
0010
0000
0010
0001
1000
0000
,  // measure 16
1000
0100
0001
0100
1000
0000
0001
0000
,  // measure 17
2000
0000
0100
0100
,  // measure 18
3020
0100
1000
0100
,  // measure 19
2030
0100
3002
0010
,  // measure 20
2003
0000
0100
3100
,  // measure 21
1002
0000
0100
0100
,  // measure 22
0023
0100
0001
0100
,  // measure 23
0031
0100
0010
0000
1000
0100
0010
0000
,  // measure 24
0002
0000
0003
0000
,  // measure 25
1000
0000
0101
0000
1000
0100
0001
0000
,  // measure 26
0100
0000
1000
1000
,  // measure 27
0010
0000
0100
0000
0010
1000
0100
0000
,  // measure 28
0020
0000
0030
0000
0100
0010
0100
0000
,  // measure 29
1000
0000
1000
0000
0010
0100
0010
0000
,  // measure 30
1000
0000
0000
0000
0100
0010
0001
0000
,  // measure 31
0010
0000
0010
0000
0100
0000
1000
0020
,  // measure 32
0000
0000
0030
0110
,  // measure 33
0002
0000
0100
0000
,  // measure 34
2003
0100
0200
3300
,  // measure 35
0020
0000
0001
0000
,  // measure 36
0230
0000
0310
0001
,  // measure 37
2000
3000
0200
0000
,  // measure 38
0301
0000
0002
0000
,  // measure 39
0013
0000
0010
0000
,  // measure 40
0200
0000
0302
0000
,  // measure 41
2000
0000
3003
0000
0000
0000
0110
0000
0000
0000
0000
0000
,  // measure 42
0000
0000
0000
0000
,  // measure 43
0000
1001
0010
0100
,  // measure 44
0010
1000
0100
0000
0020
0000
0030
0000
,  // measure 45
0100
0010
0100
0000
1000
0000
1000
0000
,  // measure 46
0010
0100
0010
0000
1000
0000
0000
0000
,  // measure 47
0100
0010
0001
0000
0010
0000
0010
0000
,  // measure 48
0100
0000
1000
0020
0100
0000
0001
0000
,  // measure 49
1030
1001
0100
0100
,  // measure 50
0200
0000
0300
0000
0010
0100
0010
0000
,  // measure 51
0001
0101
0010
0010
,  // measure 52
0020
0030
2200
3300
,  // measure 53
0001
1000
0100
0000
0010
0000
0010
0000
,  // measure 54
0020
0000
0030
0000
0100
0010
0100
0000
,  // measure 55
1000
1010
0100
0100
,  // measure 56
0200
0300
0020
0030
,  // measure 57
1000
0001
0010
0000
0200
0000
0300
0000
;

//---------------dance-single - ----------------
#NOTEDATA:;
#CHARTNAME:;
#STEPSTYPE:dance-single;
#DESCRIPTION:;
#CHARTSTYLE:;
#DIFFICULTY:Hard;
#METER:9;
#RADARVALUES:0.307458,0.354439,0.180033,0.294599,0.053191,263.000000,241.000000,22.000000,36.000000,0.000000,0.000000,0.000000,0.000000,0.000000,0.307458,0.354439,0.180033,0.294599,0.053191,263.000000,241.000000,22.000000,36.000000,0.000000,0.000000,0.000000,0.000000,0.000000;
#CREDIT:led_light;
#NOTES:
0000
0000
0000
0000
,
0000
0000
0000
0000
,
0000
0000
0000
0000
,
0000
0000
0000
0000
,
0000
0000
0000
0000
,
1000
0000
0001
0000
0202
0000
0303
0010
,
0000
0100
0000
0000
0100
0000
0001
0000
1000
0000
0000
1000
0000
0000
0100
0000
,
0010
0000
0010
0000
0200
0000
0300
2002
,
0000
3003
0000
0000
,
0001
0000
0000
0000
0001
0000
0100
0000
0010
0000
0000
0010
0000
0000
1000
0000
,
0100
0000
0010
0000
0001
0000
0000
0001
0000
0000
0010
0000
0110
0000
0000
0000
,
1000
0000
0000
0000
0001
0000
0100
0000
0010
0000
0000
0010
0000
0000
0100
0000
,
1000
0100
1000
0100
0001
0000
1001
0000
,
0000
0000
0100
0100
0100
1000
0001
0000
,
0100
0100
0010
1000
0100
0000
0011
0000
,
0000
0000
0100
1000
0001
1000
0100
0000
,
0001
0100
1000
0010
0001
0010
1000
0000
,
2001
0000
0000
0000
3100
0010
0001
0000
,
2000
0000
3010
0200
0000
0310
0000
2000
,
0000
3100
0000
0020
0000
0130
0000
2000
,
0000
0000
0000
3001
,
0012
0000
0000
0000
1003
0100
0010
0000
,
0002
0000
0103
2000
0000
3100
0010
0000
,
1000
0100
1000
0100
0010
0001
0100
0000
,
0020
0000
0030
0000
,
0011
0000
0000
0000
1010
0000
0000
0000
0001
0000
0000
0010
0000
0000
0100
0000
,
1000
0000
1001
0000
0010
0100
0010
0000
,
0001
0000
1010
0000
0100
0001
1000
0100
,
0020
0000
0030
0000
0010
0001
0100
0001
,
0010
0000
0110
0000
0100
1000
0010
1000
,
0100
0000
0110
0000
0010
0001
1000
0000
,
0001
0100
0001
0000
0010
0100
1000
0002
,
0000
0000
0000
0000
0003
1000
0100
0000
,
0020
0000
0031
1000
,
0001
0001
0100
0001
,
2000
0000
3100
0010
,
0100
0100
0001
0100
,
2000
0000
3000
0000
1000
0100
1000
0000
,
0020
0000
0030
0000
0100
0001
0100
0000
,
0020
0000
0030
0000
1000
0100
0010
0000
,
0200
0000
0000
0000
0300
0010
0001
0000
,
2000
0000
3000
0000
0000
0000
0110
0000
0000
0000
0000
0000
,
0100
0000
0000
0100
0000
0000
0001
0000
0000
0000
0000
0000
0000
0000
0000
0000
,
0000
0010
0001
1010
,
0100
0001
1000
0100
0020
0000
0130
0000
,
0010
0001
0100
0001
0010
0000
0110
0000
,
0100
1000
0010
1000
0100
0000
0110
0000
,
0010
0001
1000
0000
0001
0100
0001
0000
,
0010
0100
1000
0000
0010
0010
0100
0100
,
0010
1000
1100
0000
1000
0000
0001
0000
,
0202
0000
0000
0000
0303
0000
0010
0000
0000
0100
0000
0000
0100
0000
0001
0000
,
1000
0000
0000
1000
0000
0000
0100
0000
0010
0000
0000
0000
0010
0000
0000
0000
,
0200
0000
0300
2002
0000
0000
3003
0001
,
0100
0000
0000
0010
0000
0000
1000
0000
0001
0000
0000
0000
1000
0000
0000
0000
,
2020
0000
0000
0000
3030
0000
0100
0000
0000
0010
0000
0000
0010
0000
1000
0000
,
0001
0000
0000
0001
0000
0000
0010
0000
0100
0000
0000
0000
0100
0000
0000
0000
,
0020
0000
0030
2002
0000
0000
3003
1000
,
0010
0000
0000
0100
0000
0000
0001
0000
2000
0000
0000
0000
3000
0000
0000
0000
;

//---------------dance-double - ----------------
#NOTEDATA:;
#CHARTNAME:;
#STEPSTYPE:dance-double;
#DESCRIPTION:;
#CHARTSTYLE:;
#DIFFICULTY:Easy;
#METER:4;
#RADARVALUES:0.143792,0.236293,0.057283,0.155483,0.000000,123.000000,116.000000,7.000000,19.000000,0.000000,0.000000,0.000000,0.000000,0.000000,0.143792,0.236293,0.057283,0.155483,0.000000,123.000000,116.000000,7.000000,19.000000,0.000000,0.000000,0.000000,0.000000,0.000000;
#CREDIT:led_light;
#NOTES:
00000000
00000000
00000000
00000000
,
00000000
00000000
00000000
00000000
,
00000000
00000000
00000000
00000000
,
00000000
00000000
00000000
00000000
,
00000000
00000000
00000000
00000000
,
10000000
10000000
10000000
00000000
,
00010000
01000000
00010000
00000000
,
00100000
00100000
00100000
00000000
,
00002000
00000000
00000000
00003000
,
00000000
00010000
00010000
00000000
,
00000100
00000100
00000000
00000011
,
00000000
00001000
00001000
00000000
,
00000020
00000000
00000030
00000110
,
00000000
00001000
00001000
00001000
,
00010000
01000000
10000000
10010000
,
00000000
00100000
00100000
00100000
,
10000000
00100000
00010000
00011000
,
00002000
00000000
00000000
00000000
,
00020000
00000000
00000000
00033000
,
00000200
00000000
00000000
00000000
,
00000020
00000000
00000000
00000330
,
00000002
00000000
00000000
00000000
,
00000200
00000000
00000000
00000003
,
00000020
00000000
00000000
00000000
,
00000330
00000000
00000000
00000000
,
00000100
00001010
00000010
00010000
,
00001000
00000000
00010000
00010000
,
00001000
00100000
01000000
00100000
,
01000000
00000000
10000000
10000000
,
00100000
00000000
01000000
01000000
,
00010000
00000000
00100000
00010000
,
00100000
00100000
00001000
00010000
,
00002000
00000000
00003000
00000000
,
00020000
00000000
00000000
00000000
,
00030000
00000000
00000100
00000000
,
00002000
00000000
00000000
00000000
,
00003000
00000000
00000010
00000000
,
00000200
00000000
00000000
00000000
,
00000300
00000000
00000001
00000000
,
00002000
00000000
00000000
00000000
,
00003000
00000000
00000200
00000000
,
00000300
00000000
00011000
00000000
,
00000000
00000000
00000000
00000000
,
00000000
00000000
00001000
00100000
,
01000000
00100000
01000000
00000000
,
10000000
10000000
00100000
00000000
,
01000000
01000000
00010000
00000000
,
00100000
00010000
00100000
00100000
,
00001000
00010000
00002000
00000000
,
00003000
00001100
00000001
00000001
,
00000001
00000000
00001000
00000100
,
00001000
00000000
00000010
00000010
,
00000010
00000000
00020000
00000000
,
00000000
00030000
00001000
00001000
,
00001000
00000000
01000000
00010000
,
10000000
00000000
01000000
01000000
,
01000000
00000000
00200000
00300000
,
01000000
00010000
00002000
00003000
;

//---------------dance-double - ----------------
#NOTEDATA:;
#CHARTNAME:;
#STEPSTYPE:dance-double;
#DESCRIPTION:;
#CHARTSTYLE:;
#DIFFICULTY:Medium;
#METER:6;
#RADARVALUES:0.223287,0.283552,0.090016,0.294599,0.000000,191.000000,180.000000,11.000000,36.000000,0.000000,0.000000,0.000000,0.000000,0.000000,0.223287,0.283552,0.090016,0.294599,0.000000,191.000000,180.000000,11.000000,36.000000,0.000000,0.000000,0.000000,0.000000,0.000000;
#CREDIT:led_light;
#NOTES:
00000000
00000000
00000000
00000000
,
00000000
00000000
00000000
00000000
,
00000000
00000000
00000000
00000000
,
00000000
00000000
00000000
00000000
,
00000000
00000000
00000000
00000000
,
00100000
00100000
00200000
00300000
,
00010000
10000000
00010000
00000000
02000000
00000000
03000000
00000000
,
00001000
00001000
00002000
00003000
,
00022000
00033000
00000000
00000000
,
00000000
00000100
00001000
00000000
00000100
00000000
00000100
00000000
,
00001000
00000001
00000100
00000000
00000000
00000000
00000110
00000000
,
00000000
00000000
00001000
00000001
00000010
00000000
00000010
00000000
,
00002000
00000000
00003000
00011000
,
00000000
00000000
01000000
00000000
01000000
10000000
00100000
00000000
,
00010000
00000000
00010000
00001000
00000010
00000000
00000110
00000000
,
00000000
00000000
00000001
00000000
00000001
00001000
00000010
00000000
,
00000100
00001000
00010000
00001000
00010000
00000000
01000000
00000000
,
20000000
00000000
01000000
01000000
,
30200000
00000000
01000000
01000000
,
00320000
00001000
00030020
00000100
,
00002030
00000000
00000100
00003100
,
00000002
00000000
00000010
00000010
,
00002003
00000000
00003010
00000100
,
00001000
01000000
00001000
00000000
00100000
00010000
00100000
00000000
,
02000000
00000000
03000000
00000000
,
10000000
00000000
01100000
00000000
10000000
00100000
00010000
00000000
,
00001000
00000000
00010000
00010000
,
00001000
00000000
00010000
00000000
00000010
00001000
00000001
00000000
,
00000200
00000000
00000300
00000000
00000010
00001000
00000010
00000000
,
00010000
00000000
00010000
00000000
00001000
00100000
00001000
00000000
,
00010000
00000000
00000000
00000000
01000000
00100000
01000000
00000000
,
10000000
00000000
10000000
00000000
00010000
00000000
01000000
00200000
,
00000000
00000000
00300000
01000000
,
00002000
00000000
00010000
00000000
,
00203000
00010000
00020000
00330000
,
20000000
00000000
01000000
00000000
,
30200000
00000000
01300000
00001000
,
00020000
00030000
00002000
00000000
,
00013000
00000000
00002000
00000000
,
00003010
00000000
00000010
00000000
,
00000002
00000000
00002000
00000000
,
00003003
00000000
00000110
00000000
,
00000000
00000000
00000000
00000000
,
00000000
00011000
00010000
00001000
,
01000000
00010000
10000000
00000000
00200000
00000000
00300000
00000000
,
01000000
00010000
01000000
00000000
00001000
00000000
00001000
00000000
,
00010000
00000100
00010000
00000000
00001000
00000000
00000000
00000000
,
00000010
00000100
00000010
00000000
00000001
00000000
00000001
00000000
,
00001000
00000000
00000010
00000200
00000010
00000000
00001000
00000000
,
00000301
00001001
00000100
00000100
,
00000200
00000000
00000300
00000000
00001000
00000001
00001000
00000000
,
00000010
00000110
00010000
00010000
,
00020000
00030000
00022000
00033000
,
00001000
00100000
00010000
00000000
00100000
00000000
00100000
00000000
,
00200000
00000000
00300000
00000000
00010000
10000000
00010000
00000000
,
01000000
01100000
00001000
00001000
,
00002000
00003000
00020000
00030000
,
00001000
00000010
00000001
00000000
00002000
00000000
00003000
00000000
;

//---------------dance-double - ----------------
#NOTEDATA:;
#CHARTNAME:;
#STEPSTYPE:dance-double;
#DESCRIPTION:;
#CHARTSTYLE:;
#DIFFICULTY:Hard;
#METER:9;
#RADARVALUES:0.306289,0.378069,0.180033,0.294599,0.053191,262.000000,240.000000,22.000000,36.000000,0.000000,0.000000,0.000000,0.000000,0.000000,0.306289,0.378069,0.180033,0.294599,0.053191,262.000000,240.000000,22.000000,36.000000,0.000000,0.000000,0.000000,0.000000,0.000000;
#CREDIT:led_light;
#NOTES:
00000000
00000000
00000000
00000000
,
00000000
00000000
00000000
00000000
,
00000000
00000000
00000000
00000000
,
00000000
00000000
00000000
00000000
,
00000000
00000000
00000000
00000000
,
00010000
00000000
00001000
00000000
00022000
00000000
00033000
00010000
,
00000000
00010000
00000000
00000000
00000100
00000000
00001000
00000000
00000010
00000000
00000000
00000010
00000000
00000000
00000100
00000000
,
00000001
00000000
00000001
00000000
00002000
00000000
00003000
00000220
,
00000000
00000330
00000000
00000000
,
00000001
00000000
00000000
00000000
00000001
00000000
00000010
00000000
00001000
00000000
00000000
00001000
00000000
00000000
00010000
00000000
,
00001000
00000000
00010000
00000000
00100000
00000000
00000000
00100000
00000000
00000000
01000000
00000000
01100000
00000000
00000000
00000000
,
10000000
00000000
01000000
00000000
00010000
00000000
01000000
00000000
10000000
00000000
00000000
10000000
00000000
00000000
00100000
00000000
,
01000000
00100000
01000000
00010000
10000000
00000000
10010000
00000000
,
00000000
00000000
00010000
00100000
01000000
10000000
00010000
00000000
,
10000000
01000000
00100000
00001000
00010000
00000000
00011000
00000000
,
00000000
00000000
00000100
00010000
00001000
00010000
00000010
00000000
,
01000000
00001000
00010000
00001000
00100000
00001000
00011000
00000000
,
00000200
00000000
00000000
00000000
00000310
00000001
00000010
00000000
,
00000200
00000000
00001300
00000002
00000000
00000103
00000000
00002000
,
00000000
00013000
00000000
02000000
00000000
13000000
00000000
00020000
,
00000000
00000000
00000000
01030000
,
20010000
00000000
00000000
00000000
31000000
10000000
01000000
00000000
,
00200000
00000000
00310000
02000000
00000000
03001000
00010000
00000000
,
00001000
00100000
00001000
00010000
00000010
00001000
00000001
00000000
,
00000020
00000000
00000030
00000000
,
00001100
00000000
00000000
00000000
00000011
00000000
00000000
00000000
00000001
00000000
00000000
00000100
00000000
00000000
00001000
00000000
,
00010000
00000000
00011000
00000000
00100000
00010000
00100000
00000000
,
00001000
00000000
00011000
00000000
01000000
00010000
10000000
01000000
,
00200000
00000000
00300000
00000000
00010000
10000000
00100000
10000000
,
01000000
00000000
01100000
00000000
10000000
00100000
01000000
00010000
,
00100000
00000000
00101000
00000000
00001000
00010000
00001000
00010000
,
00000010
00001000
00000010
00000000
00000100
00000010
00001000
00000002
,
00000000
00000000
00000003
00001001
,
00000002
00000000
00000103
00000000
,
00001000
00000100
00001000
00010000
,
00002000
00000000
01003000
00000000
,
00001000
00010000
00001000
00100000
,
02000000
00000000
03000000
00000000
10000000
00000000
10000000
00200000
,
00000000
00000000
00300000
00000000
01000000
00010000
10000000
00000000
,
02000000
00000000
03000000
00000000
00100000
00010000
00100000
00000000
,
00002000
00000000
00000000
00000000
00003000
00010000
00001000
00000000
,
00000020
00000000
00000030
00000000
00000000
00000000
00000110
00000000
00000000
00000000
00000000
00000000
,
00000001
00000000
00000000
00000001
00000000
00000000
00001000
00000000
00000000
00000000
00000000
00000000
00000000
00000000
00000000
00000000
,
00000000
00000100
00010000
00011000
,
00000100
00001000
00000001
00000100
00000020
00000000
00000030
00000000
,
00001000
00000001
00000010
00000001
00000100
00000000
00000110
00000000
,
00000001
00000010
00000100
00001000
00000010
00000000
00010010
00000000
,
00010000
00001000
00010000
00001000
00100000
00010000
00100000
00000000
,
01000000
00100000
00010000
10000000
00100000
01000000
00100000
10000000
,
01000000
00010000
00001000
00000000
00010000
00000000
00001000
00000000
,
00022000
00000000
00000000
00000000
00033000
00000000
00010000
00000000
00000000
00010000
00000000
00000000
00000100
00000000
00001000
00000000
,
00000010
00000000
00000000
00000010
00000000
00000000
00000100
00000000
00000001
00000000
00000000
00000000
00000001
00000000
00000000
00000000
,
00002000
00000000
00003000
00000220
00000000
00000000
00000330
00000001
,
00000100
00000000
00000000
00000010
00000000
00000000
00010000
00000000
00001000
00000000
00000000
00000000
00010000
00000000
00000000
00000000
,
00022000
00000000
00000000
00000000
00033000
00000000
00001000
00000000
00000000
00001000
00000000
00000000
01000000
00000000
00010000
00000000
,
00100000
00000000
00000000
00100000
00000000
00000000
01000000
00000000
10000000
00000000
00000000
00000000
10000000
00000000
00000000
00000000
,
00020000
00000000
00030000
02200000
00000000
00000000
03300000
10000000
,
01000000
00000000
00000000
00100000
00000000
00000000
00001000
00000000
00020000
00000000
00000000
00000000
00030000
00000000
00000000
00000000
;

//---------------dance-double - ----------------
#NOTEDATA:;
#CHARTNAME:;
#STEPSTYPE:dance-double;
#DESCRIPTION:;
#CHARTSTYLE:;
#DIFFICULTY:Challenge;
#METER:12;
#RADARVALUES:0.420856,0.543474,0.278232,0.310966,0.155483,360.000000,326.000000,34.000000,38.000000,0.000000,0.000000,0.000000,0.000000,0.000000,0.420856,0.543474,0.278232,0.310966,0.155483,360.000000,326.000000,34.000000,38.000000,0.000000,0.000000,0.000000,0.000000,0.000000;
#CREDIT:led_light;
#NOTES:
00000000
00000000
00000000
00000000
,
00000000
00000000
00000000
00000000
,
00000000
00000000
00000000
00000000
,
00000000
00000000
00000000
00000000
,
00000000
00000000
00000000
00000000
,
00001000
00000000
00000000
00000000
00010100
00000000
00000000
00000000
00202000
00000000
00000000
00000000
00303000
00000000
00010000
01000000
,
00000000
00010000
01000000
00000000
00100000
00000000
10000000
00000000
01000000
00000000
00000000
00100000
00000000
00000000
00001000
00000000
,
00010000
00000000
00110000
00000000
00002020
00000000
00003030
00022000
,
00000000
00000000
00000000
00000000
00033000
00000000
00000000
00000000
00010000
00000000
00001000
00010000
00000000
00020000
00000000
00030000
,
00001000
00000000
00010000
00000000
00000100
00000010
00000100
00000000
00001000
00000000
00000000
00001000
00000000
00000000
00000010
00000000
,
00000100
00000001
00000100
00000000
00000010
00000000
00000000
00000010
00000000
00000000
00001000
00000000
00001001
00000000
00000000
00000000
,
00001000
00000000
00000100
00000000
00000001
00000000
00000100
00000000
00010000
00000000
00000000
00010000
00000000
00000000
00001000
00010000
,
00001000
00010000
00100000
00010000
00100000
10000000
10100000
00000000
,
01010000
00000000
00000000
00000000
00010000
00000000
10000000
00000000
01000000
00000000
00100000
00010000
00100000
00000000
00001000
00000000
,
00010000
00000000
00000010
00000000
00001000
00000000
00000001
00000100
00000001
00000000
00001000
00000000
00001100
00000000
00000000
00000000
,
00000110
00000000
00000000
00000000
00000001
00000000
00001000
00000100
00000010
00000000
00000001
00001000
00000010
00000000
00000000
00000100
,
00000010
00000000
00001000
00000100
00010000
00001000
00010000
00001000
00100000
00000000
01000000
00000000
01100000
00000000
00000000
00000000
,
20000000
00000000
30010000
00100000
01000000
00100000
00010000
10000000
,
00200000
00000000
01300000
00001000
00010000
00001000
00100000
00001000
,
00010000
00000100
00010000
00000010
00001000
00000001
00000010
00000100
,
00000020
00000100
00001000
00000031
,
00001002
00000000
00001003
00000010
00000100
00000010
00001000
00000001
,
00000020
00000000
00001030
00000010
00000001
00000010
00000100
00010000
,
00001000
00100000
00001000
00100000
01000000
10000000
00100000
00010000
,
00002000
00000000
00000000
00000000
00000000
00000000
00000000
00000000
00003000
00000000
00000000
00000000
00010000
00001000
00010000
00000000
,
00011000
00000000
00000000
00000000
00001010
00000000
00000000
00000000
00000001
00000000
00000010
00000001
00000100
00000000
00001000
00000000
,
00010000
00000000
00011000
00001000
00010000
00000100
00000010
00000100
,
00010000
00000000
00011000
00000000
00001000
00010000
00100000
00010000
,
00002000
00000000
00013000
00001000
00100000
01000000
00100000
00010000
,
00110000
00000000
10000000
00100000
00010000
00100000
00010000
00001000
,
00010000
00000000
00011000
00001000
00100000
01000000
00010000
00001000
,
00000010
00000100
00000010
00000100
00001000
00000010
00010000
00002000
,
00000000
00000000
00000000
00000000
00003000
01000000
00001000
00000000
,
00020000
00000000
00000000
00000000
00030000
00000000
00001000
00000000
00010000
00000000
00000000
00001000
00010000
00000000
00000000
00000000
,
00000100
00000000
00000000
00010000
00000100
00000000
00000000
00000000
00000010
00000000
00000000
00000000
00000002
00000000
00000000
00000000
,
00002003
00000000
00000000
00000000
00003000
00000000
00000010
00000000
00000100
00000000
00000000
00000010
00000100
00000000
00000000
00000000
,
00001000
00000000
00000000
00010000
00001000
00000000
00000000
00000000
01000000
00000000
00000000
00000000
00020000
00000000
00000000
00000000
,
20030000
00000000
30000000
01000000
00100000
00010000
10000000
00000000
,
00020000
00000000
00030000
01000000
00100000
00010000
00001000
00000000
,
00020000
00000000
00030000
00001000
00010000
00001000
00000010
00000000
,
00000002
00000000
00000000
00000000
00000003
00000010
00000100
00010000
,
00002000
00000000
00003000
00000000
00000000
00000000
00011000
00000000
00000000
00000000
00000000
00000000
,
00001000
00000000
00000000
00100000
00000000
00000000
00010000
00000000
00000000
00000000
00000000
00000000
00000000
00000000
00000000
00000000
,
00000000
00100000
00010000
01000000
00001000
00000000
00011000
00000000
,
00010000
00001000
00000010
00001000
00020000
00000000
00031000
00010000
,
00000010
00000100
00000010
00001000
00001010
00000000
00000001
00000010
,
00001000
00000010
00001000
00010000
00001000
00000000
00011000
00010000
,
00000010
00000100
00001000
00010000
00100000
01000000
00100000
01000000
,
00010000
00100000
00001000
00010000
00000100
00000100
00010000
00010000
,
00001000
00010000
00011000
00000000
00010010
00000000
00101000
00000000
,
00020200
00000000
00000000
00000000
00030300
00000000
00001000
00000010
00000000
00001000
00000010
00000000
00000100
00000000
00000001
00000000
,
00000010
00000000
00001000
00010000
00000000
00010000
00001000
00000000
00000100
00000000
00000000
00000000
00001001
00000000
00000000
00000000
,
00002200
00000000
00003300
00000022
00000000
00000000
00000033
00000001
,
00000100
00000000
00000100
00001000
00000000
00001000
00010000
00000000
00001000
00000000
00000000
00000000
00010100
00000000
00000000
00000000
,
00202000
00000000
00000000
00000000
00303000
00000000
00010000
01000000
00000000
00010000
01000000
00000000
00100000
00000000
10000000
00000000
,
01000000
00000000
00010000
00001000
00000000
00001000
00010000
00000000
00100000
00000000
00000000
00000000
10010000
00000000
00000000
00000000
,
00220000
00000000
00330000
22000000
00000000
00000000
33000000
10000000
,
00100000
00000000
00100000
00010000
00000000
00010000
00001000
00000000
00020000
00000000
00000000
00000000
00030000
00000000
00000000
00000000
;
