#TITLE:Let's End the World;
#SUBTITLE:;
#ARTIST:Mori Calliope, Giga & TeddyLoid;
#TITLETRANSLIT:;
#SUBTITLETRANSLIT:;
#ARTISTTRANSLIT:;
#GENRE:Variety;
#CREDIT:;
#BANNER:Let's End the World.png;
#BACKGROUND:Let's End the World-bg.png;
#LYRICSPATH:;
#CDTITLE:../cdtitle.png;
#MUSIC:Let's End the World.ogg;
#OFFSET:0.787000;
#SAMPLESTART:14.864000;
#SAMPLELENGTH:15.000000;
#SELECTABLE:YES;
#BPMS:0.000000=138.000000
,164.000000=69.000000
,165.000000=138.000000
,171.000000=69.000000
,172.000000=138.000000
,178.000000=69.000000
,179.000000=138.000000
,185.000000=69.000000
,186.000000=138.000000
;
#STOPS:204.000000=1.304000
;
#BGCHANGES:3.000=Let's End the World.avi=1.000=0=0=0=StretchNoLoop====,
99999=-nosongbg-=1.000=0=0=0 // don't automatically add -songbackground-
;
#KEYSOUNDS:;
#ATTACKS:;

//---------------dance-single - ----------------
#NOTES:
     dance-single:
     :
     Beginner:
     2:
     0.087071,0.137960,0.090601,0.016473,0.000000,74.000000,63.000000,11.000000,2.000000,0.000000,0.000000,0.087071,0.137960,0.090601,0.016473,0.000000,74.000000,63.000000,11.000000,2.000000,0.000000,0.000000:
0000
0000
0000
0000
,
0000
0000
0000
0000
,
0000
0000
0000
0000
,
0000
0000
0000
0000
,
0000
0000
0000
0000
,
1000
0000
0000
0000
,
0000
0000
0000
0000
,
0002
0000
0000
0000
,
0003
0000
0000
0000
,
0001
0000
0000
0000
,
0001
0000
0000
0000
,
0010
0000
0000
0000
,
0001
0000
0000
0000
,
1000
0000
0000
0000
,
1000
0000
0000
0000
,
0100
0000
0000
0000
,
1000
0000
0000
0000
,
0001
0000
0000
0000
,
0010
0000
0000
0000
,
1000
0000
0000
0000
,
0001
0000
0000
0000
,
1000
0000
0000
0000
,
0010
0000
0000
0000
,
0001
0000
0000
0000
,
1000
0000
0000
0000
,
0001
0000
0000
0000
,
0000
0000
0000
0000
,
0001
0000
0000
0000
,
0000
0000
0000
0000
,
1000
0000
0000
0000
,
0000
0000
0000
0000
,
1000
0000
0000
0000
,
0000
0000
0000
0000
,
1001
0000
0000
0000
,
0100
0000
0000
0000
,
0110
0000
0000
0000
,
0010
0000
0000
0000
,
0001
0000
0001
0000
,
0000
0000
0010
0000
,
0100
0000
0100
0000
,
0100
0000
0000
0000
,
1001
0000
0000
0000
,
0000
0000
0000
1001
,
0000
0000
0000
0000
,
0000
0000
0110
0000
,
0000
0000
0000
0000
,
0000
0110
0000
0000
,
0000
0000
0000
0000
,
0010
0000
0010
0000
,
0100
0000
0100
0000
,
0020
0000
0000
0000
,
0030
1001
0000
0000
,
0000
0010
0000
0000
,
0000
0110
0000
0000
,
0000
0100
0000
0000
,
0000
1000
0000
1000
,
0000
0000
0000
0100
,
0000
0010
0000
0010
,
0000
0010
0000
0000
,
0000
1001
0000
0000
,
0000
0010
0000
0000
,
0000
1001
0000
0000
,
0000
0100
0000
0000
,
0000
0010
0000
0010
,
0000
0100
0000
0100
,
0000
1000
0000
1000
,
0000
0001
0000
0000
,
1001
0000
0000
0000
;

//---------------dance-single - ----------------
#NOTES:
     dance-single:
     :
     Challenge:
     14:
     0.625968,0.744984,0.247093,0.197674,0.382993,532.000000,502.000000,30.000000,24.000000,16.000000,0.000000,0.625968,0.744984,0.247093,0.197674,0.382993,532.000000,502.000000,30.000000,24.000000,16.000000,0.000000:
// measure 0
0000
0000
0000
0000
,  // measure 1
0000
0000
0000
0000
,  // measure 2
0000
0000
0000
0000
,  // measure 3
0000
0000
0000
0000
,  // measure 4
0000
0000
0000
0000
,  // measure 5
1200
0000
1300
0010
1000
0000
1000
0000
,  // measure 6
0100
0001
0100
0000
0012
0000
1003
0000
,  // measure 7
1000
0100
0000
0000
0220
0000
0330
0000
0001
0100
0000
0000
0220
0000
0330
0000
,  // measure 8
MMMM
0000
0100
0001
1000
0000
MMMM
0000
,  // measure 9
1000
0000
0100
0010
0001
0000
0010
0100
1000
0000
0100
0010
0000
0100
0010
0000
,  // measure 10
0001
0010
0001
0000
1000
0000
0001
0100
0010
0000
0100
0010
0000
1000
0100
0000
,  // measure 11
0010
0001
0010
0000
0100
0000
1000
0001
0100
0000
0010
0000
1000
0000
0100
0010
,  // measure 12
0001
0010
0100
0010
0001
0000
1000
0000
1100
0000
1100
0000
1001
0000
0000
0000
,  // measure 13
1000
0000
0100
1000
0001
0000
0100
0010
1000
0000
0100
0000
1000
0000
1000
0000
,  // measure 14
0001
0000
0010
0001
0100
0000
0010
1000
0001
0000
0001
0000
0100
0000
0001
0000
,  // measure 15
1000
0100
0001
0100
1000
0010
0001
0010
,  // measure 16
1000
0010
0100
0010
1000
0000
0001
0010
0100
1000
0100
0010
0001
0000
1000
0000
,  // measure 17
2100
0000
3001
0100
1000
0100
0001
0100
,  // measure 18
0120
0000
1030
0100
0001
0100
1000
0100
,  // measure 19
0010
0001
0000
0001
0010
0000
0100
0000
1000
0000
1000
0000
0001
0000
0001
0000
,  // measure 20
0010
0001
0000
0001
0100
0000
0010
0000
1000
0000
1000
0000
0001
0000
0001
0000
,  // measure 21
0102
0000
1003
0100
0001
0100
1000
0100
,  // measure 22
0120
0000
0031
0100
1000
0100
0001
0100
,  // measure 23
0010
0010
1000
0001
0010
0010
0100
1000
,  // measure 24
0100
0000
0000
0000
0010
0000
0000
0000
0100
0000
0000
0000
0010
0000
0000
0000
0000
0000
0100
0000
0000
1000
0000
0000
0001
0000
0000
0000
0000
0000
0010
0000
0000
0001
0000
0000
0100
0000
0000
0000
0000
0000
0010
0000
0000
1000
0000
0000
,  // measure 25
0002
0000
0100
0000
0103
0100
0100
0000
,  // measure 26
0001
0010
0100
0010
0001
0001
0001
0000
,  // measure 27
2100
0000
0100
0000
3100
0100
0100
1000
,  // measure 28
0010
0000
0100
0001
1000
0000
0100
0000
0010
0000
0010
0000
0010
0000
0000
0000
,  // measure 29
0001
0010
1000
0010
0001
0000
0001
0010
,  // measure 30
1000
0000
0010
0000
0001
0000
1000
0000
0001
0000
0000
0000
1000
0100
0000
0000
,  // measure 31
0101
0000
0000
0000
1000
0010
0000
0000
0011
0000
0000
0000
1000
0010
0000
0000
,  // measure 32
1000
0000
0100
0010
0100
0000
0010
0000
0001
0000
1000
0000
MMMM
0000
0000
0000
,  // measure 33
1001
0000
1000
0010
0001
0010
1000
0001
,  // measure 34
1000
0000
0010
0000
0001
0000
0010
1000
0001
0000
0100
0000
0110
0000
0000
0000
,  // measure 35
1001
0000
0001
0010
1000
0010
0001
1000
,  // measure 36
0001
0000
0010
0100
0010
0100
1000
0000
0100
0000
0010
0000
0001
0000
0000
0000
,  // measure 37
1001
0000
1000
0010
1000
0100
0010
0010
,  // measure 38
0001
1000
0001
0010
0100
0100
1000
0001
,  // measure 39
0100
0010
0000
0100
0010
0000
1000
0000
0100
0000
1000
0000
0001
0000
1000
0000
,  // measure 40
0010
0000
1000
0100
1000
0000
0001
0010
0001
0000
0100
0000
0010
0000
0000
0000
,  // measure 41
2001
0000
3100
0020
0001
0000
0031
0200
,  // measure 42
1000
0000
0301
0020
0000
0000
0230
0000
,  // measure 43
0301
0000
0000
0200
0000
0000
1000
0000
0000
0000
0000
0000
1300
0000
0000
0020
0000
0000
0130
0000
0001
0000
0100
0000
,  // measure 44
0001
0000
0010
0000
0100
0000
0010
0000
0000
0001
0000
0000
2000
0000
0000
0000
0000
0000
3100
0000
0000
0010
0000
0000
,  // measure 45
0100
0000
0010
0000
0001
0000
0100
0000
0010
1000
0010
1000
0001
0000
0100
0000
,  // measure 46
0001
0000
0010
0001
2000
0000
0000
0000
3002
0000
0000
0000
1003
0100
1000
0100
,  // measure 47
2000
0000
0000
0000
0000
0000
0000
0000
3002
0000
0000
0000
0000
0000
0013
0100
,  // measure 48
1000
0000
0100
1000
0100
0000
0011
0000
0100
0001
0100
0000
,  // measure 49
1010
0000
1000
0100
0010
0000
0011
0000
0001
0100
0010
0000
,  // measure 50
1000
0100
0001
1000
0010
0001
1000
0010
0001
1000
0100
0001
,  // measure 51
1000
MMMM
1001
0000
0001
0010
1000
0010
,  // measure 52
0001
0000
1000
0000
0001
0000
0010
0000
1000
0000
0010
0001
1000
0000
0100
0000
,  // measure 53
0110
0000
1001
0000
1000
0010
0001
0010
,  // measure 54
1000
0000
0001
0000
1000
0000
0010
0100
0010
0100
0001
0000
0100
0000
0010
0000
,  // measure 55
1000
0000
1001
0000
0001
0010
0001
0100
,  // measure 56
0010
0010
1000
0001
1000
0010
0100
0100
,  // measure 57
0001
0000
1000
0000
0100
0010
0000
0100
0010
0000
0001
0000
1000
0000
0100
0000
,  // measure 58
1000
0000
0010
0000
1000
0100
0001
0000
0100
0000
1000
0000
0001
0000
0001
0000
,  // measure 59
0010
0000
0000
0000
0110
0000
0000
0000
1000
0000
0010
0000
0100
0001
0100
0000
,  // measure 60
0010
0000
0100
0000
0001
0100
0001
0000
1000
0000
0100
0000
1000
0000
1000
0000
,  // measure 61
1000
0000
0000
0000
1001
0000
0001
0000
0010
0000
0001
0000
0100
0010
0100
0000
,  // measure 62
0001
0000
0001
1000
0001
0000
0100
0000
0010
0000
1000
0010
1000
0000
0100
0000
,  // measure 63
0010
0000
0000
0000
0011
0000
0001
0000
0001
0000
0001
0000
1000
0100
1000
0000
,  // measure 64
0001
0000
0001
0000
0100
0010
0100
0000
0100
0000
0010
0000
1000
0000
1000
0000
,  // measure 65
0100
0000
0010
0000
0001
0100
0001
0100
0010
1000
0010
1000
0001
0100
0001
0010
,  // measure 66
0100
1000
0010
1000
0100
0000
0010
0001
0010
0000
0100
0000
1000
0000
0001
0000
,  // measure 67
1001
0000
0000
0000
;

//---------------dance-single - ----------------
#NOTES:
     dance-single:
     :
     Easy:
     5:
     0.220030,0.275920,0.123546,0.107073,0.000000,187.000000,172.000000,15.000000,13.000000,0.000000,0.000000,0.220030,0.275920,0.123546,0.107073,0.000000,187.000000,172.000000,15.000000,13.000000,0.000000,0.000000:
// measure 0
0000
0000
0000
0000
,  // measure 1
0000
0000
0000
0000
,  // measure 2
0000
0000
0000
0000
,  // measure 3
0000
0000
0000
0000
,  // measure 4
0000
0000
0000
0000
,  // measure 5
1000
0000
0001
0000
,  // measure 6
0010
0010
0010
0000
,  // measure 7
0100
0000
0100
0000
,  // measure 8
0100
0000
0000
0000
,  // measure 9
1000
0100
0001
0000
,  // measure 10
1000
0100
0001
0000
,  // measure 11
1000
0010
0001
0000
,  // measure 12
0100
0010
0010
1001
,  // measure 13
0000
0100
0001
0001
,  // measure 14
0000
0100
1000
1000
,  // measure 15
0010
1000
0100
0100
,  // measure 16
0010
0010
0010
0000
,  // measure 17
0110
0000
0001
0001
,  // measure 18
0100
0000
1000
1000
,  // measure 19
0100
0010
0110
0000
,  // measure 20
1000
0100
1001
0000
,  // measure 21
0110
0000
1000
1000
,  // measure 22
0010
0000
0001
0001
,  // measure 23
0010
0100
0010
0000
,  // measure 24
1000
1000
0110
0001
,  // measure 25
2000
0000
0001
0000
,  // measure 26
0000
0000
0001
3000
,  // measure 27
0002
0000
1000
0000
,  // measure 28
0000
0000
1000
0003
,  // measure 29
2000
0000
3100
0000
,  // measure 30
0002
0000
0103
0000
,  // measure 31
0001
0000
1100
0000
,  // measure 32
0020
0000
0000
0030
,  // measure 33
0110
0000
1000
1000
,  // measure 34
0000
0001
0001
0000
,  // measure 35
1001
0000
0100
0100
,  // measure 36
0010
0100
0010
0000
,  // measure 37
1000
0001
0100
0100
,  // measure 38
0000
0001
1000
0100
,  // measure 39
0010
0010
0100
0010
,  // measure 40
0001
1000
0001
0000
,  // measure 41
1001
0200
0000
0310
,  // measure 42
0000
0020
0000
1030
,  // measure 43
0002
0000
0103
0000
,  // measure 44
2000
0000
3001
0020
,  // measure 45
0000
0130
0100
0010
,  // measure 46
0000
0001
0200
0000
,  // measure 47
0302
0000
2003
0000
,  // measure 48
3100
0000
0010
0000
,  // measure 49
0100
0000
0010
0000
,  // measure 50
0001
1000
0001
1000
,  // measure 51
0001
0110
0000
1000
,  // measure 52
1000
0000
0001
0001
,  // measure 53
0000
1001
0000
0100
,  // measure 54
0100
0010
0100
0010
,  // measure 55
0000
1000
0001
0100
,  // measure 56
0100
0000
0001
1000
,  // measure 57
0100
0010
0010
0100
,  // measure 58
0010
0001
1000
0001
,  // measure 59
0000
1001
0000
0100
,  // measure 60
0100
0010
0100
0010
,  // measure 61
0000
0110
0000
1000
,  // measure 62
1000
0001
1000
0100
,  // measure 63
0000
1000
1000
0001
,  // measure 64
0000
0010
0010
0100
,  // measure 65
0000
1000
1000
0001
,  // measure 66
1000
0001
0000
0000
,  // measure 67
1001
0000
0000
0000
;

//---------------dance-single - ----------------
#NOTES:
     dance-single:
     :
     Medium:
     8:
     0.354166,0.386288,0.263565,0.074128,0.000000,301.000000,269.000000,32.000000,9.000000,0.000000,0.000000,0.354166,0.386288,0.263565,0.074128,0.000000,301.000000,269.000000,32.000000,9.000000,0.000000,0.000000:
// measure 0
0000
0000
0000
0000
,  // measure 1
0000
0000
0000
0000
,  // measure 2
0000
0000
0000
0000
,  // measure 3
0000
0000
0000
0000
,  // measure 4
0000
0000
0000
0000
,  // measure 5
1000
1000
0010
0010
,  // measure 6
1000
0100
0010
0000
0001
0000
0000
0000
,  // measure 7
1000
2000
3001
0002
,  // measure 8
0103
0000
0000
0000
,  // measure 9
0000
0001
1000
0000
0010
0000
0010
0000
,  // measure 10
0000
1000
0001
0000
0100
0000
0110
0000
,  // measure 11
0000
0001
1000
0000
0100
0000
0100
0000
,  // measure 12
1000
0001
1000
0000
0001
0000
1001
0000
,  // measure 13
0000
1000
0001
0000
0100
0000
0100
0000
,  // measure 14
0000
0001
1000
0000
0010
0000
0110
0000
,  // measure 15
1000
0100
1000
0000
0001
0100
0001
0000
,  // measure 16
0010
0100
0010
0000
0110
0000
0000
0000
,  // measure 17
1001
0000
0000
0000
0001
0100
0001
0000
,  // measure 18
1010
0000
0000
0000
1000
0100
1000
0000
,  // measure 19
0001
0010
0110
0000
,  // measure 20
1000
1000
1010
0000
,  // measure 21
0110
0000
0000
0000
0010
0001
0010
0000
,  // measure 22
1100
0000
0000
0000
0100
0001
0100
0000
,  // measure 23
0010
1000
1001
0000
,  // measure 24
0100
0010
0100
0000
1100
0000
0100
0000
,  // measure 25
0101
0000
0100
0000
,  // measure 26
0001
1000
0100
0000
0010
0000
0000
0000
,  // measure 27
0100
0000
1100
0000
,  // measure 28
0010
0001
1000
0000
0001
0000
0000
0000
,  // measure 29
1000
0100
1000
0000
1001
0000
0001
0000
,  // measure 30
0100
0010
0100
0000
0101
0000
0010
0000
,  // measure 31
1010
0100
0110
0001
,  // measure 32
1000
0000
0000
0000
0001
0100
0001
0000
,  // measure 33
1001
0000
0100
0000
1000
0100
0001
0000
,  // measure 34
0100
0000
1000
0100
0001
0000
0100
0000
,  // measure 35
0110
0000
0010
0000
1000
0010
0001
0000
,  // measure 36
0010
0000
1000
0010
0001
0000
1000
0000
,  // measure 37
1001
0000
0010
0000
1000
0100
0010
0000
,  // measure 38
0001
0000
0001
0000
1000
0100
0010
0000
,  // measure 39
0001
0010
0001
0000
0100
0001
0100
0000
,  // measure 40
0010
0000
0100
1000
0100
0000
0001
0000
,  // measure 41
1000
2100
0000
0001
,  // measure 42
0000
3200
0000
0310
,  // measure 43
0012
0000
1000
0000
,  // measure 44
0013
0001
1000
2010
,  // measure 45
0010
0000
3010
0100
0010
0000
1000
0001
,  // measure 46
1000
0001
0102
0000
,  // measure 47
0023
0000
0230
0000
,  // measure 48
1300
1000
0010
0010
,  // measure 49
0001
0001
0100
0100
,  // measure 50
1000
1100
0001
0110
,  // measure 51
1000
0000
1001
0000
0100
0000
1000
0100
,  // measure 52
0001
0000
0100
0000
1000
0100
0001
0000
,  // measure 53
0100
0000
0110
0000
0010
0000
1000
0010
,  // measure 54
0001
0000
0010
0000
1000
0010
0001
0000
,  // measure 55
1000
0000
1001
0000
0010
0000
1000
0100
,  // measure 56
0010
0000
0001
0000
0001
0000
1000
0100
,  // measure 57
0010
0000
0001
0010
0001
0000
0100
0001
,  // measure 58
0100
0000
0010
0000
0100
1000
0100
0000
,  // measure 59
0001
1001
0010
0001
,  // measure 60
0001
0000
1000
0100
1000
0000
0010
0100
,  // measure 61
0010
0000
1000
0000
1000
0000
0001
1000
,  // measure 62
0100
0000
1000
0001
1000
0000
0010
0010
,  // measure 63
0010
0000
0100
0001
0100
0000
0001
0010
,  // measure 64
0001
0000
1000
0100
1000
0000
0001
0001
,  // measure 65
0010
0000
0100
1000
0100
0000
0010
0001
,  // measure 66
0010
0000
0100
0000
1000
0001
1000
0000
,  // measure 67
1001
0000
0000
0000
;

//---------------dance-single - ----------------
#NOTES:
     dance-single:
     :
     Hard:
     11:
     0.448296,0.469064,0.214147,0.181201,0.082364,381.000000,355.000000,26.000000,22.000000,0.000000,0.000000,0.448296,0.469064,0.214147,0.181201,0.082364,381.000000,355.000000,26.000000,22.000000,0.000000,0.000000:
// measure 0
0000
0000
0000
0000
,  // measure 1
0000
0000
0000
0000
,  // measure 2
0000
0000
0000
0000
,  // measure 3
0000
0000
0000
0000
,  // measure 4
0000
0000
0000
0000
,  // measure 5
0001
0000
0001
0010
0001
0000
0001
0000
,  // measure 6
1000
0100
1000
0000
2002
0000
3003
0000
,  // measure 7
1000
1100
0001
0101
,  // measure 8
0010
0000
0000
0000
,  // measure 9
1000
0000
0100
0000
0001
0000
0100
0000
1000
0000
0000
1000
0000
0000
1000
0000
,  // measure 10
0001
0000
0100
0000
0010
0000
1000
0000
0001
0000
0000
0001
0000
0000
0001
0000
,  // measure 11
0100
0000
1000
0000
0100
0000
0001
0000
0010
0000
0000
0010
0000
0000
0010
0000
,  // measure 12
0100
0100
0010
0001
0100
0010
0110
0000
,  // measure 13
1000
0000
0001
0000
0100
0000
0010
0000
1000
0000
0000
1000
0000
0000
1000
0000
,  // measure 14
0001
0000
0010
0000
0100
0000
0010
0000
0001
0000
0000
0001
0000
0000
0001
0000
,  // measure 15
1000
0100
0010
0100
1000
0001
0010
0100
,  // measure 16
1000
1000
0010
1000
0001
0001
0100
0000
,  // measure 17
2002
0000
3003
0001
0010
0100
1000
0001
,  // measure 18
2002
0000
3003
1000
0100
0010
0001
1000
,  // measure 19
0010
0000
0000
0010
0000
0000
1000
0000
2200
0000
0000
0000
3300
0000
0010
0000
,  // measure 20
0100
0000
0100
0010
0100
0000
1000
0000
,  // measure 21
2002
0000
3003
1000
0100
0010
0001
1000
,  // measure 22
2002
0000
3003
0001
0010
0100
1000
0001
,  // measure 23
0010
0001
0100
0000
0110
0000
0000
0100
,  // measure 24
0001
1000
0001
1000
0000
0000
2100
0000
0000
3010
0000
0000
,  // measure 25
1001
0000
0100
0000
,  // measure 26
0010
1000
0100
0010
0001
0000
0000
0000
,  // measure 27
0010
0000
1001
0000
,  // measure 28
0100
1000
0010
0100
0001
0000
0000
0000
,  // measure 29
0100
0000
1001
0000
,  // measure 30
0100
0100
1000
0001
0100
0000
0000
0000
,  // measure 31
0010
0000
0110
0000
,  // measure 32
0001
0000
0000
0010
0100
0100
0010
0000
,  // measure 33
1001
0000
0001
0010
1000
0010
0001
0000
,  // measure 34
1000
0100
0001
0100
1000
0100
0010
0000
,  // measure 35
0110
0000
1000
0010
0001
0010
1000
0000
,  // measure 36
0001
0100
1000
0100
0001
0100
0010
0000
,  // measure 37
1001
0000
1000
0100
0010
0100
1000
0000
,  // measure 38
0001
0010
0100
0010
0001
0100
0010
1000
,  // measure 39
0001
0100
0001
0000
1000
0100
1000
0000
,  // measure 40
0001
0010
0100
0010
0001
1000
0001
0000
,  // measure 41
1000
0000
0012
0000
0000
0000
1003
0020
,  // measure 42
0000
0000
1030
0200
0000
0000
0310
0000
,  // measure 43
2100
0000
0000
0000
3001
0200
0000
0000
,  // measure 44
0310
2000
0000
0000
3100
0000
1000
1000
,  // measure 45
0010
1000
0100
1000
0010
0000
0100
0100
,  // measure 46
0001
0010
0100
0000
2000
0000
0000
0000
,  // measure 47
3002
0000
0023
0000
,  // measure 48
0130
0000
0100
0000
0100
0000
1000
0000
1000
0000
1000
0000
,  // measure 49
0001
0000
0001
0000
0001
0000
0100
0000
0100
0000
0100
0000
,  // measure 50
0010
0000
0010
1000
0000
1000
0001
0000
0001
0010
0000
0010
,  // measure 51
0100
0000
1001
0000
0001
0100
1000
0100
,  // measure 52
0001
0000
1000
0010
0001
0010
1000
0010
,  // measure 53
0100
0000
0110
0000
1000
0100
0001
0100
,  // measure 54
1000
0000
0001
0010
1000
0010
0001
0010
,  // measure 55
0100
0000
1001
0000
1000
0010
0100
0010
,  // measure 56
1000
0000
0001
0100
0010
0100
0001
0010
,  // measure 57
0100
1000
0001
0010
0001
0000
1000
0010
,  // measure 58
1000
0000
0001
0100
0010
0100
0001
1000
,  // measure 59
0001
0000
1001
0000
1000
0010
0100
0010
,  // measure 60
1000
0100
0010
0010
0100
0100
1000
0001
,  // measure 61
0100
0000
0110
0010
1000
0010
1000
0100
,  // measure 62
0010
0001
1000
1000
0001
0001
0010
0001
,  // measure 63
0100
0000
0010
0100
0010
0100
0001
0100
,  // measure 64
0001
0000
0010
0100
0010
0100
1000
0100
,  // measure 65
1000
0000
0001
0010
0100
1000
0001
0010
,  // measure 66
0100
0000
0001
0100
1000
0010
0001
0000
,  // measure 67
1001
0000
0000
0000
;

//---------------dance-double - ----------------
#NOTES:
     dance-double:
     :
     Easy:
     5:
     0.216500,0.275920,0.107073,0.115310,0.000000,184.000000,171.000000,13.000000,14.000000,0.000000,0.000000,0.216500,0.275920,0.107073,0.115310,0.000000,184.000000,171.000000,13.000000,14.000000,0.000000,0.000000:
00000000
00000000
00000000
00000000
,
00000000
00000000
00000000
00000000
,
00000000
00000000
00000000
00000000
,
00000000
00000000
00000000
00000000
,
00000000
00000000
00000000
00000000
,
00010000
00000000
00010000
00000000
,
00010000
00010000
00010000
00000000
,
00001000
00000000
00002000
00000000
,
00003000
00000000
00000000
00000000
,
00100000
00010000
00001000
00000000
,
00100000
00010000
00001000
00000000
,
00010000
00001000
00000100
00000000
,
00010000
00001000
00001000
00011000
,
00000000
00000010
00001000
00010000
,
00000000
00000010
00001000
00010000
,
00001000
00001000
00100000
00100000
,
00010000
10000000
00010000
00000000
,
10010000
00000000
00010000
01000000
,
00100000
00000000
10000000
01000000
,
00100000
00100000
01100000
00000000
,
00010000
00001000
00011000
00000000
,
00001001
00000000
00001000
00000010
,
00000100
00000000
00000001
00000010
,
00000100
00000100
00000010
00000000
,
00001000
00010000
00010000
00001000
,
00020000
00000000
00000100
00000000
,
00000000
00000000
00000010
00030000
,
00002000
00000000
01000000
00000000
,
00000000
00000000
00100000
00003000
,
00020000
00000000
01030000
00000000
,
00002000
00000000
00003100
00000000
,
00010000
00000000
00000010
00000000
,
00200000
00000000
00000000
00300000
,
10010000
00000000
00100000
00100000
,
00000000
01000000
01000000
00000000
,
00011000
00000000
00000010
00000010
,
00001000
00000001
00001000
00000000
,
00000010
00001000
00000100
00000100
,
00000000
00000001
00000100
00000100
,
00001000
00001000
00000001
00000010
,
00001000
00001000
00010000
00000000
,
00011000
00200000
00000000
00310000
,
00000000
20000000
00000000
31000000
,
00200000
00000000
01300000
00000000
,
20000000
00000000
30010000
02000000
,
00000000
03100000
00100000
00010000
,
00000000
00001000
00020000
00000000
,
00032000
00000000
00003020
00000000
,
00000031
00000000
00000001
00000000
,
00001000
00000000
00001000
00000000
,
00000010
00000100
00000010
00000100
,
00000010
00001001
00000000
00000010
,
00000010
00000000
00000100
00000100
,
00000000
00011000
00000000
00100000
,
00100000
00010000
10000000
00010000
,
00000000
00100000
00010000
01000000
,
01000000
00000000
10000000
01000000
,
01000000
00010000
00010000
10000000
,
00100000
00010000
00010000
00001000
,
00000000
00011000
00000000
01000000
,
01000000
00001000
00010000
00001000
,
00000000
00011000
00000000
00100000
,
00100000
00001000
00010000
00001000
,
00000000
00000010
00000010
00000001
,
00000000
00001000
00001000
00000100
,
00000000
00010000
00010000
00001000
,
00010000
00001000
00000000
00000000
,
00011000
00000000
00000000
00000000
;

//---------------dance-double - ----------------
#NOTES:
     dance-double:
     :
     Medium:
     8:
     0.344753,0.386288,0.214147,0.074128,0.000000,293.000000,267.000000,26.000000,9.000000,0.000000,0.000000,0.344753,0.386288,0.214147,0.074128,0.000000,293.000000,267.000000,26.000000,9.000000,0.000000,0.000000:
00000000
00000000
00000000
00000000
,
00000000
00000000
00000000
00000000
,
00000000
00000000
00000000
00000000
,
00000000
00000000
00000000
00000000
,
00000000
00000000
00000000
00000000
,
00100000
00100000
01000000
01000000
,
10000000
01000000
00010000
00000000
00001000
00000000
00000000
00000000
,
00100000
00200000
00301000
00002000
,
00013000
00000000
00000000
00000000
,
00000000
00001000
00010000
00000000
00000100
00000000
00000100
00000000
,
00000000
00010000
00001000
00000000
00100000
00000000
00100000
00000000
,
00000000
01000000
10000000
00000000
00010000
00000000
00010000
00000000
,
01000000
00010000
01000000
00000000
00001000
00000000
00011000
00000000
,
00000000
00010000
00001000
00000000
00100000
00000000
00100000
00000000
,
00000000
00001000
00010000
00000000
00000100
00000000
00000100
00000000
,
00010000
00001000
00010000
00000000
00000010
00001000
00000010
00000000
,
00000100
00000001
00000010
00000000
00000100
00000000
00000000
00000000
,
00000110
00000000
00000000
00000000
00000001
00000100
00001000
00000000
,
00011000
00000000
00000000
00000000
00010000
00100000
10000000
00000000
,
00010000
10000000
11000000
00000000
,
10000000
00010000
00110000
00000000
,
01100000
00000000
00000000
00000000
10000000
01000000
00010000
00000000
,
00011000
00000000
00000000
00000000
00001000
00000010
00000001
00000000
,
00001000
00000001
00000101
00000000
,
00000001
00000100
00000010
00000000
00001010
00000000
00000100
00000000
,
00011000
00000000
00000100
00000000
,
00010000
00001000
00010000
00000000
00001000
00000000
00000000
00000000
,
01000000
00000000
10010000
00000000
,
00100000
10000000
01000000
00000000
00010000
00000000
00000000
00000000
,
01000000
00100000
01000000
00000000
10010000
00000000
00010000
00000000
,
10000000
01000000
10000000
00000000
01010000
00000000
00001000
00000000
,
00011000
00000100
00001100
00010000
,
00001000
00000000
00000000
00000000
00001000
00010000
00001000
00000000
,
00011000
00000000
00010000
00000000
00001000
00000100
00000001
00000000
,
00000100
00000000
00001000
00010000
01000000
00000000
10000000
00000000
,
10010000
00000000
00100000
00000000
10000000
01000000
00100000
00000000
,
00010000
00000000
10000000
01000000
00010000
00000000
00001000
00000000
,
00011000
00000000
00010000
00000000
00001000
00010000
00100000
00000000
,
00000000
00000000
10000000
00000000
00010000
01000000
00100000
00000000
,
10000000
00100000
10000000
00000000
00010000
00100000
00010000
00000000
,
10000000
00000000
01000000
00010000
00001000
00000000
00010000
00000000
,
00011000
00000020
00000000
00001000
,
00000000
00020030
00000000
00031000
,
00200000
00000000
00010000
00000000
,
00301000
00100000
00010000
02000000
,
00100000
00000000
03100000
01000000
00010000
00000000
00010000
00100000
,
00001000
00010000
00000200
00000000
,
00020300
00000000
00002000
00033000
,
00010000
00010000
00000100
00000100
,
01000000
01000000
00001000
00001000
,
00010000
00110000
00001000
00001010
,
00010000
00000000
00011000
00000000
00001000
00000000
00010000
01000000
,
10000000
00000000
01000000
00000000
00010000
00001000
00000100
00000000
,
00000001
00000000
00001001
00000000
00000010
00000000
00000001
00000100
,
00000010
00000000
00001000
00000000
00000001
00000100
00001000
00000000
,
00010000
00000000
00011000
00000000
00001000
00000000
00010000
00001000
,
00000010
00000000
00000000
00000000
00000001
00000000
00001000
00000100
,
00000010
00000000
00000001
00000010
00000001
00000000
00001000
00000010
,
00001000
00000000
00000001
00000000
00000100
00001000
00010000
00000000
,
00000000
00011000
00001000
00010000
,
00010000
00000000
00000100
00010000
00000100
00000000
00001000
00000010
,
00001000
00000000
00000001
00000000
00000001
00000000
00000100
00000010
,
00001000
00000000
00000100
00010000
00001000
00000000
00010000
00010000
,
00010000
00000000
00001000
00100000
00001000
00000000
01000000
00010000
,
01000000
00000000
00100000
10000000
00100000
00000000
01000000
00010000
,
00100000
00000000
01000000
10000000
01000000
10000000
00010000
01000000
,
00100000
00000000
01000000
00000000
00001000
00010000
00001000
00000000
,
00011000
00000000
00000000
00000000
;

//---------------dance-double - ----------------
#NOTES:
     dance-double:
     :
     Hard:
     12:
     0.461239,0.524248,0.214147,0.181201,0.111192,392.000000,366.000000,26.000000,22.000000,0.000000,0.000000,0.461239,0.524248,0.214147,0.181201,0.111192,392.000000,366.000000,26.000000,22.000000,0.000000,0.000000:
00000000
00000000
00000000
00000000
,
00000000
00000000
00000000
00000000
,
00000000
00000000
00000000
00000000
,
00000000
00000000
00000000
00000000
,
00000000
00000000
00000000
00000000
,
00000001
00000000
00000001
00000010
00000001
00000000
00000001
00000000
,
00000100
00001000
00010000
00000000
00022000
00000000
00033000
00000000
,
01000000
11000000
00010000
00110000
,
00001000
00000000
00000000
00000000
,
00010000
00000000
00001000
00000000
00000010
00000000
00001000
00000000
00010000
00000000
00000000
00010000
00000000
00000000
00010000
00000000
,
00001000
00000000
00010000
00000000
00100000
00000000
00010000
00000000
00001000
00000000
00000000
00001000
00000000
00000000
00001000
00000000
,
00100000
00000000
00010000
00000000
01000000
00000000
00001000
00000000
00100000
00000000
00000000
00100000
00000000
00000000
00100000
00000000
,
01000000
10000000
01000000
00000000
00100000
00000000
00010000
00000000
10000000
00000000
00010000
00000000
10010000
00000000
00000000
00000000
,
10000000
00000000
00100000
00000000
00010000
00000000
00100000
00000000
10000000
00000000
00000000
10000000
00000000
00000000
10000000
00000000
,
00010000
00000000
00100000
00000000
01000000
00000000
00010000
00000000
00001000
00000000
00000000
00001000
00000000
00000000
00001000
00000000
,
00010000
00000100
00001000
00000010
00010000
00000010
00001000
00000001
,
00000010
00000100
00000010
00000000
00000100
00000000
00001000
00000000
00000001
00001000
00000001
00000000
00000010
00000000
00000000
00000000
,
00000220
00000000
00000330
00001000
00000100
00010000
00001000
01000000
,
02020000
00000000
03030000
00010000
01000000
00001000
00010000
00000010
,
00010000
00001000
00000000
00001000
00000000
00000000
00100000
00000000
00220000
00000000
00000000
00000000
00330000
00000000
01000000
00000000
,
10000000
00010000
00000000
00010000
00100000
00000000
01000000
00000000
10000000
00000000
10000000
00000000
00010000
00000000
00000000
00000000
,
02200000
00000000
03300000
00010000
00100000
00001000
00010000
00000010
,
00002020
00000000
00003030
00001000
00000010
00010000
00001000
01000000
,
00001000
00010000
00000100
00000000
00011000
00000000
00000000
00010000
,
00100000
00000000
00000000
00000000
10000000
00000000
00000000
00000000
00100000
00000000
00000000
00000000
10000000
00000000
00000000
00000000
00000000
00000000
00010000
00000000
00000000
00100000
00000000
00000000
02000000
00000000
00000000
00000000
00000000
00000000
00000000
00000000
00000000
00000000
00000000
00000000
13000000
00000000
00000000
00000000
00000000
00000000
00000000
00000000
00000000
00000000
00000000
00000000
,
10010000
00000000
01000000
00000000
,
00100000
10000000
01000000
00010000
00001000
00000000
00000000
00000000
,
00100000
00000000
00011000
00000000
,
00000100
00001000
00000010
00000100
00000001
00000000
00000000
00000000
,
00001000
00000000
00000110
00000000
,
00000001
00000010
00001000
00010000
00001000
00000000
00000000
00000000
,
00010000
00000000
01100000
00000000
,
10000000
00000000
00000000
01000000
00100000
00100000
01000000
00000000
,
10010000
00000000
00010000
00100000
10000000
00100000
00010000
00000000
,
01000000
00100000
00010000
00100000
01000000
00001000
00010000
00000000
,
00011000
00000000
00010000
00001000
00000010
00001000
00010000
00000000
,
00000010
00000100
00001000
00000100
00000010
00001000
00000001
00000000
,
00001001
00000000
00001000
00000010
00000100
00000010
00001000
00000000
,
00000100
00010000
00001000
00010000
00000010
00010000
00001000
00100000
,
00010000
10000000
01000000
00000000
10000000
00010000
01000000
00000000
,
00100000
01000000
00100000
01000000
10000000
01000000
00010000
00000000
,
10010000
00000000
00201000
00000000
00000000
00000000
01300000
00200000
,
00000000
00000000
00301000
00020000
00000000
00000000
00030100
00000000
,
00021000
00000000
00000000
00000000
00030010
00002000
00000000
00000000
,
00003001
00000020
00000000
00000000
00000130
00000000
00001000
00000100
,
00001000
00000001
00000100
00000010
00001000
00000000
00000010
00000010
,
00010000
00001000
00010000
00000000
00002000
00000000
00000000
00000000
,
00203000
00000000
02300000
00000000
,
13000000
00000000
10000000
00000000
10000000
00000000
01000000
00000000
01000000
00000000
01000000
00000000
,
00010000
00000000
00010000
00000000
00010000
00000000
00001000
00000000
00001000
00000000
00001000
00000000
,
00000010
00000000
00000010
00000001
00000000
00000001
00000100
00000000
00000100
00000010
00000000
00000010
,
00001000
00000000
00001001
00000000
00001000
00000010
00000001
00000010
,
00001000
00000000
00000100
00000010
00001000
00000010
00000100
00010000
,
00001000
00000000
00011000
00000000
00001000
00010000
00100000
00010000
,
00001000
00000000
00100000
01000000
00010000
01000000
00100000
00010000
,
10000000
00000000
10010000
00000000
00010000
00100000
01000000
00100000
,
00010000
00000000
01000000
00001000
00010000
00001000
00100000
00001000
,
00010000
00000010
00001000
00000001
00000100
00000000
00000001
00001000
,
00000100
00000000
00000010
00000100
00000010
00000100
00000001
00000100
,
00001000
00000000
00001001
00000000
00000001
00000010
00000100
00000010
,
00000001
00001000
00000010
00000010
00000100
00000100
00001000
00010000
,
00001000
00000000
00011000
00001000
01000000
00010000
00100000
01000000
,
00100000
00010000
10000000
10000000
00010000
00010000
00100000
01000000
,
10000000
00000000
00010000
00100000
00010000
00100000
01000000
10000000
,
00100000
01000000
00001000
00010000
00001000
00010000
00000010
00001000
,
00000100
00000000
00000010
00000100
00000010
00000100
00001000
00000001
,
00000010
00000000
00001000
00000010
00000001
00000100
00001000
00010000
,
00011000
00000000
00000000
00000000
;

//---------------dance-double - ----------------
#NOTES:
     dance-double:
     :
     Challenge:
     14:
     0.623614,0.744984,0.247093,0.222383,0.374757,530.000000,500.000000,30.000000,27.000000,32.000000,0.000000,0.623614,0.744984,0.247093,0.222383,0.374757,530.000000,500.000000,30.000000,27.000000,32.000000,0.000000:
00000000
00000000
00000000
00000000
,
00000000
00000000
00000000
00000000
,
00000000
00000000
00000000
00000000
,
00000000
00000000
00000000
00000000
,
00000000
00000000
00000000
00000000
,
21000000
00000000
30010000
00100000
00010000
00000000
00010000
00000000
,
01000000
00001000
00010000
00000000
00020100
00000000
00031000
00000000
,
00100000
00010000
00000000
00000000
00022000
00000000
00033000
00000000
00000010
00001000
00000000
00000000
00022000
00000000
00033000
00000000
,
MMMMMMMM
00000000
00001000
00100000
00010000
00000000
MMMMMMMM
00000000
,
00010000
00000000
10000000
01000000
00100000
00000000
00010000
01000000
00010000
00000000
01000000
00100000
00000000
00000000
01000000
00000000
,
00001000
00010000
00001000
00000000
00010000
00000000
00000100
00001000
00000100
00000000
00010000
00001000
00000000
00000000
00000010
00000000
,
00000001
00000010
00000001
00000000
00001000
00000000
00000001
00000100
00000010
00000000
00000010
00000000
00001000
00000000
00000010
00010000
,
00001000
00100000
00010000
00100000
00001000
00000000
00010000
00000000
00011000
00000000
00110000
00000000
10010000
00000000
00000000
00000000
,
10000000
00000000
01000000
10000000
01000000
00000000
10000000
00100000
10000000
00000000
00010000
00000000
00100000
00000000
01000000
00000000
,
10000000
00000000
01000000
00100000
01000000
00000000
10000000
00010000
10000000
00000000
00010000
00000000
01000000
00000000
00100000
00000000
,
10000000
00010000
00100000
01000000
00100000
00001000
00010000
00001000
,
00000100
00000010
00000100
00000001
00001000
00000000
00000010
00001000
00000100
00001000
00000100
00000010
00000001
00000000
00001000
00000000
,
00002001
00000000
00003100
00001000
00000010
00000001
00000010
00001000
,
00001200
00000000
00010300
00001000
01000000
00001000
00010000
01000000
,
10000000
01000000
00000000
01000000
00100000
00000000
00010000
00000000
20000000
00000000
31000000
00000000
00020000
00000000
01030000
00000000
,
10000000
00010000
00000000
00010000
01000000
00000000
00100000
00000000
20000000
00000000
30100000
00000000
00020000
00000000
00130000
00000000
,
10020000
00000000
00130000
00010000
01000000
10000000
01000000
00010000
,
00210000
00000000
00301000
00010000
00000010
00010000
00001000
00000010
,
00000001
00000001
00000010
00000100
00001000
00001000
00000100
00000010
,
00000001
00000000
00000000
00000000
00001000
00000000
00000000
00000000
00000001
00000000
00000000
00000000
00001000
00000000
00000000
00000000
00000000
00000000
00000100
00000000
00000000
00001000
00000000
00000000
00000010
00000000
00000000
00000000
00000000
00000000
00000100
00000000
00000000
00000001
00000000
00000000
00001000
00000000
00000000
00000000
00000000
00000000
00000100
00000000
00000000
00000010
00000000
00000000
,
00002000
00000000
00010000
00000000
00013000
00010000
00010000
00000000
,
00001000
00010000
01000000
00010000
00001000
00001000
00001000
00000000
,
00021000
00000000
00001000
00000000
00031000
00001000
00001000
00100000
,
00010000
00000000
01000000
00100000
01000000
00000000
00100000
00000000
10000000
00000000
10000000
00000000
10000000
00000000
00000000
00000000
,
00010000
01000000
10000000
01000000
00010000
00000000
00010000
00100000
,
01000000
00000000
00100000
00000000
10000000
00000000
00100000
00000000
00010000
00000000
00000000
00000000
00100000
00001000
00000000
00000000
,
00011000
00000000
00000000
00000000
00000100
00010000
00000000
00000000
00011000
00000000
00000000
00000000
01000000
00001000
00000000
00000000
,
00010000
00000000
00001000
00010000
00001000
00000000
00010000
00000000
01000000
00000000
10000000
00000000
MMMMMMMM
00000000
00000000
00000000
,
10010000
00000000
10000000
01000000
00010000
01000000
10000000
00010000
,
00100000
00000000
10000000
00000000
00100000
00000000
00010000
10000000
00010000
00000000
00100000
00000000
00110000
00000000
00000000
00000000
,
00011000
00000000
00010000
00000010
00001000
00000010
00000001
00000010
,
00001000
00000000
00000001
00000010
00000100
00000010
00000001
00000000
00001000
00000000
00000100
00000000
00000010
00000000
00000000
00000000
,
00000110
00000000
00000001
00000100
00000010
00001000
00000100
00001000
,
00000010
00010000
00001000
01000000
00001000
00100000
00001000
00010000
,
00000100
00010000
00000000
00000100
00010000
00000000
00000010
00000000
00001000
00000000
00000001
00000000
00001000
00000000
00000010
00000000
,
00010000
00000000
00001000
00100000
00010000
00000000
00100000
00001000
00010000
00000000
00001000
00000000
01000000
00000000
00000000
00000000
,
20010000
00000000
31000000
20000000
00100000
00000000
30100000
00020000
,
00001000
00000000
00031000
00000200
00000000
00000000
00000302
00000000
,
00001003
00000000
00000000
00000200
00000000
00000000
00000010
00000000
00000000
00000000
00000000
00000000
00000310
00000000
00000000
00001000
00000000
00000000
00010000
00000000
00001000
00000000
00010000
00000000
,
00000100
00000000
00010000
00000000
00001000
00000000
00100000
00000000
00000000
00010000
00000000
00000000
02000000
00000000
00000000
00000000
00000000
00000000
03100000
00000000
00000000
10000000
00000000
00000000
,
00100000
00000000
10000000
00000000
00010000
00000000
00100000
00000000
01000000
10000000
01000000
10000000
00010000
00000000
00100000
00000000
,
01000000
00000000
10000000
00010000
02000000
00000000
00000000
00000000
03200000
00000000
00000000
00000000
01300000
00010000
01000000
00010000
,
00200000
00000000
00000000
00000000
00000000
00000000
00000000
00000000
00302000
00000000
00000000
00000000
00000000
00000000
00013000
00001000
,
00010000
00000000
00001000
00000010
00000001
00000000
00000011
00000000
00000001
00000100
00001000
00000000
,
00011000
00000000
00010000
00100000
10000000
00000000
10100000
00000000
10000000
01000000
00010000
00000000
,
01000000
10000000
00010000
10000000
01000000
00100000
00001000
00010000
00000010
00000100
00001000
00000100
,
00000001
MMMMMMMM
00001001
00000000
00000001
00000100
00001000
00000100
,
00000001
00000000
00001000
00000000
00000010
00000000
00000001
00000000
00000010
00000000
00001000
00000001
00001000
00000000
00000010
00000000
,
00001010
00000000
00011000
00000000
00001000
00100000
00010000
00100000
,
10000000
00000000
00100000
00000000
00010000
00000000
10000000
00100000
01000000
00100000
10000000
00000000
00010000
00000000
01000000
00000000
,
00100000
00000000
01100000
00000000
10000000
01000000
00100000
00010000
,
01000000
00010000
00100000
00001000
00010000
00000100
00010000
00000010
,
00010000
00000000
00001000
00000000
01000000
00001000
00000000
01000000
00001000
00000000
00100000
00000000
00010000
00000000
10000000
00000000
,
00010000
00000000
00100000
00000000
00001000
00010000
00001000
00000000
00010000
00000000
00000010
00000000
00010000
00000000
00000100
00000000
,
00010000
00000000
00000000
00000000
00011000
00000000
00000000
00000000
00001000
00000000
00100000
00000000
00010000
01000000
00010000
00000000
,
10000000
00000000
01000000
00000000
10000000
00010000
10000000
00000000
01000000
00000000
00100000
00000000
00010000
00000000
10000000
00000000
,
00010000
00000000
00000000
00000000
10010000
00000000
00010000
00000000
00100000
00000000
00010000
00000000
01000000
00100000
01000000
00000000
,
00001000
00000000
00001000
00010000
00001000
00000000
00010000
00000000
00000100
00000000
00000010
00000001
00000010
00000000
00000100
00000000
,
00001000
00000000
00000000
00000000
00001001
00000000
00000001
00000000
00000001
00000000
00000010
00000000
00000001
00001000
00000001
00000000
,
00000100
00000000
00000001
00000000
00001000
00000010
00001000
00000000
00000100
00000000
00010000
00000000
00001000
00000000
00010000
00000000
,
00000010
00000000
00010000
00000000
00001000
00100000
00010000
00100000
00001000
00100000
00010000
10000000
01000000
00100000
01000000
10000000
,
01000000
00100000
00010000
10000000
00010000
00000000
10000000
00010000
00100000
00000000
01000000
00000000
00010000
00000000
00001000
00000000
,
00011000
00000000
00000000
00000000
;
