#TITLE:Leia (八王子P Remix);
#SUBTITLE:(Single Edit);
#ARTIST:ゆよゆっぺ feat. 巡音ルカ;
#TITLETRANSLIT:Leia (8#Prince Remix);
#SUBTITLETRANSLIT:;
#ARTISTTRANSLIT:Yuyoyuppe feat. Megurine Luka;
#GENRE:J-Music;
#CREDIT:;
#BANNER:Leia (8#Prince Remix) (Single Edit).png;
#BACKGROUND:Leia (8#Prince Remix) (Single Edit)-bg.png;
#LYRICSPATH:;
#CDTITLE:../cdtitle.png;
#MUSIC:Leia (8#Prince Remix) (Single Edit).ogg;
#OFFSET:1.386000;
#SAMPLESTART:96.917999;
#SAMPLELENGTH:15.000000;
#LASTBEATHINT:1.138700;
#SELECTABLE:YES;
#BPMS:0.000000=177.000000
;
#STOPS:
;
#BGCHANGES:-99.000=../bg.avi=1.000=0=0=1=====,
99999=-nosongbg-=1.000=0=0=0 // don't automatically add -songbackground-
;
#KEYSOUNDS:;
#ATTACKS:;

//---------------dance-single - ----------------
#NOTES:
     dance-single:
     :
     Beginner:
     2:
     0.104594,0.215541,0.034213,0.000000,0.000000,107.000000,102.000000,5.000000,0.000000,0.000000,0.000000,0.104594,0.215541,0.034213,0.000000,0.000000,107.000000,102.000000,5.000000,0.000000,0.000000,0.000000:
// measure 0
0000
0000
0000
0000
,  // measure 1
0000
0000
0000
0000
,  // measure 2
0000
0000
0000
0000
,  // measure 3
0000
0000
0000
0000
,  // measure 4
0000
0000
0000
0000
,  // measure 5
0000
0000
0000
0000
,  // measure 6
0000
0000
0000
0000
,  // measure 7
0000
0000
0000
0000
,  // measure 8
0000
0000
0000
0000
,  // measure 9
1000
0000
0000
0000
,  // measure 10
1000
0000
0000
0000
,  // measure 11
0001
0000
0000
0000
,  // measure 12
0001
0000
0000
0000
,  // measure 13
1000
0000
0000
0000
,  // measure 14
1000
0000
0000
0000
,  // measure 15
0100
0000
0000
0000
,  // measure 16
0100
0000
0000
0000
,  // measure 17
0010
0000
0000
0000
,  // measure 18
0010
0000
0000
0000
,  // measure 19
0001
0000
0000
0000
,  // measure 20
0001
0000
0000
0000
,  // measure 21
1000
0000
0000
0000
,  // measure 22
1000
0000
0000
0000
,  // measure 23
0001
0000
0000
0000
,  // measure 24
1001
0000
0000
0000
,  // measure 25
0001
0000
0000
0000
,  // measure 26
0000
0000
0000
0000
,  // measure 27
0001
0000
0000
0000
,  // measure 28
0000
0000
0000
0000
,  // measure 29
1000
0000
0000
0000
,  // measure 30
0000
0000
0000
0000
,  // measure 31
1000
0000
0000
0000
,  // measure 32
0000
0000
0000
0000
,  // measure 33
0010
0000
0000
0000
,  // measure 34
0000
0000
0000
0000
,  // measure 35
0010
0000
0000
0000
,  // measure 36
0000
0000
0000
0000
,  // measure 37
1000
0000
0000
0000
,  // measure 38
0000
0000
0000
0000
,  // measure 39
0100
0000
0000
0000
,  // measure 40
0000
0000
0000
0000
,  // measure 41
0001
0000
0000
0000
,  // measure 42
0000
0000
0000
0000
,  // measure 43
0001
0000
0000
0000
,  // measure 44
0000
0000
0000
0000
,  // measure 45
1000
0000
0000
0000
,  // measure 46
0000
0000
0000
0000
,  // measure 47
0100
0000
0000
0000
,  // measure 48
0000
0000
0000
0000
,  // measure 49
0010
0000
0000
0000
,  // measure 50
0000
0000
0000
0000
,  // measure 51
0010
0000
0000
0000
,  // measure 52
0000
0000
0000
0000
,  // measure 53
0100
0000
0000
0000
,  // measure 54
0000
0000
0000
0000
,  // measure 55
0010
0000
0000
0000
,  // measure 56
0000
0000
0000
0000
,  // measure 57
1000
0000
0001
0000
,  // measure 58
1000
0000
0000
0000
,  // measure 59
1000
0000
0001
0000
,  // measure 60
1000
0000
0000
0000
,  // measure 61
0001
0000
1000
0000
,  // measure 62
0001
0000
0000
0000
,  // measure 63
0001
0000
1000
0000
,  // measure 64
0001
0000
0000
0000
,  // measure 65
0010
0000
0010
0000
,  // measure 66
0010
0000
0010
0000
,  // measure 67
1000
0000
1000
0000
,  // measure 68
1000
0000
1000
0000
,  // measure 69
0100
0000
0100
0000
,  // measure 70
0100
0000
0100
0000
,  // measure 71
0010
0000
0010
0000
,  // measure 72
1001
0000
0000
0000
,  // measure 73
1001
0000
0000
0000
,  // measure 74
1000
0000
1000
0000
,  // measure 75
0001
0000
0000
0000
,  // measure 76
0001
0000
0001
0000
,  // measure 77
0100
0000
0000
0000
,  // measure 78
0100
0000
0100
0000
,  // measure 79
0010
0000
0000
0000
,  // measure 80
0010
0000
0000
0000
,  // measure 81
1000
0000
1000
0000
,  // measure 82
1000
0000
0000
0000
,  // measure 83
0010
0000
0010
0000
,  // measure 84
0010
0000
0000
0000
,  // measure 85
0100
0000
0100
0000
,  // measure 86
0100
0000
0000
0000
,  // measure 87
0001
0000
0000
0000
,  // measure 88
0010
0000
0000
0000
,  // measure 89
1001
0000
0000
0000
,  // measure 90
0001
0000
0000
0000
,  // measure 91
1000
0000
0001
0000
,  // measure 92
1000
0000
0000
0000
,  // measure 93
0001
0000
0000
0000
,  // measure 94
0001
0000
0000
0000
,  // measure 95
0010
0000
0100
0000
,  // measure 96
0010
0000
0000
0000
,  // measure 97
1000
0000
0000
0000
,  // measure 98
1000
0000
0000
0000
,  // measure 99
0100
0000
0010
0000
,  // measure 100
0100
0000
0000
0000
,  // measure 101
0001
0000
0000
0000
,  // measure 102
0001
0000
0000
0000
,  // measure 103
0010
0000
0010
0000
,  // measure 104
0010
0000
0000
0000
,  // measure 105
1001
0000
0000
0000
;

//---------------dance-single - ----------------
#NOTES:
     dance-single:
     :
     Easy:
     6:
     0.268815,0.359235,0.054741,0.088953,0.000000,275.000000,267.000000,8.000000,13.000000,0.000000,0.000000,0.268815,0.359235,0.054741,0.088953,0.000000,275.000000,267.000000,8.000000,13.000000,0.000000,0.000000:
// measure 0
0000
0000
0000
0000
,  // measure 1
0000
0000
0000
0000
,  // measure 2
0000
0000
0000
0000
,  // measure 3
0000
0000
0000
0000
,  // measure 4
0000
0000
0000
0000
,  // measure 5
0000
0000
0000
0000
,  // measure 6
0000
0000
0000
0000
,  // measure 7
0000
0000
0000
0000
,  // measure 8
0000
0000
0000
0000
,  // measure 9
0001
1000
0000
1000
,  // measure 10
1000
0001
0000
0001
,  // measure 11
1000
0010
0000
0010
,  // measure 12
0001
0100
0000
0100
,  // measure 13
1000
0100
0000
0100
,  // measure 14
0001
0100
0000
0100
,  // measure 15
0010
0001
1000
0001
,  // measure 16
0100
1000
0010
0010
,  // measure 17
0010
0001
0010
0001
,  // measure 18
0100
1000
0100
1000
,  // measure 19
0001
0100
0010
0001
,  // measure 20
0100
0100
0010
0001
,  // measure 21
1000
1000
1000
1000
,  // measure 22
0001
0001
0001
0001
,  // measure 23
1000
0000
0000
0100
0000
0000
0010
0020
,  // measure 24
0000
0000
0000
0030
,  // measure 25
1001
0000
0001
0000
,  // measure 26
1000
0000
0001
0000
,  // measure 27
0010
0000
0100
0000
,  // measure 28
0010
0000
0100
0000
,  // measure 29
1000
0000
1000
0000
,  // measure 30
1000
0000
0100
0000
,  // measure 31
0001
0000
0001
0000
,  // measure 32
0001
0000
0100
0000
,  // measure 33
0010
0000
0010
0000
,  // measure 34
0010
0000
1000
0000
,  // measure 35
0100
0000
0100
0000
,  // measure 36
0100
0000
0001
0000
,  // measure 37
1000
0000
1000
0000
,  // measure 38
0010
0000
0100
0000
,  // measure 39
0001
0000
0001
0000
,  // measure 40
0010
0000
0100
0000
,  // measure 41
1001
0000
1000
0000
,  // measure 42
0001
0000
1000
0000
,  // measure 43
0100
0000
0010
0000
,  // measure 44
0100
0000
0010
0000
,  // measure 45
0001
0000
0001
0000
,  // measure 46
0001
0000
0010
0000
,  // measure 47
1000
0000
1000
0000
,  // measure 48
1000
0000
0010
0000
,  // measure 49
0100
0000
0100
0000
,  // measure 50
0100
0000
0001
0000
,  // measure 51
0010
0000
0010
0000
,  // measure 52
0010
0000
1000
0000
,  // measure 53
0001
0000
0001
0000
,  // measure 54
0100
0000
0010
0000
,  // measure 55
1000
0000
1000
0000
,  // measure 56
0100
0000
0010
0000
,  // measure 57
0200
0000
0310
0000
,  // measure 58
0020
0000
0130
0000
,  // measure 59
2000
0000
3100
0000
,  // measure 60
0002
0000
0103
0000
,  // measure 61
2000
0000
3001
0000
,  // measure 62
2000
0000
3001
0000
,  // measure 63
0002
0000
1003
0000
,  // measure 64
0002
0000
1003
0000
,  // measure 65
1001
0000
0010
0000
,  // measure 66
0010
0000
0010
0000
,  // measure 67
1001
0000
0100
0000
,  // measure 68
0100
0000
0100
0000
,  // measure 69
0010
0010
1000
1000
,  // measure 70
0100
0100
0001
0001
,  // measure 71
0100
0100
0100
0100
,  // measure 72
0020
0000
0030
0000
,  // measure 73
1001
0100
0000
0100
,  // measure 74
0001
0010
0000
0010
,  // measure 75
1000
0100
0000
0100
,  // measure 76
0010
0100
0000
0100
,  // measure 77
1000
0010
0001
0010
,  // measure 78
1000
0100
0001
0100
,  // measure 79
1000
1000
0001
0001
,  // measure 80
0010
0100
0110
0000
,  // measure 81
1001
1000
0100
0001
,  // measure 82
0010
0001
0000
0001
,  // measure 83
1000
0001
0100
1000
,  // measure 84
0010
1000
0000
1000
,  // measure 85
0100
0001
1000
0001
,  // measure 86
0100
1000
0000
0001
,  // measure 87
1000
0000
0000
0001
0000
0000
0010
0020
,  // measure 88
0000
0000
0030
0000
,  // measure 89
1000
0010
1000
0010
,  // measure 90
0001
0010
0001
0010
,  // measure 91
1000
0100
0001
0100
,  // measure 92
1000
0010
0001
0001
,  // measure 93
1000
0010
0001
0100
,  // measure 94
0001
0010
1000
0100
,  // measure 95
0001
0001
1000
1000
,  // measure 96
0001
0100
0020
0030
,  // measure 97
1000
0001
1000
0001
,  // measure 98
0010
0100
0010
0100
,  // measure 99
0010
0001
1000
0001
,  // measure 100
0010
1000
0001
1000
,  // measure 101
0100
0001
0010
1000
,  // measure 102
0010
0001
0100
1000
,  // measure 103
0010
0000
0000
0001
0000
0000
0100
0200
,  // measure 104
0000
0000
0000
0300
,  // measure 105
1001
0000
0000
0000
;

//---------------dance-single - ----------------
#NOTES:
     dance-single:
     :
     Medium:
     9:
     0.330398,0.538852,0.068426,0.027370,0.000000,338.000000,328.000000,10.000000,4.000000,0.000000,0.000000,0.330398,0.538852,0.068426,0.027370,0.000000,338.000000,328.000000,10.000000,4.000000,0.000000,0.000000:
// measure 0
0000
0000
0000
0000
,  // measure 1
0000
0000
0000
0000
,  // measure 2
0000
0000
0000
0000
,  // measure 3
0000
0000
0000
0000
,  // measure 4
0000
0000
0000
0000
,  // measure 5
0000
0000
0000
0000
,  // measure 6
0000
0000
0000
0000
,  // measure 7
0000
0000
0000
0000
,  // measure 8
0000
0000
0000
0000
,  // measure 9
1000
0000
0100
0000
0000
1000
0100
0000
,  // measure 10
0001
0000
0100
0000
0000
0001
0100
0000
,  // measure 11
1000
0000
0010
0000
0000
1000
0010
0000
,  // measure 12
0001
0000
0010
0000
0000
0001
0010
0000
,  // measure 13
1000
0000
0001
0000
1000
0100
0001
0000
,  // measure 14
0001
0000
1000
0000
0001
0100
1000
0000
,  // measure 15
0010
0000
0100
0000
0010
1000
0100
0000
,  // measure 16
0010
0000
0100
0000
0010
0001
0100
0000
,  // measure 17
1000
0000
0010
0000
1000
0010
0001
0000
,  // measure 18
1000
0000
0100
0000
1000
0100
0001
0000
,  // measure 19
0010
0000
0001
0000
1000
0001
0010
0000
,  // measure 20
0100
0000
0001
0000
1000
0001
0100
0000
,  // measure 21
1000
0000
0001
0000
1000
0010
0100
0000
,  // measure 22
0001
0000
1000
0000
0001
0010
0100
0000
,  // measure 23
1000
0000
0000
0001
0000
0000
0010
0020
,  // measure 24
0000
0000
0000
0030
,  // measure 25
0001
0100
0000
0100
,  // measure 26
1000
0100
0000
0100
,  // measure 27
0001
0010
0000
0010
,  // measure 28
1000
0100
0000
0100
,  // measure 29
0001
1000
0000
1000
,  // measure 30
1000
0001
0000
0001
,  // measure 31
0001
0010
0000
0010
,  // measure 32
0010
0100
0000
0100
,  // measure 33
0010
0001
0000
0001
,  // measure 34
1000
0010
0000
0010
,  // measure 35
1000
0100
0000
0100
,  // measure 36
0001
0010
0000
0010
,  // measure 37
0001
1000
0000
1000
,  // measure 38
0001
0100
0000
0100
,  // measure 39
0010
1000
0000
1000
,  // measure 40
1000
0100
0000
0100
,  // measure 41
1000
0010
0000
0010
,  // measure 42
0001
0010
0000
0010
,  // measure 43
1000
0100
0000
0100
,  // measure 44
0001
0010
0000
0010
,  // measure 45
1000
0001
0000
0001
,  // measure 46
0001
1000
0000
1000
,  // measure 47
1000
0100
0000
0100
,  // measure 48
0100
0010
0000
0010
,  // measure 49
0100
1000
0000
1000
,  // measure 50
0001
0100
0000
0100
,  // measure 51
0001
0010
0000
0010
,  // measure 52
1000
0100
0000
0100
,  // measure 53
1000
0001
0000
0001
,  // measure 54
1000
0010
0000
0010
,  // measure 55
0100
0001
0000
0001
,  // measure 56
0001
0010
0000
0010
,  // measure 57
0010
0000
0000
0010
0000
0000
0000
0000
,  // measure 58
0010
0000
0000
0010
0000
0000
0000
0000
,  // measure 59
0100
0000
0000
0100
0000
0000
0000
0000
,  // measure 60
0100
0000
0000
0100
0000
0000
0000
0000
,  // measure 61
1001
0000
1000
0000
,  // measure 62
1000
0000
1000
0000
,  // measure 63
1001
0000
0001
0000
,  // measure 64
0001
0000
0001
0000
,  // measure 65
0110
0000
1000
0000
,  // measure 66
0110
0000
0001
0000
,  // measure 67
0110
0000
1001
0000
,  // measure 68
0110
0000
1001
0000
,  // measure 69
0010
1000
0010
0000
1000
0100
1000
0000
,  // measure 70
0100
0001
0100
0000
0001
0010
0001
0000
,  // measure 71
0010
0100
0010
0100
0010
0100
0010
0100
,  // measure 72
0020
0000
0030
0000
,  // measure 73
1001
0100
0000
0100
,  // measure 74
0001
0100
0000
1000
,  // measure 75
0100
1000
0100
0001
,  // measure 76
0010
1000
0000
1000
,  // measure 77
0010
0001
0000
0010
,  // measure 78
1000
0010
0000
0001
,  // measure 79
0010
0001
0010
1000
,  // measure 80
0100
0001
0000
0001
,  // measure 81
1000
0010
0000
0010
,  // measure 82
1000
0010
0000
0001
,  // measure 83
0010
0001
0010
1000
,  // measure 84
0100
0001
0000
0001
,  // measure 85
0100
1000
0000
0100
,  // measure 86
1000
0010
0000
0001
,  // measure 87
0001
0000
0000
1000
0000
0000
0100
0200
,  // measure 88
0000
0000
0300
0000
,  // measure 89
1000
0100
1000
0100
,  // measure 90
0001
0100
0001
0100
,  // measure 91
1000
0001
1000
0001
,  // measure 92
0010
0100
0010
0100
,  // measure 93
1000
0010
1000
0010
,  // measure 94
0001
0010
0001
0010
,  // measure 95
0001
1000
0001
1000
,  // measure 96
0010
0000
1000
0000
0001
0100
0001
0100
,  // measure 97
0001
1000
0010
1000
,  // measure 98
1000
0001
0100
0001
,  // measure 99
1000
0010
0001
0010
,  // measure 100
1000
0000
0100
0000
0001
0100
0001
0100
,  // measure 101
0010
0001
1000
0001
,  // measure 102
0100
1000
0001
1000
,  // measure 103
0010
0000
0000
0100
0000
0000
0001
2000
,  // measure 104
0000
0000
0000
0000
0010
0010
3010
0000
,  // measure 105
1001
0000
0000
0000
;

//---------------dance-single - ----------------
#NOTES:
     dance-single:
     :
     Hard:
     13:
     0.582596,0.682546,0.157379,0.123166,0.095796,596.000000,573.000000,23.000000,18.000000,0.000000,0.000000,0.582596,0.682546,0.157379,0.123166,0.095796,596.000000,573.000000,23.000000,18.000000,0.000000,0.000000:
// measure 0
0000
0000
0000
0000
,  // measure 1
0000
0000
0000
0000
,  // measure 2
0000
0000
0000
0000
,  // measure 3
0000
0000
0000
0000
,  // measure 4
0000
0000
0000
0000
,  // measure 5
0000
0000
0000
0000
,  // measure 6
0000
0000
0000
0000
,  // measure 7
0000
0000
0000
0000
,  // measure 8
0000
0000
0000
0010
0000
0100
0010
0000
,  // measure 9
1001
0001
0100
0001
1000
0001
0100
1000
,  // measure 10
0001
1000
0100
1000
0001
1000
0100
0001
,  // measure 11
0010
0001
1000
0001
0010
0001
1000
0001
,  // measure 12
0200
0000
0000
1300
0000
0000
0020
0000
0000
0130
0000
0000
0001
0000
0100
0000
1000
0000
0010
0000
1000
0000
0100
0000
,  // measure 13
0001
0010
0100
0010
0001
0100
0010
0100
,  // measure 14
1000
0100
0010
0100
1000
0010
0100
0010
,  // measure 15
1000
0100
0001
0100
1000
0100
0001
0100
,  // measure 16
2000
0000
0000
3010
0000
0000
0002
0000
0000
0013
0000
0000
0100
0000
0010
0000
0001
0000
0010
0000
0100
0000
1000
0000
,  // measure 17
0100
0001
0100
1000
0010
1000
0100
0001
,  // measure 18
0010
0001
0100
1000
0100
0001
0010
0001
,  // measure 19
0100
1000
0010
1000
0001
1000
0100
1000
,  // measure 20
0002
0000
0000
0103
0000
0000
2000
0000
0000
3100
0000
0000
0001
0000
0010
0000
1000
0000
0001
0000
0100
0000
1000
0000
,  // measure 21
0001
0100
0010
1000
0001
0010
0100
1000
,  // measure 22
0001
0100
0010
1000
0001
0100
0010
0100
,  // measure 23
1000
0000
1000
0001
0000
0001
0100
0020
,  // measure 24
0000
0000
0000
0000
0000
0000
0000
0000
0130
0010
0100
0010
0100
0000
0000
0000
,  // measure 25
0001
0000
1100
0000
0001
0010
1000
0000
,  // measure 26
1000
0000
0101
0000
1000
0010
0001
0000
,  // measure 27
1000
0100
0001
0000
1000
0010
0100
0000
,  // measure 28
0001
0100
1000
0000
0001
0010
0100
0000
,  // measure 29
1000
0000
0010
0000
0001
0100
0001
0000
,  // measure 30
0001
0000
0010
0000
1000
0100
1000
0000
,  // measure 31
0010
0000
0001
0000
0100
0001
0010
0000
,  // measure 32
0010
0000
1000
0000
0100
1000
0010
0000
,  // measure 33
0100
0000
0011
0000
0010
1000
0001
0000
,  // measure 34
0100
0000
1010
0000
0010
0001
1000
0000
,  // measure 35
0001
0010
1000
0000
0100
1000
0010
0000
,  // measure 36
1000
0010
0001
0000
0100
0001
0010
0000
,  // measure 37
1000
0100
0001
0010
,  // measure 38
1000
0100
0001
0010
,  // measure 39
1000
0000
0100
0000
0001
0010
1000
0000
,  // measure 40
0100
0000
0001
0000
0010
1000
0100
0000
,  // measure 41
1000
0000
0011
0000
1000
0100
0001
0000
,  // measure 42
0001
0000
1010
0000
0001
0100
1000
0000
,  // measure 43
0001
0010
1000
0000
0001
0100
0010
0000
,  // measure 44
1000
0010
0001
0000
1000
0100
0010
0000
,  // measure 45
0001
0000
0100
0000
1000
0010
1000
0000
,  // measure 46
1000
0000
0100
0000
0001
0010
0001
0000
,  // measure 47
0100
0000
1000
0000
0010
1000
0100
0000
,  // measure 48
0100
0000
0001
0000
0010
0001
0100
0000
,  // measure 49
0010
0000
1100
0000
0100
0001
1000
0000
,  // measure 50
0010
0000
0101
0000
0100
1000
0001
0000
,  // measure 51
1000
0100
0001
0000
0010
0001
0100
0000
,  // measure 52
0001
0100
1000
0000
0010
1000
0100
0000
,  // measure 53
0001
0100
1000
0010
,  // measure 54
0001
0100
1000
0010
,  // measure 55
0001
0000
0100
0000
1000
0010
0001
0000
,  // measure 56
0100
0000
1000
0000
0010
0001
0100
1000
,  // measure 57
0010
0000
1000
0001
0000
0000
0000
0000
,  // measure 58
0010
0000
0001
1000
0000
0000
0000
0000
,  // measure 59
0100
0000
1000
0001
0000
0000
0000
0000
,  // measure 60
0100
0000
0001
1000
0000
0000
0000
0000
,  // measure 61
0001
0000
0100
0010
0000
0000
1000
0000
,  // measure 62
0001
0000
0100
0010
0000
0000
0001
0000
,  // measure 63
1000
0000
0100
0010
0000
0000
0000
0000
,  // measure 64
1000
0000
0100
0010
0100
0000
0001
0000
,  // measure 65
1001
0000
0101
0000
,  // measure 66
1100
0000
0011
0000
,  // measure 67
1010
0000
0110
0000
,  // measure 68
1001
0000
0110
0000
,  // measure 69
1001
0010
0100
0010
0001
0100
0001
0100
,  // measure 70
0010
1000
0010
1000
0001
0010
0001
0010
,  // measure 71
0001
1000
0010
0100
1000
0001
0100
0010
,  // measure 72
2002
0000
3003
0000
,  // measure 73
0110
0000
0001
0000
1000
0001
1000
0000
,  // measure 74
0110
0000
0001
0100
1000
0010
0001
0000
,  // measure 75
0100
0000
1000
0000
0010
0001
0100
0000
,  // measure 76
1000
0000
0010
0000
0001
0100
1000
0000
,  // measure 77
0001
0000
0100
0000
1000
0010
1000
0000
,  // measure 78
1000
0000
0100
0000
0001
0010
0001
0000
,  // measure 79
0001
0100
1000
0000
0001
0100
1000
0000
,  // measure 80
0001
0010
1000
0000
0001
0010
1000
0010
,  // measure 81
0001
0000
1000
0000
0100
1000
0001
0000
,  // measure 82
0100
0000
0010
0000
1000
0010
0001
0010
,  // measure 83
0100
0000
0001
0000
1000
0001
0100
0000
,  // measure 84
0010
0000
1000
0000
0010
0100
0010
0100
,  // measure 85
0010
0000
1000
0000
0001
0010
1000
0010
,  // measure 86
0100
0000
1000
0000
0100
0010
1000
0100
,  // measure 87
0001
0000
0010
1000
0000
0001
1000
0200
,  // measure 88
0000
0000
0000
0000
0320
0000
0000
0030
,  // measure 89
1001
1000
0010
1000
0001
1000
0010
0001
,  // measure 90
1000
0001
0010
0001
1000
0001
0010
1000
,  // measure 91
0100
1000
0001
1000
0100
1000
0001
1000
,  // measure 92
0020
0000
0000
0031
0000
0000
0200
0000
0000
0310
0000
0000
1000
0000
0010
0000
0001
0000
0100
0000
0001
0000
0010
0000
,  // measure 93
1000
0100
0010
0100
1000
0010
0100
0010
,  // measure 94
0001
0010
0100
0010
0001
0100
0010
0100
,  // measure 95
0001
0010
1000
0010
0001
0010
1000
0010
,  // measure 96
0002
0000
0000
0103
0000
0000
2000
0000
0000
3100
0000
0000
0010
0000
0100
0000
1000
0000
0100
0000
0010
0000
0001
0000
,  // measure 97
0010
1000
0010
0001
0100
0001
0010
1000
,  // measure 98
0100
1000
0010
0001
0010
1000
0100
1000
,  // measure 99
0010
0001
0100
0001
1000
0001
0010
0001
,  // measure 100
2000
0000
0000
3010
0000
0000
0002
0000
0000
0013
0000
0000
1000
0000
0100
0000
0001
0000
1000
0000
0010
0000
0001
0000
,  // measure 101
1000
0010
0100
0001
1000
0100
0010
0001
,  // measure 102
1000
0010
0100
0001
1000
0010
0100
0010
,  // measure 103
0001
0000
0001
1000
0000
1000
0010
0200
,  // measure 104
0000
0000
0000
0000
0000
0000
0000
0000
0310
0100
0010
0100
0010
0000
0000
0000
,  // measure 105
1001
0000
0000
0000
;
