#TITLE:Legatus 505;
#SUBTITLE:;
#ARTIST:Fulgur Ovid;
#TITLETRANSLIT:;
#SUBTITLETRANSLIT:;
#ARTISTTRANSLIT:;
#GENRE:にじさんじ;
#CREDIT:;
#BANNER:Legatus 505.png;
#BACKGROUND:Legatus 505-bg.png;
#LYRICSPATH:;
#CDTITLE:../cdtitle.png;
#MUSIC:Legatus 505.ogg;
#OFFSET:2.158000;
#SAMPLESTART:65.476997;
#SAMPLELENGTH:15.000000;
#LASTBEATHINT:2.123000;
#SELECTABLE:YES;
#BPMS:0.000000=110.000000
;
#STOPS:
;
#BGCHANGES:1.250=Legatus 505.avi=1.000=0=0=0=StretchNoLoop====,
99999=-nosongbg-=1.000=0=0=0 // don't automatically add -songbackground-
;
#KEYSOUNDS:;
#ATTACKS:;

//---------------dance-single - ----------------
#NOTES:
     dance-single:
     :
     Beginner:
     1:
     0.037029,0.082867,0.007855,0.078547,0.000000,33.000000,32.000000,1.000000,10.000000,0.000000,0.000000,0.037029,0.082867,0.007855,0.078547,0.000000,33.000000,32.000000,1.000000,10.000000,0.000000,0.000000:
0000
0000
0000
0000
,
0000
0000
0000
0000
,
0000
0000
0000
0000
,
0000
0000
0000
0000
,
0000
0000
0000
0000
,
0000
0000
0000
0000
,
0000
0000
0000
0000
,
0000
0000
0000
0000
,
0000
0000
0000
0000
,
0000
0000
0000
0000
,
0000
0000
0000
0000
,
0000
0000
0000
0000
,
0000
0000
0000
0000
,
0200
0000
0000
0000
,
0300
0000
0000
0000
,
0002
0000
0000
0000
,
0003
0000
0000
0000
,
2000
0000
0000
0000
,
3000
0000
0000
0000
,
0020
0000
0000
0000
,
0030
0000
0000
0000
,
1000
0000
0000
0000
,
0100
0000
0000
0000
,
0010
0000
0000
0000
,
0100
0000
0000
0000
,
0001
0000
0000
0000
,
0010
0000
0000
0000
,
0100
0000
0000
0000
,
0020
0000
0000
0000
,
0030
0000
0000
0000
,
0000
0000
0000
0000
,
1000
0000
0000
0000
,
0100
0000
0000
0000
,
0001
0000
0000
0000
,
0100
0000
0000
0000
,
1000
0000
0000
0000
,
1000
0000
0000
0000
,
0001
0000
0000
0000
,
0002
0000
0003
0000
,
0001
0000
0000
0000
,
0010
0000
0000
0000
,
1000
0000
0000
0000
,
0010
0000
0000
0000
,
0001
0000
0000
0000
,
0001
0000
0000
0000
,
1000
0000
0000
0000
,
2000
0000
3000
0000
,
1001
0000
0000
0000
,
0000
0000
0200
0300
,
0000
0000
0000
0000
,
0000
0000
0200
0300
,
0000
0000
0000
0000
,
0000
0000
0200
0300
;

//---------------dance-single - ----------------
#NOTES:
     dance-single:
     :
     Easy:
     3:
     0.121186,0.191752,0.023564,0.188512,0.000000,108.000000,105.000000,3.000000,24.000000,0.000000,0.000000,0.121186,0.191752,0.023564,0.188512,0.000000,108.000000,105.000000,3.000000,24.000000,0.000000,0.000000:
0000
0000
0000
0000
,
0000
0000
0000
0000
,
0000
0000
0000
0000
,
0000
0000
0000
0000
,
0000
0000
0000
0000
,
0000
0000
0000
0000
,
0000
0000
0000
0000
,
0000
0000
0000
0000
,
0000
0000
0000
0000
,
0000
0000
0000
0000
,
0000
0000
0000
0000
,
0000
0000
0000
0000
,
0000
0000
0000
0000
,
2000
0000
3001
0000
,
0100
0100
0000
0000
,
0002
0000
1003
0000
,
0100
0100
0010
0000
,
2000
0000
3010
0000
,
0001
0100
0000
0000
,
2000
0000
3100
0000
,
0001
0010
0000
0000
,
0100
1000
0100
1000
,
0001
0100
0001
0100
,
0010
1000
0010
1000
,
0001
0010
0001
0010
,
0100
0010
0100
0010
,
0001
1000
0001
1000
,
0100
0001
0100
1000
,
0020
0000
0230
0000
,
0300
0000
0000
0000
,
0000
0000
0000
0000
,
0001
0002
0003
1000
,
0100
1000
0002
0003
,
1000
2000
3000
0001
,
0010
0001
1000
0001
,
0101
0000
1100
0000
,
0001
0001
0010
0001
,
2000
0000
3000
0001
,
0200
0000
0320
0000
,
1030
2000
3000
0001
,
0010
0001
2000
3000
,
0001
0002
0003
1000
,
0100
1000
0001
1000
,
0010
0200
0300
0010
,
1000
1000
0002
0003
,
0010
0200
0300
0010
,
0001
0001
2000
3000
,
2002
0000
0000
0000
,
3003
0000
0100
0100
,
0002
0000
0000
0000
,
0003
0000
0100
0100
,
2000
0000
0000
0000
,
3000
0000
0100
0100
,
0020
0000
0000
0000
,
0000
0030
0000
0000
;

//---------------dance-single - ----------------
#NOTES:
     dance-single:
     :
     Medium:
     5:
     0.159337,0.241923,0.000000,0.439861,0.000000,142.000000,142.000000,0.000000,56.000000,0.000000,0.000000,0.159337,0.241923,0.000000,0.439861,0.000000,142.000000,142.000000,0.000000,56.000000,0.000000,0.000000:
0000
0000
0000
0000
,
0000
0000
0000
0000
,
0000
0000
0000
0000
,
0000
0000
0000
0000
,
0000
0000
0000
0000
,
0000
0000
0000
0000
,
0000
0000
0000
0000
,
0000
0000
0000
0000
,
0000
0000
0000
0000
,
0000
0000
0000
0000
,
0000
0000
0000
0000
,
0000
0000
0000
0000
,
0000
0000
0000
0000
,
2000
0000
3020
0030
,
1000
0001
0100
0000
0000
0000
0000
0000
,
0002
0000
2003
3000
,
0100
0010
0100
0010
0000
0000
0000
0000
,
0002
0000
2003
3000
,
0010
0100
0010
1000
0000
0000
0000
0000
,
0002
0000
0023
0030
,
0100
1000
0001
0000
0000
0000
0000
0000
,
2000
3020
0230
0302
,
0023
0230
2300
3002
,
2003
3200
0320
0032
,
0203
0320
2030
3001
,
2000
3200
0302
0023
,
2030
3020
0032
0203
,
2300
3200
0320
0032
,
2003
0000
3002
0000
,
0103
0000
0100
0000
,
0100
0000
0000
0000
0100
0010
0100
0000
,
0001
0000
2000
0000
3100
0010
0100
0000
,
1000
0001
0200
0300
,
0010
0000
0200
0000
0301
1000
0001
0000
,
0100
0100
0010
0010
,
1000
0100
0000
0000
0001
0100
0000
0000
,
1000
0001
0000
0200
0000
0310
1000
0000
,
0002
0100
1003
0100
,
0020
0100
0032
0003
,
1000
0000
0002
0000
0013
0100
0010
0000
,
0001
1000
0020
0030
,
0100
0000
0020
0000
1030
0001
1000
0000
,
0010
0010
0100
0100
,
0001
0000
2000
0000
3010
0100
0010
0000
,
1000
0001
0020
0030
,
0100
0020
0030
0001
,
1000
0100
1000
0000
0002
0000
0003
0000
,
2000
0000
0100
0000
,
0001
3000
0010
0010
,
0200
0000
0001
0000
,
0010
0300
1000
1000
,
0002
0000
0010
0000
,
1000
0003
0100
0100
,
0020
0000
1000
0000
,
0130
0002
0000
0000
,
0000
0000
0000
0000
,
0003
0000
0000
0000
;

//---------------dance-single - ----------------
#NOTES:
     dance-single:
     :
     Hard:
     8:
     0.277157,0.395875,0.070692,0.227785,0.000000,247.000000,238.000000,9.000000,29.000000,0.000000,0.000000,0.277157,0.395875,0.070692,0.227785,0.000000,247.000000,238.000000,9.000000,29.000000,0.000000,0.000000:
0000
0000
0000
0000
,
0000
0000
0000
0000
,
0000
0000
0000
0000
,
0000
0000
0000
0000
,
0000
0000
0000
0000
,
0000
0000
0000
0000
,
0000
0000
0000
0000
,
0000
0000
0000
0000
,
0000
0000
0000
0000
,
0000
0000
0000
0000
,
0000
0000
0000
0000
,
0000
0000
0000
0000
,
0000
0000
0000
0000
0000
0000
0000
1000
,
0020
0000
0030
0010
0200
0000
0300
0100
,
0001
1000
0001
0000
0000
0000
0000
0001
,
0020
0000
0030
0010
0200
0000
0300
0100
,
1000
0001
1000
0001
0000
0000
0000
0010
,
0002
0000
0003
0100
2000
0000
3000
0100
,
0010
0100
0010
0100
0000
0000
0000
0010
,
2000
0000
3000
0100
0002
0000
0003
0100
,
0010
0100
0020
0000
0030
0000
0000
0000
,
0001
0100
0001
0100
0010
0100
0010
0100
,
1000
0100
1000
0100
0010
0100
0010
0100
,
0001
0010
0001
0010
0100
0010
0100
0010
,
1000
0010
0100
0010
0001
1000
0020
0030
,
1000
0100
1000
0100
0010
0100
0010
0100
,
0001
0100
0001
0100
0010
0100
0010
0100
,
1000
0010
1000
0010
0100
0010
0100
0010
,
0001
0010
0100
0010
2000
0000
3002
0000
,
1003
0000
1000
0000
,
0010
0000
0000
0000
1000
0001
1000
0001
,
0100
0000
0120
0000
0031
0010
1000
0100
,
0001
0100
2000
3100
,
1000
0000
0210
0000
0301
0100
1000
0010
,
0001
0010
0001
0010
1000
0100
0010
0010
,
0100
1100
0000
0010
0100
0101
0000
1000
,
0100
1000
0100
0010
0010
0001
0100
0001
,
0200
1000
0301
1000
,
0020
0001
2000
3030
,
0010
0000
0210
0000
1300
0100
0001
0010
,
1000
0010
0002
0013
,
0001
0000
0120
0000
1030
0010
0001
0100
,
1000
0100
1000
0100
0001
0010
0001
0010
,
0100
0000
0012
0000
1003
0010
0100
0010
,
1000
0100
1000
0100
0001
0100
2000
0000
,
3001
2100
3010
2000
,
3001
0010
1000
0010
0001
0010
0011
0001
,
0100
0010
1000
0000
0100
0010
0001
0000
,
0010
0001
2000
0000
0001
0000
3001
0000
,
0010
0100
1000
0000
0010
1000
0001
0000
,
0100
0001
0020
0000
0001
0000
0031
0000
,
0010
0100
1000
0000
0010
0100
0001
0000
,
0100
0001
2000
0000
0001
0000
3001
0000
,
0100
0010
1000
0000
0100
1000
0001
0000
,
0010
0001
0200
0000
0000
0000
0000
0000
,
0000
0000
0000
0000
,
0300
0000
0000
0000
;

//---------------dance-double - ----------------
#NOTES:
     dance-double:
     :
     Easy:
     3:
     0.114454,0.186450,0.023564,0.149238,0.000000,102.000000,99.000000,3.000000,19.000000,0.000000,0.000000,0.114454,0.186450,0.023564,0.149238,0.000000,102.000000,99.000000,3.000000,19.000000,0.000000,0.000000:
00000000
00000000
00000000
00000000
,
00000000
00000000
00000000
00000000
,
00000000
00000000
00000000
00000000
,
00000000
00000000
00000000
00000000
,
00000000
00000000
00000000
00000000
,
00000000
00000000
00000000
00000000
,
00000000
00000000
00000000
00000000
,
00000000
00000000
00000000
00000000
,
00000000
00000000
00000000
00000000
,
00000000
00000000
00000000
00000000
,
00000000
00000000
00000000
00000000
,
00000000
00000000
00000000
00000000
,
00000000
00000000
00000000
00000000
,
00200000
00000000
01300000
00000000
,
00010000
00010000
00000000
00000000
,
00000020
00000000
00000130
00000000
,
00001000
00010000
00000000
00000000
,
00002000
00000000
00003010
00000000
,
00001000
00010000
00000000
00000000
,
00020000
00000000
00130000
00000000
,
00010000
00001000
00000000
00000000
,
00100000
00010000
00100000
00010000
,
10000000
00100000
10000000
00100000
,
01000000
00001000
01000000
00001000
,
00010000
00001000
00010000
00000000
,
00000100
00001000
00000100
00001000
,
00000001
00000100
00000001
00000100
,
00000010
00010000
00000010
00010000
,
00002000
00000000
00023000
00000000
,
00030000
00000000
00000000
00000000
,
00000000
00000000
00000000
00000000
,
00001000
00002000
00003000
00010000
,
01000000
10000000
00200000
00300000
,
10000000
20000000
30000000
01000000
,
00100000
00010000
00100000
00001000
,
00011000
00000000
00011000
00000000
,
00001000
00000000
00010000
00001000
,
00000200
00000000
00000300
00000001
,
00000200
00000300
00000020
00000030
,
00010000
00020000
00030000
00001000
,
00000100
00000001
00000020
00000030
,
00000001
00000002
00000003
00000100
,
00000010
00001000
00000010
00010000
,
00001000
00020000
00030000
00001000
,
00010000
01000000
20000000
30000000
,
01000000
00200000
00300000
00010000
,
10000000
00010000
20000000
30000000
,
10010000
00000000
00000000
00000000
,
00000000
00000000
01000000
01000000
,
00000000
00000000
00000000
00000000
,
00000000
00000000
00001000
00001000
,
00000000
00000000
00000000
00000000
,
00000000
00000000
00000100
00000100
;

//---------------dance-double - ----------------
#NOTES:
     dance-double:
     :
     Medium:
     5:
     0.153727,0.219930,0.000000,0.196366,0.000000,137.000000,137.000000,0.000000,25.000000,0.000000,0.000000,0.153727,0.219930,0.000000,0.196366,0.000000,137.000000,137.000000,0.000000,25.000000,0.000000,0.000000:
00000000
00000000
00000000
00000000
,
00000000
00000000
00000000
00000000
,
00000000
00000000
00000000
00000000
,
00000000
00000000
00000000
00000000
,
00000000
00000000
00000000
00000000
,
00000000
00000000
00000000
00000000
,
00000000
00000000
00000000
00000000
,
00000000
00000000
00000000
00000000
,
00000000
00000000
00000000
00000000
,
00000000
00000000
00000000
00000000
,
00000000
00000000
00000000
00000000
,
00000000
00000000
00000000
00000000
,
00000000
00000000
00000000
00000000
,
00200000
00000000
01300000
00000000
,
00010000
00001000
00010000
00000000
00000000
00000000
00000000
00000000
,
00002000
00000000
00003010
00000000
,
00000001
00000100
00000001
00000100
00000000
00000000
00000000
00000000
,
00000020
00000000
00000130
00000000
,
00001000
00010000
00001000
00010000
00000000
00000000
00000000
00000000
,
00020000
00000000
01030000
00000000
,
10000000
00010000
10000000
00000000
00000000
00000000
00000000
00000000
,
10000000
01000000
00010000
01000000
,
10000000
00100000
00010000
00100000
,
10000000
01000000
00010000
01000000
,
10000000
00100000
00010000
00001000
,
00000100
00000001
00000100
00001000
,
00000100
00000001
00000010
00001000
,
00000010
00000001
00000100
00001000
,
00020000
00000000
00032000
00000000
,
00013000
00000000
00010000
00000000
,
00010000
00000000
00000000
00000000
00010000
00001000
00010000
00000000
,
00001000
00000000
00200000
00000000
00300000
01000000
00100000
00000000
,
00010000
10000000
02000000
03000000
,
10000000
00000000
00200000
00000000
00300000
01000000
00100000
00000000
,
00010000
00001000
00000100
00000010
,
00000001
00000010
00000000
00000000
00001000
00000100
00000000
00000000
,
00000010
00000001
00000000
00002000
00000000
00003010
00001000
00000000
,
00000002
00000100
00000003
00000100
,
00000020
00001000
00020030
00031000
,
00010000
00000000
00000200
00000000
00000300
00000010
00000100
00000000
,
00001000
00000001
00000020
00000030
,
00000001
00000000
00000200
00000000
00000300
00000010
00000100
00000000
,
00001000
00010000
00100000
01000000
,
10000000
00000000
02000000
00000000
03000000
00010000
00100000
00000000
,
01000000
10000000
00020000
00030000
,
10000000
20000000
30000000
00100000
,
01000000
00010000
01000000
00000000
00002000
00000000
00003000
00000000
,
00020000
00000000
00000100
00000000
,
00000010
00030000
00000100
00001000
,
00000002
00000000
00000100
00000000
,
00000010
00000003
00001000
00010000
,
00002000
00000000
00100000
00000000
,
01000000
00003000
00100000
00010000
,
20000000
00000000
00100000
00000000
,
31000000
00020000
00000000
00000000
,
00000000
00000000
00000000
00000000
,
00030000
00000000
00000000
00000000
;

//---------------dance-double - ----------------
#NOTES:
     dance-double:
     :
     Hard:
     8:
     0.269303,0.395875,0.015709,0.204221,0.000000,240.000000,238.000000,2.000000,26.000000,0.000000,0.000000,0.269303,0.395875,0.015709,0.204221,0.000000,240.000000,238.000000,2.000000,26.000000,0.000000,0.000000:
// measure 0
00000000
00000000
00000000
00000000
,  // measure 1
00000000
00000000
00000000
00000000
,  // measure 2
00000000
00000000
00000000
00000000
,  // measure 3
00000000
00000000
00000000
00000000
,  // measure 4
00000000
00000000
00000000
00000000
,  // measure 5
00000000
00000000
00000000
00000000
,  // measure 6
00000000
00000000
00000000
00000000
,  // measure 7
00000000
00000000
00000000
00000000
,  // measure 8
00000000
00000000
00000000
00000000
,  // measure 9
00000000
00000000
00000000
00000000
,  // measure 10
00000000
00000000
00000000
00000000
,  // measure 11
00000000
00000000
00000000
00000000
,  // measure 12
00000000
00000000
00000000
00000000
00000000
00000000
00000000
00000001
,  // measure 13
00000020
00000000
00000030
00000010
00000200
00000000
00000300
00000100
,  // measure 14
00010000
00001000
00010000
00000000
00000000
00000000
00000000
00001000
,  // measure 15
02000000
00000000
03000000
01000000
00200000
00000000
00300000
00100000
,  // measure 16
10000000
01000000
10000000
01000000
00000000
00000000
00000000
10000000
,  // measure 17
00200000
00000000
00300000
00100000
00020000
00000000
00030000
00010000
,  // measure 18
00001000
00010000
00001000
00010000
00000000
00000000
00000000
00010000
,  // measure 19
00000200
00000000
00000300
00000100
00000020
00000000
00000030
00000010
,  // measure 20
00000001
00000100
00000002
00000000
00000003
00000000
00000000
00000000
,  // measure 21
00000001
00000010
00000001
00000010
00000100
00000010
00000100
00000010
,  // measure 22
00000100
00001000
00000100
00001000
00000010
00001000
00000010
00001000
,  // measure 23
00010000
01000000
00010000
01000000
00100000
01000000
00100000
01000000
,  // measure 24
00010000
00100000
00010000
00100000
01000000
10000000
00010000
00000000
,  // measure 25
10000000
01000000
10000000
01000000
00100000
01000000
00100000
01000000
,  // measure 26
00100000
00010000
00100000
00010000
01000000
00010000
01000000
00010000
,  // measure 27
00001000
00000010
00001000
00000010
00000100
00000010
00000100
00000010
,  // measure 28
00001000
00000100
00001000
00000100
00000010
00000001
00002000
00000000
,  // measure 29
00003001
00000000
00000001
00000000
,  // measure 30
00000100
00000000
00000000
00000000
00000100
00000010
00000100
00000010
,  // measure 31
00001000
00000000
00002000
00000000
00003100
00001000
00010000
00100000
,  // measure 32
00010000
10000000
00020000
01030000
,  // measure 33
00100000
00000000
00200000
00000000
10300000
01000000
00100000
00010000
,  // measure 34
01000000
00001000
01000000
00001000
00010000
00001000
00010000
00000100
,  // measure 35
00010000
00011000
00000000
00010000
00000010
00001010
00000000
00000100
,  // measure 36
00000001
00001000
00000100
00010000
00001000
01000000
00001000
00010000
,  // measure 37
00002000
00010000
00103000
00010000
,  // measure 38
02000000
10000000
00200000
03300000
,  // measure 39
00010000
00000000
00020000
00000000
00130000
00010000
00001000
00000100
,  // measure 40
00001000
00000001
00002000
00003010
,  // measure 41
00000100
00000000
00000200
00000000
00000301
00000010
00000100
00001000
,  // measure 42
00000010
00010000
00000010
00010000
00001000
00010000
00001000
00000000
,  // measure 43
00100000
00000000
00020000
00000000
10030000
01000000
00010000
01000000
,  // measure 44
10000000
00100000
10000000
00100000
01000000
00010000
10000000
00000000
,  // measure 45
01000000
20000000
30010000
00200000
,  // measure 46
00301000
00010000
00001000
00010000
00000100
00000010
00000001
00001000
,  // measure 47
00000010
00000100
00000010
00000000
00000100
00000001
00001000
00000000
,  // measure 48
00000100
00010000
00002000
00000000
00010000
00000000
00013000
00000000
,  // measure 49
00001000
01000000
00100000
00000000
01000000
00010000
10000000
00000000
,  // measure 50
01000000
10000000
00200000
00000000
01000000
00000000
01300000
00000000
,  // measure 51
01000000
00100000
01000000
00000000
00100000
10000000
00010000
00000000
,  // measure 52
00100000
00001000
00020000
00000000
00001000
00000000
00031000
00000000
,  // measure 53
00010000
00000010
00000100
00000000
00000010
00001000
00000001
00000000
,  // measure 54
00000010
00000001
00000200
00000000
00000000
00000000
00000000
00000000
,  // measure 55
00000000
00000000
00000000
00000000
,  // measure 56
00000300
00000000
00000000
00000000
;
