#VERSION:0.83;
#TITLE:Left & Right;
#SUBTITLE:;
#ARTIST:SEVENTEEN;
#TITLETRANSLIT:;
#SUBTITLETRANSLIT:;
#ARTISTTRANSLIT:;
#GENRE:K-Pop;
#ORIGIN:;
#CREDIT:;
#BANNER:Left & Right.png;
#BACKGROUND:Left & Right-bg.png;
#PREVIEWVID:;
#JACKET:Left & Right-jacket.png;
#CDIMAGE:;
#DISCIMAGE:;
#LYRICSPATH:;
#CDTITLE:../cdtitle.png;
#MUSIC:Left & Right.ogg;
#OFFSET:0.784000;
#SAMPLESTART:46.415001;
#SAMPLELENGTH:15.000000;
#SELECTABLE:YES;
#BPMS:0.000=150.000;
#STOPS:19.500=0.800,
112.000=1.200,
221.000=1.200;
#DELAYS:;
#WARPS:;
#TIMESIGNATURES:0.000=4=4;
#TICKCOUNTS:0.000=4;
#COMBOS:0.000=1;
#SPEEDS:0.000=1.000=0.000=0;
#SCROLLS:0.000=1.000;
#FAKES:;
#LABELS:0.000=Song Start;
#BGCHANGES:1.250=Left & Right.avi=1.000=0=0=0=StretchNoLoop====,
99999=-nosongbg-=1.000=0=0=0 // don't automatically add -songbackground-
;
#KEYSOUNDS:;
#ATTACKS:
;

//---------------dance-single - ----------------
#NOTEDATA:;
#CHARTNAME:;
#STEPSTYPE:dance-single;
#DESCRIPTION:;
#CHARTSTYLE:;
#DIFFICULTY:Medium;
#METER:10;
#RADARVALUES:0.382805,0.436586,0.213760,0.305371,0.019086,351.000000,323.000000,28.000000,40.000000,0.000000,0.000000,0.000000,0.000000,0.000000,0.382805,0.436586,0.213760,0.305371,0.019086,351.000000,323.000000,28.000000,40.000000,0.000000,0.000000,0.000000,0.000000,0.000000;
#CREDIT:led_light;
#NOTES:
0000
0000
0000
0000
,
0000
0000
0000
0000
,
0000
0000
0000
0000
,
0000
0000
0000
0000
,
0000
0000
0000
0000
,
0001
1000
0001
0000
0100
0000
0010
0000
,
1000
0000
0100
0010
0000
0010
0100
0000
,
1000
0100
1000
0000
0001
0100
0001
0000
,
0020
0000
0030
0200
0000
0300
0110
0000
,
1000
0001
1000
0000
0010
0000
0100
0000
,
0001
0000
0010
0100
0000
0100
0010
0100
,
0000
0000
1000
0000
0001
0010
0001
0000
,
0100
0100
0010
0110
,
2000
0000
3000
1001
,
0001
0010
0100
0000
1000
0100
0001
0000
,
1000
0010
0001
0000
0100
1000
0001
0000
,
0010
1000
0010
1000
0200
0300
0010
0000
,
1001
0000
0000
0000
0001
0000
0000
0010
0000
0000
0010
0000
1000
0000
0010
0000
,
0001
0000
0000
0000
1000
0000
0000
0010
0000
0000
0010
0000
0001
0000
0010
0000
,
1000
0000
0000
0000
0001
0000
0000
1000
0000
0000
1000
0000
0100
0000
0010
0000
,
0001
0001
0011
0101
,
2001
0000
0100
0000
3001
0100
0000
1100
,
0000
0101
0000
1100
0000
1000
0100
0010
,
0002
0000
0010
0000
1003
0010
0000
0011
,
0000
1010
0000
0011
0000
0001
0010
0100
,
0010
0000
0000
0000
1001
0000
0000
0000
0001
0000
0000
0100
0000
0000
0010
0000
,
0000
0000
1000
0000
0001
0000
0000
0000
1000
0000
0000
0100
0000
0000
0001
0000
,
0000
0100
2000
0000
0000
0000
0002
0000
,
3003
0000
0110
0000
1000
1000
0000
0000
,
0002
0000
0003
0000
1000
1000
0000
0000
,
0002
0000
0003
0000
1000
1000
0000
0000
,
0002
0000
0003
0000
0010
0010
0100
0010
,
0100
0000
0110
0000
1000
1000
0000
0000
,
0002
0000
0003
0000
1000
1000
0000
0000
,
0002
0000
0003
0000
1000
1000
0000
0000
,
0002
0000
0003
0000
0010
0010
0100
0010
,
0100
0000
1001
0000
0010
0000
0100
1000
,
0001
0000
0010
0010
0000
0200
0000
0310
,
0001
0000
0010
0000
1001
0000
0001
0100
,
0010
0000
1000
1000
0000
0200
0000
0310
,
0001
0000
0110
0000
1000
1000
0000
0000
,
0002
0000
0003
0000
1000
1000
0000
0000
,
0002
0000
0003
0000
1000
1000
0000
0000
,
0002
0000
0003
0000
0010
0010
0100
0010
,
0200
0300
0010
0000
,
0100
0000
0010
0000
,
0100
0000
1000
0000
,
0001
2000
3100
0002
,
0013
1000
1000
0001
,
0001
0100
0100
0010
,
0010
1000
0001
0010
0001
0000
1000
0100
,
1000
0002
0103
2000
,
3010
0012
0013
2100
,
3100
0102
0103
2010
,
3010
0000
0001
0100
0010
0000
1000
0000
,
0002
0003
1000
0100
,
0010
0000
0001
0000
0110
0000
1000
1000
,
0100
0000
0002
0000
0013
0000
1000
1000
,
0100
0000
0002
0000
0013
0000
1000
1000
,
0100
0000
0002
0000
0013
0000
0010
0010
,
0100
0010
0100
0000
0110
0000
1000
1000
,
0100
0000
0002
0000
0013
0000
1000
1000
,
0100
0000
0002
0000
0013
0000
1000
1000
,
0100
0000
0002
0000
0013
0000
0010
0010
,
0100
0010
0100
0000
1001
0000
0010
0000
,
0100
1000
0001
0000
0010
0010
0000
0200
,
0000
0310
0001
0000
0010
0000
1001
0000
,
0001
0100
0010
0000
1000
1000
0000
0200
,
0000
0310
0001
0000
0110
0000
1000
1000
,
0100
0000
0002
0000
0013
0000
1000
1000
,
0100
0000
0002
0000
0013
0000
1000
1000
,
0100
0000
0002
0000
0013
0000
0010
0010
,
0100
0010
0100
0000
1000
0000
0100
0000
,
0010
0001
0100
0100
,
0010
0001
0010
0100
,
0010
0001
0001
0100
,
0010
0001
0000
0000
;

//---------------dance-single - ----------------
#NOTEDATA:;
#CHARTNAME:;
#STEPSTYPE:dance-single;
#DESCRIPTION:;
#CHARTSTYLE:;
#DIFFICULTY:Challenge;
#METER:12;
#RADARVALUES:0.395892,0.494797,0.221394,0.221394,0.019086,363.000000,334.000000,29.000000,29.000000,244.000000,0.000000,0.000000,0.000000,0.000000,0.395892,0.494797,0.221394,0.221394,0.019086,363.000000,334.000000,29.000000,29.000000,244.000000,0.000000,0.000000,0.000000,0.000000;
#CREDIT:led_light;
#NOTES:
0000
0000
0000
0000
,
0000
0000
0000
0000
,
0000
0000
0000
0000
,
0000
0000
0000
0000
,
0000
0000
0000
0000
,
0001
0100
0001
0100
0010
0000
1000
0100
,
0020
0000
0130
1000
0000
0010
0100
0010
,
1000
1000
0001
0001
0010
0010
0100
1000
,
0002
0000
0013
0002
0100
0003
MMMM
0000
,
1000
0100
1000
0100
0010
0000
0001
0100
,
0020
0000
0130
0001
0000
0010
0100
0010
,
MMMM
0000
1000
0100
1000
0001
0100
0010
,
1010
0000
1000
0100
0010
0001
1001
0000
,
0020
1000
0031
0110
,
1000
0010
0100
0010
1000
0100
0010
0000
,
0001
0010
0100
0000
0001
0100
0010
0000
,
0001
0100
0001
0100
0020
0030
MMMM
0000
,
1001
0000
0000
0000
0001
0000
0010
0100
0000
0000
0100
0000
1000
0000
0100
0000
,
0010
0000
0000
0000
0001
0000
1000
0001
0000
0000
0001
0000
0010
0000
0100
0000
,
1000
0000
0000
0000
0001
0000
0100
0010
0000
0000
0010
0000
1000
0000
0100
0000
,
0110
0110
1001
0110
,
1002
0000
0100
0000
1003
0100
MMMM
0011
,
MMMM
1010
MMMM
0011
MMMM
0010
0100
1000
,
1002
0000
0010
0000
1003
0010
MMMM
0101
,
MMMM
1100
MMMM
0101
MMMM
0100
0010
1000
,
0001
0000
0000
0000
0110
0000
0000
0000
1000
0000
0000
0100
0000
0000
0001
0000
,
0000
0000
0100
0000
1000
0000
0000
0000
0010
0000
0000
0001
0000
0000
0010
0000
,
0000
2000
0002
0000
3000
0000
0020
0033
,
MMMM
0000
1001
0000
1000
1000
MMMM
0000
,
0001
0000
MMMM
0000
1000
1000
MMMM
0000
,
0001
0000
MMMM
0000
1000
1000
MMMM
0000
,
0001
0000
MMMM
0000
0010
0010
0100
0010
,
MMMM
0000
1001
0000
1000
1000
MMMM
0000
,
0001
0000
MMMM
0000
1000
1000
MMMM
0000
,
0001
0000
MMMM
0000
1000
1000
MMMM
0000
,
0001
0000
MMMM
0000
0010
0010
0100
0010
,
MMMM
0000
0010
0000
1001
0000
0001
0100
,
0010
1000
0100
0010
MMMM
2000
0000
3001
,
MMMM
0000
0100
0000
1001
0000
1000
0010
,
0100
0001
0010
0100
MMMM
0002
0000
0013
,
0100
1000
1001
0000
1000
1000
MMMM
0000
,
0001
0000
MMMM
0000
1000
1000
MMMM
0000
,
0001
0000
MMMM
0000
1000
1000
MMMM
0000
,
0001
0000
MMMM
0000
0010
0010
0100
0010
,
MMMM
2000
0010
0000
,
0010
3002
0010
0000
,
0010
2003
0100
0000
,
0100
3002
0100
2003
,
0100
0000
3010
0000
0010
0000
0010
0100
,
0001
0000
0010
0000
0010
0000
0010
0100
,
1000
0000
0100
0010
0001
0000
0100
0010
,
1000
1002
0103
2001
,
3100
0010
0200
0000
0001
0000
2300
0000
,
0100
3020
0100
2030
,
0100
0000
3010
0100
0002
0000
0023
0000
,
0200
0330
MMMM
0000
0100
0000
0100
0000
,
0100
0000
0010
0000
1001
0000
1000
1000
,
MMMM
0000
0001
0000
MMMM
0000
1000
1000
,
MMMM
0000
0001
0000
MMMM
0000
1000
1000
,
MMMM
0000
0001
0000
MMMM
0000
0010
0010
,
0100
0010
MMMM
0000
1001
0000
1000
1000
,
MMMM
0000
0001
0000
MMMM
0000
1000
1000
,
MMMM
0000
0001
0000
MMMM
0000
1000
1000
,
MMMM
0000
0001
0000
MMMM
0000
0010
0010
,
0100
0010
MMMM
0000
0010
0000
1001
0000
,
0001
0100
0010
1000
0100
0010
MMMM
2000
,
0000
3001
MMMM
0000
0100
0000
1001
0000
,
1000
0010
0100
0001
0010
0100
MMMM
0002
,
0000
0013
0100
1000
1001
0000
1000
1000
,
MMMM
0000
0001
0000
MMMM
0000
1000
1000
,
MMMM
0000
0001
0000
MMMM
0000
1000
1000
,
MMMM
0000
0001
0000
MMMM
0000
0010
0010
,
0100
0010
MMMM
0000
1000
1000
0100
0000
,
0010
0010
0001
0000
0100
1000
0100
0000
,
0010
0100
0001
0000
0010
0001
0100
0000
,
0010
1000
0001
0000
0001
0010
0100
1000
,
0010
0100
0001
0000
0000
0000
0000
0000
;

//---------------dance-single - ----------------
#NOTEDATA:;
#CHARTNAME:;
#STEPSTYPE:dance-single;
#DESCRIPTION:;
#CHARTSTYLE:;
#DIFFICULTY:Easy;
#METER:6;
#RADARVALUES:0.257385,0.349269,0.206126,0.129783,0.000000,236.000000,209.000000,27.000000,17.000000,0.000000,0.000000,0.000000,0.000000,0.000000,0.257385,0.349269,0.206126,0.129783,0.000000,236.000000,209.000000,27.000000,17.000000,0.000000,0.000000,0.000000,0.000000,0.000000;
#CREDIT:led_light;
#NOTES:
0000
0000
0000
0000
,
0000
0000
0000
0000
,
0000
0000
0000
0000
,
0000
0000
0000
0000
,
0000
0000
0000
0000
,
0001
0101
1000
0001
,
0010
0000
0000
0100
0000
0000
0010
0000
,
0001
0001
0010
0001
,
1000
0000
0000
0001
0000
0000
0110
0000
,
1000
1010
0001
1000
,
0100
0000
0000
0010
0000
0000
0100
0000
,
0000
0010
0001
0100
,
0010
0010
0010
1001
,
0200
0000
0300
1001
,
0010
0010
0001
1100
,
0010
0010
1000
1000
,
0001
0100
0200
0300
,
1010
0001
0010
0010
,
0100
1000
0010
0010
,
1000
0100
0001
0100
,
1000
1000
0011
1000
,
0102
0000
0000
0000
,
0010
0010
0010
0003
,
2100
0000
0000
0000
,
0010
0010
0010
3000
,
0001
0010
2000
3000
,
0001
0100
2000
3000
,
0010
0010
0001
0020
,
0030
0110
1000
0000
,
0001
0000
1000
0000
,
0001
0000
1000
0000
,
0001
0000
0010
0010
,
0000
0110
1000
0000
,
0001
0000
1000
0000
,
0001
0000
1000
0000
,
0001
0000
0010
0010
,
0000
0110
1000
0001
,
0010
0000
0100
0000
0000
0100
0000
0000
,
0010
0001
0110
0001
,
0100
0000
0010
0000
0000
1000
0000
0000
,
1001
0000
1000
0000
,
0001
0000
1000
0000
,
0001
0000
1000
0000
,
0001
0000
0010
0010
,
0000
0200
0000
0000
,
0300
2000
0000
0000
,
3000
0020
0000
0000
,
0030
2000
3000
0002
,
0003
0010
0010
0010
,
1100
0001
0001
0001
,
0110
1000
1000
0100
,
0011
0020
0130
0200
,
0310
0012
0010
0100
,
0103
2010
0010
0100
,
3100
0010
0010
0001
,
0200
0300
0010
0010
,
0010
1001
0110
1000
,
0000
0001
0000
1000
,
0000
0001
0000
1000
,
0000
0001
0000
0010
,
0010
0000
0110
1000
,
0000
0001
0000
1000
,
0000
0001
0000
1000
,
0000
0001
0000
0010
,
0010
0000
0110
1000
,
0001
0000
0010
0000
0100
0000
0000
0100
,
0000
0010
0001
0110
,
0001
0000
0100
0000
0010
0000
0000
1000
,
0000
1001
0000
1000
,
0000
0001
0000
1000
,
0000
0001
0000
1000
,
0000
0001
0000
0010
,
0010
0110
1000
0100
,
0010
0001
0100
0100
,
0010
0001
0010
0100
,
0010
0001
0001
0100
,
0010
0001
0000
0000
;

//---------------dance-single - ----------------
#NOTEDATA:;
#CHARTNAME:;
#STEPSTYPE:dance-single;
#DESCRIPTION:;
#CHARTSTYLE:;
#DIFFICULTY:Beginner;
#METER:3;
#RADARVALUES:0.128692,0.203740,0.015269,0.145051,0.000000,118.000000,116.000000,2.000000,19.000000,0.000000,0.000000,0.000000,0.000000,0.000000,0.128692,0.203740,0.015269,0.145051,0.000000,118.000000,116.000000,2.000000,19.000000,0.000000,0.000000,0.000000,0.000000,0.000000;
#CREDIT:led_light;
#NOTES:
0000
0000
0000
0000
,
0000
0000
0000
0000
,
0000
0000
0000
0000
,
0000
0000
0000
0000
,
0000
0000
0000
0000
,
1000
0000
0000
0000
,
1000
0000
0000
0000
,
0001
0000
0000
0000
,
1000
0000
0000
0000
,
0001
0000
0000
0000
,
0001
0000
0000
0000
,
1000
0000
0000
0000
,
0001
0000
0001
0000
,
2000
0000
3000
0000
,
0001
0000
0001
0000
,
1000
0000
1000
0000
,
2000
0000
3000
0000
,
1000
0000
0001
0000
,
1000
0000
0001
0000
,
0001
0000
1000
0000
,
0001
0001
0001
0000
,
2000
0000
0000
0000
,
0000
0000
3000
0000
,
0002
0000
0000
0000
,
0000
0000
0003
0000
,
1000
0000
1000
0000
,
0001
0000
0001
0000
,
2000
0000
0000
0000
,
3000
0000
1000
0000
,
0001
0000
1000
0000
,
0001
0000
1000
0000
,
0001
0000
1000
0001
,
0000
0000
1000
0000
,
0001
0000
1000
0000
,
0001
0000
1000
0000
,
0001
0000
1000
0001
,
0000
1000
0000
1000
,
0000
0001
0000
0000
,
0000
0001
0000
0001
,
0000
1000
0000
0000
,
1001
0000
1000
0000
,
0001
0000
1000
0000
,
0001
0000
1000
0000
,
0001
0000
1000
0001
,
0000
2000
0000
0000
,
3000
0002
0000
0000
,
0003
2000
0000
0000
,
3000
0002
0003
0002
,
0003
1000
1000
1000
,
0000
0001
0001
0001
,
0000
1000
0001
1000
,
0000
0002
0003
0002
,
0003
2000
0000
3000
,
0000
0002
0000
0003
,
0000
2000
0000
0000
,
0000
3000
0000
0000
,
0000
0000
0000
1000
,
0000
0001
0000
1000
,
0000
0001
0000
1000
,
0000
0001
0000
1000
,
0001
0000
0000
1000
,
0000
0001
0000
1000
,
0000
0001
0000
1000
,
0000
0001
0000
1000
,
0001
0000
1000
0000
,
1000
0000
0001
0000
,
0000
0000
0001
0000
,
0001
0000
1000
0000
,
0000
1001
0000
1000
,
0000
0001
0000
1000
,
0000
0001
0000
1000
,
0000
0001
0000
1000
,
0001
0000
2000
0000
,
0000
3000
0002
0000
,
0000
0003
2000
0000
,
0000
3000
0002
0000
,
0000
0003
0000
0000
;

//---------------dance-single - ----------------
#NOTEDATA:;
#CHARTNAME:;
#STEPSTYPE:dance-single;
#DESCRIPTION:;
#CHARTSTYLE:;
#DIFFICULTY:Hard;
#METER:13;
#RADARVALUES:0.540944,0.670529,0.343543,0.488594,0.137417,496.000000,451.000000,45.000000,64.000000,0.000000,0.000000,0.000000,0.000000,0.000000,0.540944,0.670529,0.343543,0.488594,0.137417,496.000000,451.000000,45.000000,64.000000,0.000000,0.000000,0.000000,0.000000,0.000000;
#CREDIT:led_light;
#NOTES:
0000
0000
0000
0000
,
0000
0000
0000
0000
,
0000
0000
0000
0000
,
0000
0000
0000
0000
,
0000
0000
0000
0000
,
0101
0100
0010
1000
0001
0000
1000
0100
,
2000
0000
3001
0010
0000
0010
1000
0010
,
0001
0001
1000
1000
0010
0010
0100
0001
,
0020
0000
0130
0020
0000
0030
0110
0001
,
1000
0010
0100
0001
1000
0000
0001
0010
,
0002
0000
1003
0100
0000
0100
0001
0100
,
1000
0000
0001
0010
0100
0010
0100
1000
,
1100
0000
0010
0001
0100
0010
1010
0001
,
1000
0100
0010
0100
1000
0001
0010
0100
1000
0001
0000
0000
,
0100
0010
1000
0100
0010
0100
0010
0001
1000
0010
0000
0000
,
0100
1000
0100
0010
1000
0100
0010
1000
0010
0100
1000
0001
,
0100
0000
0100
0000
0100
0000
0100
0000
0100
0000
0100
0000
0020
0000
0000
0030
0000
0000
0110
0000
0000
0000
0000
0000
,
1001
0000
0000
0000
0001
0000
1000
0100
0000
0000
0001
0000
0100
0000
1000
0000
,
1100
0000
0000
0000
1000
0000
0001
0010
0000
0010
1000
0000
0010
0000
0001
0000
,
0011
0000
1000
0000
0001
0000
0010
0001
0000
0001
0100
0000
0010
0000
1000
0000
,
1010
0000
0011
0000
1100
0100
0010
0001
,
1002
0000
0010
0000
1003
0020
0031
0020
,
0130
0020
0031
0020
1030
0100
0010
0001
,
2001
0000
0100
0000
3001
0200
1300
0200
,
0310
0200
1300
0200
0301
0010
0100
1000
,
0001
0000
0010
0000
0021
0000
0000
0000
0130
0000
0000
2000
0000
0000
3001
0000
,
1000
0000
0010
0000
1010
0000
0100
0000
0002
0000
0000
2003
0000
0000
3100
0000
,
0010
0001
0010
0001
0100
0010
2000
0002
,
3003
0000
0110
0000
1000
1000
0100
0000
,
0012
0000
0103
0000
1000
1000
0100
0000
,
0012
0000
0103
0000
1000
1000
0100
0000
,
0012
0000
0103
0000
0010
0010
0100
0001
,
0010
0000
0110
0000
1000
1000
0100
0000
,
0012
0000
0103
0000
1000
1000
0100
0000
,
0012
0000
0103
0000
1000
1000
0100
0000
,
0012
0000
0103
0000
0010
0010
0100
0001
,
0010
0100
1000
0000
1001
0000
0001
0010
,
0100
0010
0001
0100
0010
2000
0000
3001
,
0010
0100
1000
0000
1001
0000
0001
0100
,
0001
1000
0010
0001
0010
2000
0000
3001
,
0010
0100
0110
0000
1000
1000
0100
0000
,
0012
0000
0103
0000
1000
1000
0100
0000
,
0012
0000
0103
0000
1000
1000
0100
0000
,
0012
0000
0103
0000
0010
0010
0100
0001
,
0010
0000
0100
0000
1000
0000
0000
0001
0000
0000
0200
0000
0000
0000
0310
0000
,
1000
0000
0000
0000
0001
0000
0000
0010
0000
0000
0200
0000
0000
0000
1300
0000
,
0001
0000
0000
0000
0010
0000
0000
0001
0000
0000
0200
0000
0000
0000
0310
0000
,
1000
0002
0010
2003
,
3100
0000
1000
0000
0010
0000
0000
0010
0000
0000
0020
0000
0230
0000
0302
0000
,
1003
0000
0000
0000
0100
0000
0000
0100
0000
0000
0200
0000
0320
0000
0032
0000
,
1003
0001
0010
0100
1000
0001
1000
0010
,
1000
1200
0310
0201
,
0310
1000
0002
0000
0013
0100
0020
0000
,
0031
0100
0002
0000
1003
0100
2000
0000
,
3010
0100
0010
1000
0002
0000
0023
0000
,
0200
0330
1000
0100
,
0010
0000
0001
0000
0110
0000
1000
1000
,
0100
0000
0012
0000
0103
0000
1000
1000
,
0100
0000
0012
0000
0103
0000
1000
1000
,
0100
0000
0012
0000
0103
0000
0010
0010
,
0100
0001
0010
0000
0110
0000
1000
1000
,
0100
0000
0012
0000
0103
0000
1000
1000
,
0100
0000
0012
0000
0103
0000
1000
1000
,
0100
0000
0012
0000
0103
0000
0010
0010
,
0100
0001
0010
0100
1000
0000
1001
0000
,
0001
0010
0100
0010
0001
0100
0010
2000
,
0000
3001
0010
0100
1000
0000
1001
0000
,
0001
0100
0001
1000
0010
0001
0010
2000
,
0000
3001
0010
0100
0110
0000
1000
1000
,
0100
0000
0012
0000
0103
0000
1000
1000
,
0100
0000
0012
0000
0103
0000
1000
1000
,
0100
0000
0012
0000
0103
0000
0010
0010
,
0100
0001
0020
0000
1030
0001
0100
1000
,
0010
1000
0001
0010
0100
0001
0100
1000
,
0010
1000
0001
0100
0010
1000
0100
1000
,
0010
1000
0001
0010
0001
1000
0100
1000
,
0010
0100
0001
1000
0000
0000
0000
0000
;

//---------------dance-double - ----------------
#NOTEDATA:;
#CHARTNAME:;
#STEPSTYPE:dance-double;
#DESCRIPTION:;
#CHARTSTYLE:;
#DIFFICULTY:Easy;
#METER:6;
#RADARVALUES:0.232300,0.320163,0.152686,0.190857,0.000000,213.000000,193.000000,20.000000,25.000000,0.000000,0.000000,0.000000,0.000000,0.000000,0.232300,0.320163,0.152686,0.190857,0.000000,213.000000,193.000000,20.000000,25.000000,0.000000,0.000000,0.000000,0.000000,0.000000;
#CREDIT:led_light;
#NOTES:
// measure 0
00000000
00000000
00000000
00000000
,  // measure 1
00000000
00000000
00000000
00000000
,  // measure 2
00000000
00000000
00000000
00000000
,  // measure 3
00000000
00000000
00000000
00000000
,  // measure 4
00000000
00000000
00000000
00000000
,  // measure 5
00010000
00011000
00000010
00000000
,  // measure 6
00002000
00003000
00000001
00001001
,  // measure 7
00000100
00000010
00000100
00000010
,  // measure 8
00002000
00003000
00020000
00030000
,  // measure 9
00001000
00011000
00100000
00000000
,  // measure 10
00020000
00030000
10000000
10010000
,  // measure 11
00000000
00100000
01000000
00100000
,  // measure 12
00010000
00010000
00001000
00011000
,  // measure 13
00000200
00000000
00000300
00000110
,  // measure 14
00000001
00001000
00000001
00000110
,  // measure 15
00000001
00000001
00000010
00000010
,  // measure 16
00001000
00010000
00002000
00003000
,  // measure 17
00011000
00010000
00000100
00000000
,  // measure 18
00000100
00010000
00001000
00000000
,  // measure 19
01000000
00001000
00010000
00000000
,  // measure 20
00010000
00001000
00100000
00001000
,  // measure 21
00021000
00000000
00000000
00000000
,  // measure 22
00000100
00000000
00000100
00000000
,  // measure 23
00032000
00000000
00000000
00000000
,  // measure 24
01000000
00000000
01000000
00000000
,  // measure 25
00013000
00010000
01000000
00000000
,  // measure 26
00100000
00100000
00010000
00000000
,  // measure 27
20000000
00000000
00000000
00000000
,  // measure 28
30000000
01100000
10000000
00000000
,  // measure 29
00010000
00000000
10000000
00000000
,  // measure 30
00010000
00000000
00001000
00000000
,  // measure 31
00000001
00000000
00001000
00001000
,  // measure 32
00000000
00000110
00001000
00000000
,  // measure 33
00000001
00000000
00001000
00000000
,  // measure 34
00010000
00000000
10000000
00000000
,  // measure 35
00010000
00000000
10000000
10000000
,  // measure 36
00000000
00001000
00011000
00010000
,  // measure 37
00000010
00000000
00001000
00000000
00000000
00000002
00000000
00000000
,  // measure 38
00000003
00001000
00001001
00000001
,  // measure 39
00000010
00000000
00001000
00000000
00000000
00020000
00000000
00000000
,  // measure 40
01030000
00000000
10000000
00000000
,  // measure 41
00010000
00000000
10000000
00000000
,  // measure 42
00010000
00000000
00001000
00000000
,  // measure 43
00000001
00000000
00001000
00000001
,  // measure 44
00001001
00000020
00000000
00000000
,  // measure 45
00000030
00000200
00000000
00000000
,  // measure 46
00000300
00000002
00000000
00000000
,  // measure 47
00000003
00002000
00003000
00000200
,  // measure 48
00000300
00000010
00000010
00000010
,  // measure 49
00001000
00010000
00010000
00010000
,  // measure 50
01000000
10000000
10000000
00010000
,  // measure 51
00100000
00002000
01003000
00002000
,  // measure 52
00013000
00201000
00000000
00302000
,  // measure 53
00000000
00023000
00000000
00030020
,  // measure 54
00000000
00000130
00000100
00001000
,  // measure 55
00020000
00030000
01000000
01000000
,  // measure 56
00100000
01000000
01100000
10000000
,  // measure 57
00000000
00010000
00000000
10000000
,  // measure 58
00000000
00010000
00000000
00001000
,  // measure 59
00000000
00000001
00000000
00001000
,  // measure 60
00001000
00000000
00000110
00001000
,  // measure 61
00000000
00000001
00000000
00001000
,  // measure 62
00000000
00010000
00000000
10000000
,  // measure 63
00000000
00010000
00000000
10000000
,  // measure 64
10000000
00000000
00001000
00011000
,  // measure 65
00010000
00000000
00000010
00000000
00001000
00000000
00000000
00000002
,  // measure 66
00000000
00000003
00001000
00001001
,  // measure 67
00000001
00000000
00000010
00000000
00001000
00000000
00000000
00020000
,  // measure 68
00000000
01030000
00000000
10000000
,  // measure 69
00000000
00010000
00000000
10000000
,  // measure 70
00000000
00010000
00000000
00001000
,  // measure 71
00000000
00000001
00000000
00001000
,  // measure 72
00000001
00001001
00001000
00000100
,  // measure 73
00000010
00000001
00000100
00000100
,  // measure 74
00000010
00010000
00000010
00000100
,  // measure 75
00000010
00010000
00010000
00000100
,  // measure 76
00000010
00000001
00000000
00000000
;

//---------------dance-double - ----------------
#NOTEDATA:;
#CHARTNAME:;
#STEPSTYPE:dance-double;
#DESCRIPTION:;
#CHARTSTYLE:;
#DIFFICULTY:Medium;
#METER:10;
#RADARVALUES:0.368627,0.407480,0.137417,0.320640,0.000000,338.000000,320.000000,18.000000,42.000000,0.000000,0.000000,0.000000,0.000000,0.000000,0.368627,0.407480,0.137417,0.320640,0.000000,338.000000,320.000000,18.000000,42.000000,0.000000,0.000000,0.000000,0.000000,0.000000;
#CREDIT:led_light;
#NOTES:
// measure 0
00000000
00000000
00000000
00000000
,  // measure 1
00000000
00000000
00000000
00000000
,  // measure 2
00000000
00000000
00000000
00000000
,  // measure 3
00000000
00000000
00000000
00000000
,  // measure 4
00000000
00000000
00000000
00000000
,  // measure 5
00000001
00000010
00000001
00000000
00000100
00000000
00000010
00000000
,  // measure 6
00001000
00000000
00000100
00010000
00000000
00010000
00001000
00000000
,  // measure 7
00100000
00100000
00001000
00000000
00010000
00010000
00100000
00000000
,  // measure 8
20000000
00000000
30010000
00200000
00000000
00300000
01100000
00000000
,  // measure 9
10000000
01000000
10000000
00000000
00100000
00000000
01000000
00000000
,  // measure 10
00010000
00000000
00100000
00001000
00000000
00001000
00010000
00000000
,  // measure 11
00000000
00000000
00000100
00001000
00000100
00000000
00010000
00000000
,  // measure 12
00001000
00001000
00010000
00011000
,  // measure 13
00000020
00000000
00000030
00001001
,  // measure 14
00000001
00000100
00000010
00000000
00001000
00000100
00000010
00000000
,  // measure 15
00001000
00010000
01000000
00000000
00010000
00001000
00000100
00000000
,  // measure 16
00001000
00001000
00001000
00000000
00020000
00000000
00030000
00000000
,  // measure 17
00011000
00000000
00001000
00000000
00100000
00010000
01000000
00000000
,  // measure 18
00010000
00000000
10000000
00000000
01000000
10000000
00100000
00000000
,  // measure 19
10000000
00000000
00010000
00000000
10000000
01000000
00010000
00000000
,  // measure 20
00001000
00001000
00010000
00001000
,  // measure 21
00021000
00000000
00001000
00001000
,  // measure 22
00000100
00001000
00000010
00031000
,  // measure 23
00012000
00000000
00010000
00010000
,  // measure 24
00100000
00010000
01000000
00013000
,  // measure 25
00001000
00001000
00010100
00001000
,  // measure 26
00000010
00010000
00000100
00000000
00010000
00000000
00001000
00000000
,  // measure 27
01000000
00100000
20000000
00000000
00000000
00000000
00020000
00000000
,  // measure 28
30030000
00000000
01100000
00000000
10000000
10000000
00000000
00000000
,  // measure 29
00020000
00000000
00030000
00000000
10000000
10000000
00000000
00000000
,  // measure 30
00020000
00000000
00030000
00000000
00001000
00001000
00000000
00000000
,  // measure 31
00000002
00000000
00000003
00000000
00000010
00000100
00000010
00000100
,  // measure 32
00001000
00000000
00000110
00000000
00001000
00001000
00000000
00000000
,  // measure 33
00000002
00000000
00000003
00000000
00001000
00001000
00000000
00000000
,  // measure 34
00020000
00000000
00030000
00000000
10000000
10000000
00000000
00000000
,  // measure 35
00020000
00000000
00030000
00000000
01000000
00100000
01000000
00100000
,  // measure 36
10000000
00000000
00010000
00000000
11000000
00000000
00100000
00010000
,  // measure 37
00100000
00000000
00100000
00001000
00000000
02000000
00000000
03001000
,  // measure 38
00010000
00000000
00000100
00000000
00011000
00000000
00000010
00001000
,  // measure 39
00000010
00000000
00001000
00000100
00000000
00000002
00000000
00000103
,  // measure 40
00001000
00000000
00000110
00000000
00001000
00001000
00000000
00000000
,  // measure 41
00000002
00000000
00000003
00000000
00001000
00001000
00000000
00000000
,  // measure 42
00020000
00000000
00030000
00000000
10000000
10000000
00000000
00000000
,  // measure 43
00020000
00000000
00030000
00000000
01000000
00100000
01000000
00100000
,  // measure 44
20000000
30000000
00010000
00000000
,  // measure 45
00010000
00000000
00100000
00000000
,  // measure 46
00100000
00000000
10000000
00000000
,  // measure 47
10000000
02000000
03000000
00020000
,  // measure 48
00030000
00000000
10000000
00000000
10000000
00000000
10000000
01000000
,  // measure 49
00010000
00000000
00001000
00000000
00001000
00000000
00001000
00000100
,  // measure 50
00000001
00000000
00000100
00000010
00001000
00000000
00000100
00000010
,  // measure 51
00000001
00002000
00003001
00000002
,  // measure 52
00000103
00001020
00000100
00020030
,  // measure 53
00000100
00030020
00000100
00020030
,  // measure 54
00031000
00000000
00100000
00010000
02000000
00000000
03200000
00000000
,  // measure 55
20000000
30300000
10000000
01000000
,  // measure 56
00100000
00000000
00010000
00000000
01100000
00000000
10000000
10000000
,  // measure 57
00010000
00000000
00020000
00000000
01030000
00000000
10000000
10000000
,  // measure 58
00010000
00000000
00020000
00000000
00130000
00000000
10000000
10000000
,  // measure 59
00010000
00000000
00020000
00000000
00130000
00000000
00001000
00010000
,  // measure 60
00001000
00010000
00000010
00000000
00000110
00000000
00001000
00001000
,  // measure 61
00000001
00000000
00000002
00000000
00000103
00000000
00001000
00001000
,  // measure 62
00000001
00000000
00000002
00000000
00000013
00000000
00001000
00001000
,  // measure 63
00000001
00000000
00000002
00000000
00000013
00000000
00001000
00010000
,  // measure 64
00001000
00010000
00000100
00000000
00010000
00000000
00011000
00000000
,  // measure 65
00100000
00010000
01000000
00000000
00010000
10000000
00000000
02000000
,  // measure 66
00000000
03100000
00010000
00000000
00100000
00000000
11000000
00000000
,  // measure 67
00010000
01000000
00001000
00000000
00010000
00001000
00000000
00000020
,  // measure 68
00000000
00000031
00001000
00000000
00000110
00000000
00001000
00001000
,  // measure 69
00000001
00000000
00000002
00000000
00000103
00000000
00001000
00001000
,  // measure 70
00000001
00000000
00000002
00000000
00000013
00000000
00001000
00001000
,  // measure 71
00000001
00000000
00000002
00000000
00000013
00000000
00001000
00010000
,  // measure 72
00001000
00010000
00000100
00000000
00001000
00000001
00000100
00000000
,  // measure 73
00000010
00000100
00000001
00000000
00000100
00001000
01000000
00000000
,  // measure 74
00100000
10000000
00010000
00000000
00100000
00010000
01000000
00000000
,  // measure 75
00100000
10000000
00010000
00000000
00010000
00100000
01000000
10000000
,  // measure 76
00100000
10000000
00010000
00000000
00000000
00000000
00000000
00000000
;

//---------------dance-double - ----------------
#NOTEDATA:;
#CHARTNAME:;
#STEPSTYPE:dance-double;
#DESCRIPTION:;
#CHARTSTYLE:;
#DIFFICULTY:Hard;
#METER:14;
#RADARVALUES:0.550759,0.728836,0.335909,0.465691,0.167954,505.000000,461.000000,44.000000,61.000000,0.000000,0.000000,0.000000,0.000000,0.000000,0.550759,0.728836,0.335909,0.465691,0.167954,505.000000,461.000000,44.000000,61.000000,0.000000,0.000000,0.000000,0.000000,0.000000;
#CREDIT:led_light;
#NOTES:
00000000
00000000
00000000
00000000
,
00000000
00000000
00000000
00000000
,
00000000
00000000
00000000
00000000
,
00000000
00000000
00000000
00000000
,
00000000
00000000
00000000
00000000
,
00011000
00010000
00001000
00100000
00010000
00000000
10000000
00010000
,
02000000
00000000
03100000
01000000
00000000
00001000
00010000
00001000
,
00000010
00000010
00000001
00000001
00000100
00000100
00000010
00001000
,
00000002
00000000
00001003
00000200
00000010
00000300
00000110
00000000
,
00010000
00001000
00010000
00000100
00000010
00000000
00000001
00001000
,
00000020
00000000
00000130
00000010
00000000
00010000
00001000
00010000
,
01000000
00000000
10000000
01000000
00100000
01000000
00100000
00010000
,
10010000
00000000
00100000
00010000
01000000
00001000
00011000
00000000
,
01000000
00010000
01000000
00100000
10000000
00010000
00100000
01000000
10000000
00010000
00000000
00000000
,
10000000
01000000
00100000
00010000
00100000
00001000
00010000
00000010
00001000
00000001
00000000
00000000
,
00000100
00000001
00001000
00000100
00001000
00000001
00000010
00000100
00001000
00000100
00010000
00001000
,
01000000
00000000
01000000
00000000
00010000
00000000
01000000
00000000
01000000
00000000
00100000
00000000
20000000
00000000
00000000
30000000
00000000
00000000
01000000
00000000
00000000
00000000
00000000
00000000
,
10010000
00000000
00000000
00000000
00010000
00000000
00100000
01000000
00000000
00000000
10000000
00000000
01000000
00000000
00010000
00000000
,
00011000
00000000
00000000
00000000
00100000
00000000
00001000
00010000
00000000
00010000
00001000
00000000
00010000
00000000
00000100
00000000
,
00001100
00000000
00010000
00000000
00000100
00000000
00001000
00000010
00000000
00000010
00001000
00000000
00000001
00000000
00001000
00000000
,
00001100
00000000
00000011
00000000
00001010
00000010
00000100
00000001
,
00001002
00000000
00000010
00000000
00001003
00000200
00000301
00000200
,
00001300
00000200
00000310
00000200
00010300
00001000
01000000
00010000
,
20010000
00000000
01000000
00000000
30010000
00200000
10300000
00200000
,
00310000
00200000
01300000
00200000
00301000
00010000
00000010
00001000
,
00000100
00000000
00000010
00000000
00000021
00000000
00000000
00000000
00000130
00000000
00000000
00002000
00000000
00000000
00003001
00000000
,
00001000
00000000
00000010
00000000
00001010
00000000
00000100
00000000
00000002
00000000
00000000
00002003
00000000
00000000
00003100
00000000
,
00010000
00001000
00010000
00001000
00100000
00010000
10000000
00010000
00100000
00010000
00100000
00010000
01000000
00100000
10000000
00010000
,
10000000
00000000
01100000
00000000
10000000
10000000
00100000
00000000
,
00012000
00000000
01003000
00000000
00001000
00001000
00100000
00000000
,
02010000
00000000
03100000
00000000
10000000
10000000
01000000
00000000
,
00012000
00000000
00103000
00000000
00001000
00001000
00010000
00000010
,
00001000
00000000
00000110
00000000
00001000
00001000
00000100
00000000
,
00021000
00000000
00030010
00000000
00001000
00001000
00000010
00000000
,
00021000
00000000
00030100
00000000
00001000
00001000
00000100
00000000
,
00021000
00000000
00030010
00000000
00010000
00010000
00001000
01000000
,
00010000
10000000
00100000
00000000
01100000
00000000
10000000
00010000
,
00100000
00010000
01000000
00001000
00010000
00000200
00000000
00000310
,
00000100
00001000
00000001
00000000
00000110
00000000
00000001
00001000
,
00000001
00000100
00001000
00010000
00100000
20000000
00000000
30010000
,
00100000
01000000
01100000
00000000
10000000
10000000
00100000
00000000
,
00012000
00000000
01003000
00000000
00001000
00001000
00100000
00000000
,
02010000
00000000
03100000
00000000
10000000
10000000
01000000
00000000
,
00012000
00000000
00103000
00000000
00001000
00001000
00010000
00000010
,
00001000
00000000
00000001
00000000
00000010
00000000
00000000
00000100
00000000
00000000
00002000
00000000
00000000
00000000
00003100
00000000
,
00000010
00000000
00000000
00000000
00000001
00000000
00000000
00000100
00000000
00000000
00002000
00000000
00000000
00000000
00013000
00000000
,
00001000
00000000
00000000
00000000
00100000
00000000
00000000
01000000
00000000
00000000
20000000
00000000
00000000
00000000
31000000
00000000
,
00100000
00020000
01000000
20030000
,
31000000
00000000
10000000
00000000
00010000
00000000
00000000
00010000
00000000
00000000
02000000
00000000
03200000
00000000
20300000
00000000
,
30010000
00000000
00000000
00000000
00100000
00000000
00000000
00100000
00000000
00000000
00002000
00000000
02003000
00000000
03020000
00000000
,
00130000
00001000
00010000
00001000
00010000
00000010
00001000
00000100
,
00010000
00001000
00021000
00000000
00030100
00000000
00012000
00000000
,
01003000
00010000
00200000
00000000
01300000
00100000
00020000
00000000
,
01030000
00100000
00020000
00000000
00031000
00000100
00000020
00000000
,
00001030
00000100
00000010
00001000
00020000
00000000
00230000
00000000
,
02000000
03300000
10000000
01000000
,
00100000
00000000
00010000
00000000
01100000
00000000
10000000
10000000
,
00100000
00000000
00012000
00000000
01003000
00000000
00001000
00001000
,
00100000
00000000
02010000
00000000
03100000
00000000
10000000
10000000
,
01000000
00000000
00012000
00000000
00103000
00000000
00001000
00001000
,
00010000
00000010
00001000
00000000
00000110
00000000
00001000
00001000
,
00000100
00000000
00021000
00000000
00030010
00000000
00001000
00001000
,
00000010
00000000
00021000
00000000
00030100
00000000
00001000
00001000
,
00000100
00000000
00021000
00000000
00030010
00000000
00010000
00010000
,
00001000
01000000
00010000
10000000
00100000
00000000
01100000
00000000
,
10000000
00010000
00100000
00010000
01000000
00001000
00010000
00000200
,
00000000
00000310
00000100
00001000
00000001
00000000
00000110
00000000
,
00000001
00001000
00000001
00000100
00001000
00010000
00100000
20000000
,
00000000
30010000
00100000
01000000
01100000
00000000
10000000
10000000
,
00100000
00000000
00012000
00000000
01003000
00000000
00001000
00001000
,
00100000
00000000
02010000
00000000
03100000
00000000
10000000
10000000
,
01000000
00000000
00012000
00000000
00103000
00000000
00001000
00001000
,
00010000
01000000
10000000
00010000
10000000
00100000
01000000
00010000
,
00100000
00001000
00010000
00000010
00000100
00001000
00000100
00000001
,
00000010
00000100
00000001
00000100
00000010
00000001
00000100
00000001
,
00000010
00001000
00010000
01000000
00010000
00001000
00000100
00000001
,
00000010
00000100
00010000
00001000
00000000
00000000
00000000
00000000
;

//---------------dance-double - ----------------
#NOTEDATA:;
#CHARTNAME:;
#STEPSTYPE:dance-double;
#DESCRIPTION:;
#CHARTSTYLE:;
#DIFFICULTY:Challenge;
#METER:13;
#RADARVALUES:0.403527,0.583069,0.175589,0.221394,0.057257,370.000000,347.000000,23.000000,29.000000,480.000000,0.000000,0.000000,0.000000,0.000000,0.403527,0.583069,0.175589,0.221394,0.057257,370.000000,347.000000,23.000000,29.000000,480.000000,0.000000,0.000000,0.000000,0.000000;
#CREDIT:led_light;
#NOTES:
00000000
00000000
00000000
00000000
,
00000000
00000000
00000000
00000000
,
00000000
00000000
00000000
00000000
,
00000000
00000000
00000000
00000000
,
00000000
00000000
00000000
00000000
,
00010000
10000000
00010000
10000000
00100000
00000000
10000000
01000000
,
00200000
00000000
00301000
00010000
00000000
01000000
10000000
01000000
,
00010000
00010000
00001000
00001000
00000100
00000100
00000001
00001000
,
00000020
00000000
00000130
00000002
00000000
00000013
MMMMMMMM
00000000
,
00001000
00000001
00001000
00000001
00000010
00000000
00000001
00000100
,
00000020
00000000
00010030
00001000
00000000
00100000
01000000
00100000
,
MMMMMMMM
00000000
10000000
01000000
00100000
00010000
00100000
01000000
,
11000000
00000000
00010000
00001000
00000100
00000100
00000001
00000000
,
00000020
00001000
00000031
00000110
,
00001000
00000001
00000100
00000001
00001000
00000100
00010000
00000000
,
00001000
00100000
00010000
00100000
00000000
00000000
00010000
10000000
00100000
10000000
00000000
00000000
,
00010000
00000000
00100000
00000000
00010000
00000000
00100000
00000000
00010000
00000000
00100000
00000000
02000000
00000000
00000000
03000000
00000000
00000000
MMMMMMMM
00000000
00000000
00000000
00000000
00000000
,
10010000
00000000
00000000
00000000
00010000
00000000
10000000
01000000
00000000
00000000
01000000
00000000
10000000
00000000
00010000
00000000
,
10010000
00000000
00000000
00000000
01000000
00000000
00001000
00010000
00000000
00001000
00010000
00000000
00000100
00000000
00010000
00000000
,
00011000
00000000
00000000
00000000
00000100
00000000
00001000
00000001
00000000
00000100
00000001
00000000
00001000
00000000
00000010
00000000
,
00000011
00001010
00010100
00101000
,
20010000
00000000
01000000
00000000
31000000
00010000
MMMMMMMM
00001000
,
MMMMMMMM
00010000
MMMMMMMM
00001000
MMMMMMMM
00000100
00000001
00001000
,
00000002
00000000
00000010
00000000
00000013
00001000
MMMMMMMM
00010000
,
MMMMMMMM
00001000
MMMMMMMM
00010000
MMMMMMMM
00100000
10000000
00010000
,
00100000
00000000
00000000
00000000
10010000
00000000
00000000
00000000
01000000
00000000
00000000
10000000
00000000
00000000
00010000
00000000
,
00000000
00000000
01000000
00000000
00100000
00000000
00000000
00000000
00010000
00000000
00000000
00001000
00000000
00000000
00010000
00000000
,
00000000
02000000
20000000
00000000
03000000
00000000
00020000
30030000
,
MMMMMMMM
00000000
01100000
00000000
10000000
10000000
MMMMMMMM
00000000
,
00010000
00000000
MMMMMMMM
00000000
00001000
00001000
MMMMMMMM
00000000
,
00000001
00000000
MMMMMMMM
00000000
00001000
00001000
MMMMMMMM
00000000
,
00010000
00000000
MMMMMMMM
00000000
10000000
00100000
10000000
01000000
,
MMMMMMMM
00000000
01100000
00000000
10000000
10000000
MMMMMMMM
00000000
,
00010000
00000000
MMMMMMMM
00000000
00001000
00001000
MMMMMMMM
00000000
,
00000001
00000000
MMMMMMMM
00000000
00001000
00001000
MMMMMMMM
00000000
,
00010000
00000000
MMMMMMMM
00000000
10000000
00100000
10000000
01000000
,
MMMMMMMM
00000000
00001000
00000000
00011000
00000000
00010000
00000010
,
00001000
00000001
00000010
00000100
0001MMMM
00002000
MMMM0000
00103000
,
0001MMMM
00000000
10000000
00000000
10010000
00000000
00010000
01000000
,
00100000
10000000
00010000
00100000
MMMM1000
00020000
0000MMMM
01030000
,
10000000
00100000
01100000
00000000
10000000
10000000
MMMMMMMM
00000000
,
00010000
00000000
MMMMMMMM
00000000
00001000
00001000
MMMMMMMM
00000000
,
00000001
00000000
MMMMMMMM
00000000
00001000
00001000
MMMMMMMM
00000000
,
00010000
00000000
MMMMMMMM
00000000
10000000
00100000
10000000
01000000
,
MMMMMMMM
00002000
00100000
00000000
,
00100000
00023000
01000000
00000000
,
01000000
00032000
00000100
00000000
,
00000100
00023000
00000100
00030020
,
00001000
00000000
00010030
00000000
00010000
00000000
00010000
00001000
,
00000010
00000000
00001000
00000000
00001000
00000000
00001000
00010000
,
01000000
00000000
00100000
00001000
00010000
00000000
00000100
00001000
,
00000010
00000102
00001003
00002100
,
00003100
00000010
00000002
00000000
00000010
00000000
00002003
00000000
,
00000100
00003020
00000100
00020030
,
00031000
00000000
01000000
00100000
20000000
00000000
32000000
00000000
,
00200000
03300000
MMMMMMMM
00000000
10000000
00000000
01000000
00000000
,
00100000
00000000
00010000
00000000
01100000
00000000
10000000
10000000
,
MMMMMMMM
00000000
00010000
00000000
MMMMMMMM
00000000
00001000
00001000
,
MMMMMMMM
00000000
00000001
00000000
MMMMMMMM
00000000
00001000
00001000
,
MMMMMMMM
00000000
00010000
00000000
MMMMMMMM
00000000
10000000
00100000
,
10000000
01000000
MMMMMMMM
00000000
01100000
00000000
10000000
10000000
,
MMMMMMMM
00000000
00010000
00000000
MMMMMMMM
00000000
00001000
00001000
,
MMMMMMMM
00000000
00000001
00000000
MMMMMMMM
00000000
00001000
00001000
,
MMMMMMMM
00000000
00010000
00000000
MMMMMMMM
00000000
10000000
00100000
,
10000000
01000000
MMMMMMMM
00000000
00001000
00000000
00011000
00000000
,
00010000
00000010
00001000
00000001
00000010
00000100
0001MMMM
00002000
,
MMMM0000
00103000
0001MMMM
00000000
10000000
00000000
10010000
00000000
,
00010000
01000000
00100000
10000000
00010000
00100000
MMMM1000
00020000
,
0000MMMM
01030000
10000000
00100000
01100000
00000000
10000000
10000000
,
MMMMMMMM
00000000
00010000
00000000
MMMMMMMM
00000000
00001000
00001000
,
MMMMMMMM
00000000
00000001
00000000
MMMMMMMM
00000000
00001000
00001000
,
MMMMMMMM
00000000
00010000
00000000
MMMMMMMM
00000000
10000000
00100000
,
10000000
01000000
MMMMMMMM
00000000
00001000
00010000
01000000
00000000
,
00100000
00001000
00010000
00000000
00000100
00001000
00000100
00000000
,
00000010
00001000
00010000
00000000
00000010
00001000
00000100
00000000
,
00100000
00001000
00010000
00000000
00010000
00001000
00000100
00000001
,
00000010
00001000
00010000
00001000
00000000
00000000
00000000
00000000
;
