#TITLE:学猫叫;
#SUBTITLE:(Official EDM Ver.);
#ARTIST:Wengie, XiaoPanPan, XiaoFengFeng;
#TITLETRANSLIT:Learn To Meow;
#SUBTITLETRANSLIT:;
#ARTISTTRANSLIT:;
#GENRE:World Music;
#CREDIT:;
#BANNER:Learn To Meow (Official EDM Ver.).png;
#BACKGROUND:../bg.png;
#LYRICSPATH:;
#CDTITLE:../cdtitle.png;
#MUSIC:Learn To Meow (Official EDM Ver.).ogg;
#OFFSET:1.743000;
#SAMPLESTART:95.819000;
#SAMPLELENGTH:15.000000;
#LASTBEATHINT:1.424083;
#SELECTABLE:YES;
#BPMS:0.000000=115.000000
;
#STOPS:
;
#BGCHANGES:3.375=Learn To Meow (Official EDM Ver.).avi=1.000=0=0=0=StretchNoLoop====,
99999=-nosongbg-=1.000=0=0=0 // don't automatically add -songbackground-
;
#KEYSOUNDS:;
#ATTACKS:;

//---------------dance-single - ----------------
#NOTES:
     dance-single:
     :
     Beginner:
     1:
     0.048186,0.095456,0.013492,0.026984,0.000000,50.000000,48.000000,2.000000,4.000000,0.000000,0.000000,0.048186,0.095456,0.013492,0.026984,0.000000,50.000000,48.000000,2.000000,4.000000,0.000000,0.000000:
0000
0000
0000
0000
,
0000
0000
0000
0000
,
0000
0000
0000
0000
,
0000
0000
0000
0000
,
0000
0000
0000
0000
,
0100
0000
0000
0000
,
0000
0000
0000
0000
,
0100
0000
0000
0000
,
0000
0000
0000
0000
,
1000
0000
0000
0000
,
1000
0000
0000
0000
,
0001
0000
0000
0000
,
0000
0000
0000
0000
,
1001
0000
0000
0000
,
0000
0000
0000
0000
,
1001
0000
0000
0000
,
0000
0000
0000
0000
,
0100
0000
0000
0000
,
0100
0000
0000
0000
,
0020
0000
0000
0000
,
0030
0000
0000
0000
,
0000
0000
0000
0000
,
1000
0000
0000
0000
,
1000
0000
0000
0000
,
0001
0000
0000
0000
,
0000
0000
0000
0000
,
0001
0000
0000
0000
,
0001
0000
0000
0000
,
1000
0000
0000
0000
,
0000
0000
0000
0000
,
0010
0000
0000
0000
,
0010
0000
0000
0000
,
0100
0000
0000
0000
,
0000
0000
0000
0000
,
0100
0000
0000
0000
,
0100
0000
0000
0000
,
0010
0000
0000
0000
,
0000
0000
0000
0000
,
0000
0000
0000
0000
,
1000
0000
0000
0000
,
0000
0000
0000
0000
,
0001
0000
0000
0000
,
0000
0000
0000
0000
,
1000
0000
0000
0000
,
0100
0000
0000
0000
,
0010
0000
0000
0000
,
0000
0000
0000
0000
,
0001
0000
0000
0000
,
0001
0000
0000
0000
,
1000
0000
0000
0000
,
1000
0000
0000
0000
,
0010
0000
0000
0000
,
0010
0000
0000
0000
,
0200
0000
0000
0000
,
0300
0000
0000
0000
,
0100
0000
0000
0000
,
0000
0000
0000
0000
,
0001
0000
0000
0000
,
0000
0000
0000
0000
,
1000
0000
0000
0000
,
1000
0000
0000
0000
,
0001
0000
0000
0000
,
0020
0000
0030
0000
,
0001
0000
0000
0000
,
0001
0000
0000
0000
,
1000
0000
0000
0000
,
1000
0000
0000
0000
,
0100
0000
0000
0000
,
0100
0000
0000
0000
,
0010
0000
0000
0000
,
0020
0000
0000
0030
;

//---------------dance-single - ----------------
#NOTES:
     dance-single:
     :
     Easy:
     4:
     0.145521,0.214776,0.053968,0.060714,0.000000,151.000000,143.000000,8.000000,9.000000,0.000000,0.000000,0.145521,0.214776,0.053968,0.060714,0.000000,151.000000,143.000000,8.000000,9.000000,0.000000,0.000000:
0000
0000
0000
0000
,
0000
0000
0000
0000
,
0000
0000
0000
0000
,
0000
0000
0000
0000
,
0000
0000
0000
0000
,
1000
0000
1000
0000
,
0001
0000
0000
0000
,
0001
0000
0001
0000
,
1000
0000
0000
0000
,
2000
0000
3001
0000
,
0002
0000
0103
0000
,
0010
0000
1000
0000
,
0020
0000
0030
0000
,
1001
0001
1000
0000
,
0100
0100
0100
0000
,
1001
1000
0001
0000
,
0100
0100
0100
0000
,
0001
0001
0010
0000
,
0100
0100
1000
0000
,
0010
0000
0100
0000
,
0020
0000
0030
0000
,
0000
0000
0000
0000
,
1000
0000
0001
0000
,
1000
0000
1000
0000
,
0001
0000
1000
0000
,
0001
0000
0000
0000
,
0001
0000
1000
0000
,
0001
0000
0001
0000
,
1000
0000
0001
0000
,
1000
0000
0000
0000
,
1000
0100
0001
0000
,
1000
0010
0001
0000
,
0001
1000
1000
0000
,
0100
0010
0001
0001
,
1000
0010
0001
0000
,
1000
0100
0001
0000
,
0001
0000
1000
0000
,
0010
0010
0200
0000
,
0300
0000
0000
0000
,
0001
0000
0001
0000
,
0010
0000
0000
0000
,
0100
0000
0010
0000
,
0100
0000
0000
0000
,
1000
0000
0000
0000
,
1000
0000
0000
0000
,
0010
0000
0100
0000
,
0020
0000
0030
0000
,
0010
0010
1001
0000
,
0001
1000
0001
0000
,
1000
1000
0100
0000
,
0010
0010
0001
0000
,
1000
0000
0001
0000
,
0100
0010
0100
0000
,
0001
0001
1000
1000
,
0002
0000
0003
0000
,
0100
0000
1001
0000
,
0010
0000
1001
0000
,
1000
0000
0001
0000
,
1000
0000
0110
0000
,
0000
0001
0000
0001
,
0000
1000
1000
0000
,
0010
0000
0100
0000
,
0020
0000
0030
0000
,
1001
1000
0001
0000
,
0100
0100
0100
0000
,
1001
0001
1000
0000
,
0100
0100
0100
0000
,
1000
1000
0010
0000
,
0100
0100
0001
0000
,
0010
0100
0010
0100
,
0020
0000
0000
0030
;

//---------------dance-single - ----------------
#NOTES:
     dance-single:
     :
     Medium:
     6:
     0.242856,0.286368,0.141666,0.094444,0.000000,252.000000,231.000000,21.000000,14.000000,0.000000,0.000000,0.242856,0.286368,0.141666,0.094444,0.000000,252.000000,231.000000,21.000000,14.000000,0.000000,0.000000:
0000
0000
0000
0000
,
0000
0000
0000
0000
,
0000
0000
0000
0000
,
0000
0000
0000
0000
,
0000
0000
0000
0000
,
1000
1000
0001
0000
,
0100
0010
0100
0000
0001
0000
0000
0000
,
0010
0010
0100
0000
,
1000
0001
1000
0000
0100
0000
0000
0000
,
2000
0010
0000
3010
,
0002
0100
0000
0103
,
2000
0100
0000
3100
,
0002
0010
0000
0013
,
0011
0001
1000
0001
,
0100
0010
0100
0000
0001
0000
1000
0000
,
1100
1000
0001
1000
,
0010
0100
0010
0000
1000
0000
0001
0000
,
1000
0100
1000
0000
0100
0000
0010
0000
,
0001
0100
0001
0000
2000
0000
3000
0000
,
0100
1000
0010
0000
0100
0001
0010
0000
,
0200
0000
0300
0000
,
0000
0000
0000
0000
0100
0100
0010
0000
,
0001
0101
1000
0001
,
1000
1100
0001
1000
,
0010
0110
1000
0001
,
0010
0010
0100
0000
,
1000
1100
0001
1000
,
0001
0101
1000
0001
,
0010
0110
0001
1000
,
0020
0100
0030
0010
,
0100
1001
0010
1000
,
0100
1001
0010
0001
,
0100
1100
0001
1000
,
0010
0010
0001
0000
,
0010
1001
0100
1000
,
0010
1001
0100
0001
,
0020
0100
0030
0001
,
1000
0010
0010
0200
,
0300
0000
0000
0000
,
0010
0000
0010
0000
,
1000
1000
0001
0000
,
0010
0000
0100
0010
,
0200
0000
0300
0000
,
1000
0000
1000
0000
,
0010
0010
0100
0000
,
0001
0000
1000
0001
,
2000
0000
3000
0000
,
0110
0010
0100
0010
,
1000
0001
1000
0000
0100
0000
0010
0000
,
0110
0010
0100
0010
,
0001
1000
0001
0000
0100
0000
0010
0000
,
1000
1000
0100
0000
,
0001
0001
0010
0000
,
1000
0000
0001
0000
0100
0010
1000
0000
,
0002
0000
0003
0000
,
0001
0000
1100
0000
,
0010
0100
0010
0000
0011
0000
0000
0000
,
1000
0000
0101
0000
,
0010
0100
0110
0000
,
0000
1000
0100
0000
0000
0001
0100
0000
,
0000
1000
0100
0000
1000
0000
1100
0000
,
0001
0000
0010
0000
0001
0100
0010
0000
,
1000
0001
2000
0000
3100
0000
0000
0000
,
0010
0010
0100
0010
,
0001
1000
0001
0000
0100
0000
0000
0000
,
0010
0010
0100
0010
,
1000
0001
1000
0000
0100
0000
0010
0000
,
0001
0001
0100
0000
,
1000
1000
0010
0000
,
0001
0000
1000
0000
0100
0010
0001
0000
,
2000
0100
3010
0101
;

//---------------dance-single - ----------------
#NOTES:
     dance-single:
     :
     Hard:
     10:
     0.373921,0.454217,0.114682,0.121428,0.074206,388.000000,371.000000,17.000000,18.000000,0.000000,0.000000,0.373921,0.454217,0.114682,0.121428,0.074206,388.000000,371.000000,17.000000,18.000000,0.000000,0.000000:
0000
0000
0000
0000
,
0000
0000
0000
0000
,
0000
0000
0000
0000
,
0000
0000
0000
0000
,
0000
0000
0000
0000
,
1000
0100
0001
0000
0100
0000
0000
0000
,
1000
0100
1000
0000
0001
0000
0000
0000
,
0001
0010
1000
0000
0010
0000
0000
0000
,
0001
0010
0001
0000
1000
0000
0000
0000
,
0100
1000
0001
0000
0100
0000
0100
0000
,
0010
1000
0001
0000
0020
0000
0030
0000
,
0001
0010
0100
0000
1000
0000
0001
0000
,
2000
0010
3000
0010
,
1000
0010
0100
0000
0001
0000
1000
0000
,
0001
0010
0001
0010
0001
0000
1000
0000
,
0001
0100
0010
0000
1000
0000
0001
0000
,
1000
0100
1000
0100
1000
0000
0001
0000
,
1000
0100
0010
0000
0001
0100
0010
0000
,
1000
0100
0001
0100
1000
0000
1001
0000
,
0001
0100
0001
0100
0010
1000
0100
0010
,
0002
0000
0003
0000
,
0000
0000
0000
0000
0000
0000
0000
0000
0010
0001
1000
0100
0010
0000
0001
0000
,
1000
0000
1100
0000
0001
0100
1000
0000
,
0010
0000
0011
0000
1000
0100
0001
0000
,
0010
0000
1010
0000
0001
0100
0010
0000
,
1000
1000
0100
0100
0010
0001
1000
0000
,
0001
0000
0101
0000
1000
0100
0001
0000
,
0010
0000
1010
0000
0001
0100
1000
0000
,
0010
0000
0011
0000
1000
0100
0010
0000
,
0002
0000
0000
0000
0003
0000
0000
0000
0001
0000
0100
0001
0000
0001
0100
0000
,
0010
0000
0000
0000
0120
0030
0000
0000
0001
0000
0010
0100
0000
0100
0010
0000
,
1000
0000
0000
0000
0021
0030
0000
0000
1000
0000
0010
0100
0000
0100
0010
0000
,
0001
0000
0000
0000
2100
3000
0000
0000
0001
0000
0100
0010
0000
1000
0010
0000
,
1000
0000
1000
0000
0100
0000
0100
0000
0010
0000
0001
0100
0000
0001
1000
0000
,
0100
0000
0000
0000
0210
0300
0000
0000
0001
0000
0100
0010
0000
0010
0100
0000
,
1000
0000
0000
0000
0201
0300
0000
0000
1000
0000
0100
0010
0000
0010
0100
0000
,
0002
0010
0003
1000
,
0001
0000
0001
0000
0010
0000
0010
0000
0100
0000
1000
0010
0000
2000
0002
0000
,
0000
0000
0000
3000
,
0103
0000
0001
1000
0010
0000
0010
0000
,
0100
0001
0100
0001
0000
1000
0001
0000
,
0010
0000
0010
0000
1000
0010
0001
0000
,
2000
0100
3000
0100
,
1000
0001
0100
0000
0010
0000
0100
0000
,
0010
1000
0001
0000
0020
0000
0030
0000
,
0100
0000
0100
0000
0010
0001
1000
0000
,
0010
0100
0010
0100
0020
0000
0030
0000
,
1000
0100
0001
0100
1000
0000
1000
0001
,
0100
0010
0100
0010
0100
0000
0010
1000
,
0001
0010
1000
0010
0001
0000
0001
1000
,
0010
0100
0010
0100
0010
0000
0100
0001
,
1000
0100
0010
0100
1000
0000
0001
0100
,
0010
0100
0001
1000
0010
0000
1001
0000
,
0001
0000
0010
0000
0001
0100
0010
0000
,
2000
0000
0100
0000
3010
1000
0001
0000
,
0100
0100
1100
0000
,
0001
0010
0001
0000
1010
0000
0000
0000
,
0100
0001
0010
0000
1000
0010
0001
0000
,
0100
1000
0101
1000
,
0000
0001
0100
0001
0000
1000
0100
1000
,
0000
0010
0100
0010
1000
0001
1000
0000
,
0100
0100
0010
0010
0001
0100
0010
1000
,
0001
0010
0001
0000
1000
0100
1000
0000
0001
0000
0000
0000
0000
0000
0000
0000
,
1000
0010
0001
0010
1000
0000
1000
0001
,
0010
0100
0010
0100
0010
0000
0100
1000
,
0001
0100
1000
0100
0001
0000
0001
1000
,
0100
0010
0100
0010
0100
0000
0010
0001
,
1000
0010
0100
0010
1000
0000
0001
0010
,
0100
0010
0001
2000
3000
1000
0100
0000
,
1000
0010
1000
0010
0100
0001
0010
0100
,
2000
0000
0000
0100
3000
0000
1001
0000
0100
0000
0010
0000
1000
0001
1000
0000
;

//---------------dance-double - ----------------
#NOTES:
     dance-double:
     :
     Easy:
     4:
     0.136847,0.214776,0.060714,0.040476,0.000000,142.000000,133.000000,9.000000,6.000000,0.000000,0.000000,0.136847,0.214776,0.060714,0.040476,0.000000,142.000000,133.000000,9.000000,6.000000,0.000000,0.000000:
00000000
00000000
00000000
00000000
,
00000000
00000000
00000000
00000000
,
00000000
00000000
00000000
00000000
,
00000000
00000000
00000000
00000000
,
00000000
00000000
00000000
00000000
,
00010000
00000000
00000000
00000000
,
00000000
00000000
00000000
00000000
,
00001000
00000000
00000000
00000000
,
00000000
00000000
00000000
00000000
,
00010000
00000000
00000000
00000000
,
00010000
00000000
00000000
00000000
,
00001000
00000000
00000000
00000000
,
00000000
00000000
00000000
00000000
,
00011000
00001000
00001000
00000000
,
00100000
01000000
00100000
00000000
,
00011000
00010000
00010000
00000000
,
00000100
00000010
00000100
00000000
,
00001000
00000000
00000001
00000000
,
00000100
00001000
00010000
00000000
,
00200000
00000000
00000000
00000000
,
00300000
00000000
00000000
00000000
,
00000000
00000000
00000000
00000000
,
10000000
00000000
10000000
00000000
,
00010000
00000000
00010000
00000000
,
00001000
00000000
00000001
00000000
,
00001000
00000000
00000000
00000000
,
00000001
00000000
00000001
00000000
,
00001000
00000000
00001000
00000000
,
00010000
00000000
10000000
00000000
,
00010000
00000000
00000000
00000000
,
10000000
01000000
00010000
00000000
,
00001000
00000010
00000001
00000000
,
00000001
00000100
00001000
00000000
,
00010000
00001000
00000010
00000010
,
00000001
00000010
00001000
00000000
,
00010000
01000000
10000000
00000000
,
10000000
00100000
00010000
00000000
,
00001000
00000000
00020000
00000000
,
00030000
00000000
00000000
00000000
,
00000100
00000000
00000100
00000000
,
00001000
00000010
00001000
00000000
,
00000001
00000000
00000010
00000000
,
00000001
00000000
00000000
00000000
,
00001000
00000000
00000000
00000000
,
00000100
00000000
00000000
00000000
,
00010000
00000000
00001000
00000000
,
00020000
00000000
00030000
00000000
,
00001000
00001000
00011000
00000000
,
00001000
00100000
00001000
00000000
,
00010000
00010000
00001010
00000000
,
00000100
00000100
00000001
00000000
,
00000010
00000000
00000100
00000000
,
00000010
00000100
00000010
00000000
,
00001000
00001000
00010000
00010000
,
00002000
00000000
00003000
00000000
,
00100000
00000000
10010000
00000000
,
01000000
00000000
00011000
00000000
,
00000100
00000000
00000010
00000000
,
00000001
00000000
00001100
00000000
,
00000000
00000001
00000000
00000001
,
00000000
00000100
00000100
00000000
,
00000010
00000000
00010000
00000000
,
00000020
00000000
00000030
00000000
,
00010000
00010000
00011000
00000000
,
00010000
00000100
00010000
00000000
,
00001000
00001000
01010000
00000000
,
00100000
00100000
10000000
00000000
,
01000000
00000000
00100000
00000000
,
01000000
00100000
01000000
00000000
,
00010000
00010000
00001000
00001000
,
00020000
00000000
00000000
00030000
;

//---------------dance-double - ----------------
#NOTES:
     dance-double:
     :
     Medium:
     6:
     0.239965,0.286368,0.128174,0.074206,0.000000,249.000000,230.000000,19.000000,11.000000,0.000000,0.000000,0.239965,0.286368,0.128174,0.074206,0.000000,249.000000,230.000000,19.000000,11.000000,0.000000,0.000000:
00000000
00000000
00000000
00000000
,
00000000
00000000
00000000
00000000
,
00000000
00000000
00000000
00000000
,
00000000
00000000
00000000
00000000
,
00000000
00000000
00000000
00000000
,
00010000
00010000
00000100
00000000
,
00001000
00000001
00001000
00000000
00000010
00000000
00000000
00000000
,
00010000
00010000
00001000
00000000
,
00100000
00010000
00100000
00000000
00001000
00000000
00000000
00000000
,
00010000
00010000
01000000
00000000
,
10000000
10000000
00100000
00000000
,
00010000
00010000
00001000
00010000
,
00002000
00000000
00003000
00010000
,
00011000
00001000
00010000
00010000
,
00000100
00001000
00000100
00000000
00001000
00000000
00000001
00000000
,
00001001
00000001
00000100
00000100
,
00000010
00001000
00000010
00000000
00010000
00000000
00001000
00000000
,
01000000
00010000
01000000
00000000
00001000
00010000
00001000
00000000
,
00100000
00010000
00100000
00000000
02000000
00000000
03000000
00000000
,
10000000
00000000
00010000
00000000
01000000
00100000
10000000
00000000
,
00020000
00000000
00030000
00000000
,
00000000
00000000
00000000
00000000
01000000
00001000
00010000
00000000
,
00000100
00001100
00010000
00001000
,
01000000
01010000
00001000
00010000
,
00000010
00001010
00010000
00001000
,
00100000
00100000
01000000
00000000
,
00100000
00110000
00001000
00010000
,
00000010
00001010
00010000
00001000
,
01000000
01010000
00001000
00010000
,
00000200
00000010
00000300
00000010
,
00000001
00000110
00001000
00010000
,
00100000
01100000
00010000
00001000
,
00000010
00000110
00000001
00001000
,
00010000
00010000
00100000
00000000
,
10000000
01100000
00010000
00001000
,
00000100
00000110
00001000
00010000
,
02000000
00100000
03000000
00100000
,
00010000
00010000
01000000
00002000
,
00003000
00000000
00000000
00000000
,
00010000
00000000
00010000
00000000
,
00000010
00000010
00001000
00000000
,
00000001
00000000
00000010
00000100
,
00000020
00000000
00000030
00000000
,
00000100
00000000
00000100
00000000
,
00010000
00001000
00001000
00000000
,
00010000
00000000
01000000
00100000
,
02000000
00000000
03000000
00000000
,
10000000
10000000
00010000
10000000
,
00100000
01000000
00100000
00000000
01000000
00000000
00000000
00000000
,
00001000
00001000
00010000
00001000
,
00000100
00000010
00000100
00000000
00000001
00000000
00000000
00000000
,
00001000
00001000
00000100
00000000
,
00000001
00000001
00000010
00000000
,
00001000
00000000
00000100
00000000
00010000
00001000
00010000
00000000
,
00002000
00000000
00003000
00000000
,
00010000
00000000
11000000
00000000
,
00010000
00001000
00000101
00000000
,
00000010
00000000
00011000
00000000
,
00100000
00100000
01100000
00000000
,
00000000
10000000
00010000
00000000
00000000
00010000
00001000
00000000
,
00000000
00001000
00000001
00000000
00001000
00000000
00001001
00000000
,
00000010
00000000
00000100
00000000
00000010
00001000
00000100
00000000
,
00010000
00001000
00020000
00000000
00031000
00000000
00000000
00000000
,
00010000
00010000
00001000
00010000
,
01000000
00100000
01000000
00000000
10000000
00000000
00000000
00000000
,
00010000
00010000
10000000
00010000
,
01000000
00100000
01000000
00000000
00001000
00000000
00000000
00000000
,
00010000
00001000
00010000
00000000
00000100
00000000
00010000
00000000
,
00001000
00010000
00000010
00000000
00000100
00000000
00000000
00000000
,
00000001
00000000
00000001
00000000
00000010
00000100
00001000
00000000
,
00020000
00100000
01030000
10100000
;

//---------------dance-double - ----------------
#NOTES:
     dance-double:
     :
     Hard:
     10:
     0.366211,0.454217,0.114682,0.094444,0.064087,380.000000,363.000000,17.000000,14.000000,0.000000,0.000000,0.366211,0.454217,0.114682,0.094444,0.064087,380.000000,363.000000,17.000000,14.000000,0.000000,0.000000:
// measure 0
00000000
00000000
00000000
00000000
,  // measure 1
00000000
00000000
00000000
00000000
,  // measure 2
00000000
00000000
00000000
00000000
,  // measure 3
00000000
00000000
00000000
00000000
,  // measure 4
00000000
00000000
00000000
00000000
,  // measure 5
00010000
00001000
00010000
00000000
00001000
00000000
00000000
00000000
,  // measure 6
00001000
01000000
00100000
00000000
01000000
00000000
00000000
00000000
,  // measure 7
00001000
00010000
00001000
00000000
00010000
00000000
00000000
00000000
,  // measure 8
00010000
00000100
00000010
00000000
00000100
00000000
00000000
00000000
,  // measure 9
00001000
00000001
00001000
00000000
00000010
00000000
00000010
00000000
,  // measure 10
00000100
00000001
00001000
00000000
00000200
00000000
00000300
00000000
,  // measure 11
00000010
00000000
00000010
00000000
00001000
00010000
00001000
00000000
,  // measure 12
00020000
00100000
00030000
00100000
,  // measure 13
10000000
01000000
00100000
00000000
00010000
00000000
00010000
00000000
,  // measure 14
01000000
00010000
01000000
00010000
01000000
00000000
00001000
00000000
,  // measure 15
00010000
00000100
00000010
00000000
00000001
00000000
00000001
00000000
,  // measure 16
00000100
00000010
00000100
00000010
00000100
00000000
00000001
00000000
,  // measure 17
00001000
00000100
00010000
00000000
00000010
00001000
00000010
00000000
,  // measure 18
00010000
00001000
00010000
00001000
00010000
00000000
00011000
00000000
,  // measure 19
00001000
00010000
00001000
00010000
01000000
10000000
00100000
00010000
,  // measure 20
00002000
00000000
00003000
00000000
,  // measure 21
00000000
00000000
00000000
00000000
00000000
00000000
00000000
00000000
00100000
00010000
10000000
00000000
01000000
00000000
00000000
00000000
,  // measure 22
00100000
00000000
10010000
00000000
10000000
00100000
00010000
00000000
,  // measure 23
00001000
00000000
00011000
00000000
00010000
00001000
00000100
00000000
,  // measure 24
00000001
00000000
00001001
00000000
00000010
00001000
00000100
00000000
,  // measure 25
00010000
00010000
00001000
00001000
01000000
00010000
10000000
00000000
,  // measure 26
01000000
00000000
10010000
00000000
10000000
01000000
00010000
00000000
,  // measure 27
00001000
00000000
00011000
00000000
00010000
00001000
00000010
00000000
,  // measure 28
00000001
00000000
00001001
00000000
00000100
00001000
00000010
00000000
,  // measure 29
00020000
00000000
00000000
00000000
00030000
00000000
00000000
00000000
00001000
00000000
00100000
00010000
00000000
00010000
00100000
00000000
,  // measure 30
00001000
00000000
00000000
00000000
00011000
00000000
00000000
00000000
00010000
00000000
00100000
01000000
00000000
01000000
00100000
00000000
,  // measure 31
10000000
00000000
00000000
00000000
10010000
00000000
00000000
00000000
10000000
00000000
01000000
00100000
00000000
00100000
01000000
00000000
,  // measure 32
00010000
00000000
00000000
00000000
00011000
00000000
00000000
00000000
00001000
00000000
00000100
00000010
00000000
00000010
00000100
00000000
,  // measure 33
00000001
00000000
00000001
00000000
00000010
00000000
00000010
00000000
00000100
00000000
00001000
00000100
00000000
00010000
00000010
00000000
,  // measure 34
00010000
00000000
00000000
00000000
00011000
00000000
00000000
00000000
00001000
00000000
00000010
00000100
00000000
00000100
00000010
00000000
,  // measure 35
00000001
00000000
00000000
00000000
00001001
00000000
00000000
00000000
00000001
00000000
00000100
00000010
00000000
00000010
00000100
00000000
,  // measure 36
00002000
00013000
00020000
01030000
,  // measure 37
10000000
00000000
10000000
00000000
00100000
00000000
00100000
00000000
01000000
00000000
00010000
00100000
00000000
00002000
00020000
00000000
,  // measure 38
00000000
00000000
00000000
00003000
,  // measure 39
00030100
00000000
00010000
00001000
00010000
00000000
00010000
00000000
,  // measure 40
00000010
00001000
00000010
00001000
00000000
00000001
00000010
00000000
,  // measure 41
00000100
00000000
00000100
00000000
00010000
00001000
00010000
00000000
,  // measure 42
00002000
01000000
00003000
00010000
,  // measure 43
00001000
00100000
00010000
00000000
10000000
00000000
01000000
00000000
,  // measure 44
10000000
00010000
01000000
00000000
00200000
00000000
00300000
00000000
,  // measure 45
01000000
00000000
01000000
00000000
00001000
00010000
00000100
00000000
,  // measure 46
00000010
00000100
00000010
00000100
00000020
00000000
00000030
00000000
,  // measure 47
00000001
00000100
00001000
00000100
00000001
00000000
00000010
00000000
,  // measure 48
00001000
00010000
00001000
00010000
00001000
00000000
00001000
00000000
,  // measure 49
00010000
00100000
10000000
00100000
00010000
00000000
00001000
00000000
,  // measure 50
00010000
01000000
00010000
01000000
00010000
00000000
00001000
00000000
,  // measure 51
00100000
00010000
01000000
00010000
00001000
00000000
00000010
00010000
,  // measure 52
00001000
00010000
00000100
00001000
00000001
00000000
00000011
00000000
,  // measure 53
00000100
00000000
00000100
00000000
00000010
00000001
00000100
00000000
,  // measure 54
00000020
00000000
00000030
00000000
00000010
00000010
00010000
00000000
,  // measure 55
00001000
01000000
10010000
00000000
,  // measure 56
00010000
00100000
00010000
00000000
00101000
00000000
00000000
00000000
,  // measure 57
00010000
00001000
00000010
00000000
00000010
00000001
00000100
00000000
,  // measure 58
00001000
00001000
00010010
00000100
,  // measure 59
00000000
00000001
00000010
00000001
00000000
00001000
00000100
00001000
,  // measure 60
00000000
00000010
00001000
00000010
00010000
00001000
00010000
00000000
,  // measure 61
00001000
00001000
00100000
00100000
01000000
00100000
00001000
00010000
,  // measure 62
00100000
00100000
10000000
10000000
00010000
00000000
00000000
00000000
,  // measure 63
10000000
00100000
00010000
00100000
10000000
00000000
10000000
01000000
,  // measure 64
00010000
00001000
00010000
00001000
00010000
00000000
00010000
00001000
,  // measure 65
00000100
00000001
00000100
00001000
00010000
00000000
00001000
00010000
,  // measure 66
00001000
00000010
00001000
00000010
00001000
00000000
00001000
00010000
,  // measure 67
00000100
00001000
00000010
00001000
00010000
00000000
01000000
00001000
,  // measure 68
00010000
00001000
00100000
00020000
00030000
00010000
10000000
00000000
,  // measure 69
00100000
01000000
00100000
01000000
00010000
00100000
00001000
00010000
,  // measure 70
00000020
00000000
00000000
00001000
00000030
00000000
00001010
00000000
00000001
00000000
00000010
00000100
00001000
00000000
00000001
00000000
;

//---------------dance-single - ----------------
#NOTES:
     dance-single:
     :
     Challenge:
     13:
     0.515587,0.669372,0.263094,0.087698,0.212499,535.000000,496.000000,39.000000,13.000000,0.000000,0.000000,0.515587,0.669372,0.263094,0.087698,0.212499,535.000000,496.000000,39.000000,13.000000,0.000000,0.000000:
0000
0000
0000
0000
,
0000
0000
0000
0000
,
0000
0000
0000
0000
,
0000
0000
0000
0000
,
0000
0000
0000
0001
,
1000
0010
0001
0010
1000
0000
0100
0000
,
0010
0010
0010
0010
0010
0000
0001
0000
,
1000
0100
0001
0100
1000
0000
0010
0000
,
0100
0100
0100
0100
0100
0000
0001
0000
,
0010
0100
0001
0100
0010
0000
0010
0000
,
0001
0100
0010
0100
0001
0000
1001
0000
,
1000
0100
0010
0000
0001
1000
0010
0100
,
0020
0000
0001
0000
0130
0000
0010
1000
,
0001
0010
0100
0100
0010
0000
0010
0001
,
1000
1000
1000
1000
1000
0000
1000
0010
,
1000
0100
0010
0010
0100
0000
0100
1000
,
0001
0001
0001
0001
0001
0000
0001
0100
,
0001
0000
0010
0100
0010
0000
0010
1000
0010
0000
0001
0000
1000
0000
0100
0000
,
0010
0000
0000
0000
0000
0000
0100
0000
0000
0001
0000
0000
0100
0000
0000
0000
0000
0000
0100
0000
0000
0010
0000
0000
0100
0000
0000
0000
0000
0000
1000
0000
0001
0000
1000
0000
0001
0000
0000
0000
0000
0000
0100
0000
0000
0000
0000
0000
,
0010
0000
1100
0000
1010
0000
0011
0000
0001
0100
0001
0100
0010
1000
0100
0010
,
0002
0000
0003
0000
,
0000
0000
0000
0000
0000
0000
0000
0000
0001
0100
0010
1000
0010
0000
0100
0000
,
0001
0000
0000
0000
1100
0000
0000
0000
0010
0000
0100
0010
0000
0010
0100
0000
,
1000
0000
0000
0000
0101
0000
0000
0000
0010
0000
0100
0010
0000
0010
0100
0000
,
0001
0000
0000
0000
0011
0000
0000
0000
0100
0000
0010
0001
0000
0001
0100
0000
,
0010
0000
0010
0000
0001
0000
0001
0000
1000
0000
1000
0100
0000
0100
0010
0000
,
1000
0000
0000
0000
0011
0000
0000
0000
0100
0000
0010
0100
0000
0100
0010
0000
,
0001
0000
0000
0000
1010
0000
0000
0000
0100
0000
0010
0100
0000
0100
0010
0000
,
1000
0000
0000
0000
1100
0000
0000
0000
0010
0000
0100
1000
0000
1000
0001
0000
,
0200
0000
0000
0000
0300
0000
0000
0000
0110
0000
0001
0010
0100
1000
0100
0000
,
0010
0000
0100
0000
1001
0000
0100
0000
0110
0000
0001
0100
0010
0000
1000
0000
,
0100
0000
0010
0000
1001
0000
0010
0000
0110
0000
1000
0010
0100
0000
0001
0000
,
1000
0000
0001
0000
0110
0000
0001
0000
1001
0000
0010
0001
1000
0000
0100
0000
,
0010
0000
0010
0000
0001
0000
0001
0000
1000
0100
1000
0010
1000
0000
0001
0000
,
0100
0000
0010
0000
1001
0000
0010
0000
0110
0000
0001
0010
0100
0000
1000
0000
,
0010
0000
0100
0000
1001
0000
0100
0000
0110
0000
1000
0100
0010
0000
0001
0000
,
2000
0000
0000
0000
3100
0000
0000
0000
0001
0000
0100
0010
0000
0010
0100
0000
,
1000
0000
0010
0000
0001
0000
0010
0000
1000
0000
0001
0010
0000
0200
0020
0000
,
0000
0000
0000
0300
,
0130
0000
0010
1000
0010
0000
0010
0001
,
0010
0100
1000
0001
0000
0001
0100
0010
,
1000
0000
1000
0001
0010
0100
0010
0001
,
2000
0000
0100
3000
0001
0100
0010
1000
,
0001
0100
0001
0000
1000
0100
1000
0000
,
0010
0100
0010
2000
3000
1000
0001
0000
,
0100
0000
0100
0010
0100
0001
0010
0100
,
1000
0000
1000
0000
0001
0000
0001
0000
0100
0010
0100
0010
0100
0000
0010
0000
,
1000
0100
0001
0100
1000
0001
1001
0010
,
0100
0100
0100
0010
0100
0000
0110
0001
,
1000
0010
0001
0010
1000
0001
1001
0100
,
0010
0010
0010
0100
0010
0000
0110
0001
,
1000
0100
0001
0001
0100
0010
0100
1000
,
0001
1000
0010
0100
0001
0000
0101
0000
,
1000
0100
1000
0100
1000
0010
0100
0001
,
0020
0000
0000
0000
0100
0000
0000
0000
0031
0000
0001
0000
0100
0010
1000
0000
,
1001
0100
0011
0100
,
1000
0000
0100
0010
0001
0000
1000
0000
1100
0000
0000
0000
1000
0000
0000
0000
,
0001
0100
1000
0000
0001
0000
1000
0000
0100
0000
0001
0000
1000
0001
0010
0000
,
1000
0000
0001
1000
0010
0000
0001
0000
2001
0000
0000
0000
3000
0000
0000
0000
,
0100
0000
0010
0001
0010
0000
0100
0000
1000
0000
0010
1000
0010
0000
0100
0000
,
0001
0000
1000
0100
0010
0000
0001
1000
0010
0000
0100
0000
0110
0000
0000
0000
,
0100
0100
0010
0010
1000
1010
0001
0011
,
0010
0100
0010
0100
1000
0001
1000
0001
0200
0000
0300
0000
0010
0000
0100
0000
,
0001
0010
1000
0010
0001
1000
1001
0100
,
0010
0010
0010
0100
0010
0100
0110
1000
,
0001
0100
1000
0100
0001
1000
1001
0010
,
0100
0000
0100
0000
0100
0000
0010
0100
0010
0010
0100
0000
0110
0000
1000
0000
,
0001
0000
0010
1000
0010
0000
0010
0100
0010
0000
0001
0000
1000
0000
0010
0000
,
0100
0000
0001
0100
0001
0000
0020
0000
0030
0000
0100
0000
1001
0000
0010
0000
,
0100
0000
0001
0000
0100
0000
0001
0000
0010
0001
0100
0000
0010
0000
1000
0000
,
0200
0000
0000
0010
0300
0000
0110
0000
1000
0000
0010
0100
0001
1000
0001
0000
;

//---------------dance-double - ----------------
#NOTES:
     dance-double:
     :
     Challenge:
     13:
     0.507877,0.669372,0.269840,0.087698,0.192261,527.000000,487.000000,40.000000,13.000000,0.000000,0.000000,0.507877,0.669372,0.269840,0.087698,0.192261,527.000000,487.000000,40.000000,13.000000,0.000000,0.000000:
// measure 0
00000000
00000000
00000000
00000000
,  // measure 1
00000000
00000000
00000000
00000000
,  // measure 2
00000000
00000000
00000000
00000000
,  // measure 3
00000000
00000000
00000000
00000000
,  // measure 4
00000000
00000000
00000000
00001000
,  // measure 5
00100000
00010000
00001000
00010000
00100000
00000000
00001000
00000000
,  // measure 6
00000010
00000010
00000010
00001000
00010000
00000000
00010000
00000000
,  // measure 7
00000100
00001000
00010000
00001000
00000100
00000000
00010000
00000000
,  // measure 8
01000000
01000000
01000000
00010000
00001000
00000000
00001000
00000000
,  // measure 9
01000000
00100000
00010000
00100000
01000000
00000000
00001000
00000000
,  // measure 10
00010000
00001000
00000010
00000000
00000001
00000000
00000011
00000000
,  // measure 11
00001000
00000001
00000100
00000000
00000010
00001000
00000100
00000000
,  // measure 12
00020000
00000000
01000000
00000000
00030000
00000000
00001000
00010000
,  // measure 13
00100000
01000000
10000000
01000000
00010000
00000000
00110000
01000000
,  // measure 14
00100000
00100000
00100000
01000000
00010000
00000000
00010000
00001000
,  // measure 15
00000100
00000010
00000001
00000010
00001000
00000000
00001100
00000010
,  // measure 16
00000100
00000100
00000100
00000010
00001000
00000000
00001000
00010000
,  // measure 17
01000000
00000000
00010000
00001000
00010000
00000000
00001000
00000000
00000010
00000000
00000100
00000000
00010000
00000000
00001000
00000000
,  // measure 18
01000000
00000000
00000000
00000000
00000000
00000000
00100000
00000000
00000000
00010000
00000000
00000000
00100000
00000000
00000000
00000000
00000000
00000000
01000000
00000000
00000000
00010000
00000000
00000000
00100000
00000000
00000000
00000000
00000000
00000000
00001000
00000000
00010000
00000000
00001000
00000000
00010000
00000000
00000000
00000000
00000000
00000000
01000000
00000000
00000000
00000000
00000000
00000000
,  // measure 19
10000000
00000000
10100000
00000000
00110000
00000000
01010000
00000000
00100000
01000000
00100000
01000000
00010000
00100000
00010000
00100000
,  // measure 20
00002000
00000000
00003000
00000000
,  // measure 21
00000000
00000000
00000000
00000000
00000000
00000000
00000000
00000000
00010000
00000100
00001000
00000100
00010000
00000000
00001000
00000000
,  // measure 22
01000000
00000000
00000000
00000000
00011000
00000000
00000000
00000000
00000100
00000000
00001000
00000010
00000000
00000010
00001000
00000000
,  // measure 23
00000001
00000000
00000000
00000000
00000101
00000000
00000000
00000000
00000010
00000000
00001000
00000100
00000000
00000100
00010000
00000000
,  // measure 24
00001000
00000000
00000000
00000000
00110000
00000000
00000000
00000000
10000000
00000000
00100000
01000000
00000000
01000000
00010000
00000000
,  // measure 25
10000000
00000000
10000000
00000000
01000000
00000000
01000000
00000000
00100000
00000000
00001000
00010000
00000000
00010000
00001000
00000000
,  // measure 26
00000100
00000000
00000000
00000000
00011000
00000000
00000000
00000000
01000000
00000000
00010000
00100000
00000000
00100000
00010000
00000000
,  // measure 27
10000000
00000000
00000000
00000000
11000000
00000000
00000000
00000000
00100000
00000000
00010000
01000000
00000000
01000000
00001000
00000000
,  // measure 28
00010000
00000000
00000000
00000000
00001010
00000000
00000000
00000000
00000001
00000000
00000010
00000100
00000000
00000100
00001000
00000000
,  // measure 29
00000002
00000000
00000000
00000000
00000003
00000000
00000000
00000000
00000100
00000000
00000010
00000100
00001000
00010000
00001000
00000000
,  // measure 30
00010000
00000000
00100000
00000000
10010000
00000000
01000000
00000000
01100000
00000000
00010000
10000000
01000000
00000000
00010000
00000000
,  // measure 31
01000000
00000000
00100000
00000000
10010000
00000000
00100000
00000000
01100000
00000000
10000000
00100000
00010000
00000000
00001000
00000000
,  // measure 32
00000100
00000000
00000010
00000000
00000110
00000000
00001000
00000000
00001001
00000000
00000010
00000100
00000010
00000000
00000001
00000000
,  // measure 33
00001000
00000000
00001000
00000000
00010000
00000000
00000010
00000000
00001000
00000100
00001000
00000100
00001000
00000000
00000001
00000000
,  // measure 34
00001000
00000000
00000100
00000000
00001001
00000000
00000010
00000000
00000110
00000000
00001000
00000001
00000010
00000000
00001000
00000000
,  // measure 35
00000010
00000000
00000100
00000000
00001001
00000000
00000100
00000000
00000110
00000000
00000001
00000100
00001000
00000000
00010000
00000000
,  // measure 36
00200000
00000000
00000000
00000000
01300000
00000000
00000000
00000000
00010000
00000000
10000000
01000000
00000000
01000000
00100000
00000000
,  // measure 37
00010000
00000000
00010000
00000000
10000000
00000000
10000000
00000000
00100000
00000000
01000000
00001000
00000000
00002000
00020000
00000000
,  // measure 38
00000000
00000000
00000000
00003000
,  // measure 39
00031000
00000000
00100000
00010000
00100000
00000000
00001000
00010000
,  // measure 40
00001000
01000000
00010000
10000000
00000000
01000000
00010000
00001000
,  // measure 41
00000010
00000000
00000010
00000001
00001000
00000100
00000010
00000100
,  // measure 42
00002000
00000000
00000010
00000000
00013000
01000000
00100000
10000000
,  // measure 43
00010000
00100000
00010000
00000000
10000000
01000000
10000000
00000000
,  // measure 44
00010000
01000000
00100000
02000000
03000000
01000000
00010000
00000000
,  // measure 45
00100000
00000000
00100000
00001000
00010000
00001000
00010000
00000100
,  // measure 46
00000010
00000000
00000010
00000000
00000100
00000000
00000100
00000000
00001000
00000001
00001000
00000001
00001000
00000000
00000100
00000000
,  // measure 47
00010000
00001000
00000100
00001000
00010000
00001000
00011000
01000000
,  // measure 48
00010000
00010000
00001000
00010000
01000000
00000000
01100000
00010000
,  // measure 49
10000000
01000000
00010000
01000000
10000000
00010000
10010000
01000000
,  // measure 50
00010000
00010000
00001000
00000100
00000001
00000000
00000110
00000001
,  // measure 51
00001000
00000100
00000001
00000100
00001000
00000010
00000001
00001000
,  // measure 52
00000100
00000001
00000010
00001000
00010000
00000000
01010000
00000000
,  // measure 53
10000000
00010000
10000000
00010000
00100000
00001000
00010000
00100000
,  // measure 54
02000000
00000000
00000000
00000000
10000000
00000000
00000000
00000000
03010000
00000000
10000000
00000000
01000000
00100000
00010000
00000000
,  // measure 55
10010000
01000000
00011000
00000010
,  // measure 56
00001000
00000000
00000100
00010000
00001000
00000000
00100000
00000000
00110000
00000000
00000000
00000000
00001000
00000000
00000000
00000000
,  // measure 57
00010000
00000100
00000001
00001000
00010000
00000010
00000001
00001000
,  // measure 58
00010000
10000000
01000000
00010000
20010000
00000000
30000000
00000000
,  // measure 59
01000000
00000000
00100000
00010000
00100000
00000000
00001000
00000000
00010000
00000000
00000010
00001000
00000010
00000000
00000100
00000000
,  // measure 60
00000001
00000000
00001000
00000100
00000010
00000000
00000100
00000000
00010000
00000000
00001000
00000000
00011000
00000000
00000000
00000000
,  // measure 61
00001000
00001000
00100000
00100000
00010000
01010000
00100000
10100000
,  // measure 62
01000000
00010000
01000000
00010000
00100000
00010000
01000000
00001000
00200000
00000000
00300000
00000000
00010000
00000000
00100000
00000000
,  // measure 63
00001000
00010000
00100000
00010000
00001000
00010000
00011000
00000010
,  // measure 64
00001000
00001000
00010000
00001000
00000010
00000100
00000110
00001000
,  // measure 65
00000001
00000010
00001000
00000010
00000001
00001000
00001001
00000010
,  // measure 66
00001000
00000000
00001000
00000000
00010000
00000000
00100000
00000000
01000000
00100000
10000000
00000000
10010000
00000000
00010000
00000000
,  // measure 67
00100000
00000000
10000000
00100000
00010000
00000000
00010000
10000000
00100000
00000000
00010000
00000000
10000000
00000000
01000000
00000000
,  // measure 68
00010000
00000000
00001000
00000010
00001000
00000000
00000002
00000000
00000003
00000000
00000010
00000000
00000110
00000000
00001000
00000000
,  // measure 69
00000001
00000000
00000100
00000000
00000010
00000000
00001000
00000000
00000100
00000010
00000100
00000000
00010000
00000000
00001000
00000000
,  // measure 70
00200000
00000000
00000000
01000000
00300000
00000000
01100000
00000000
10000000
00000000
00010000
01000000
00001000
00010000
00001000
00000000
;
