#TITLE:LUNAM;
#SUBTITLE:;
#ARTIST:Uki Violeta;
#TITLETRANSLIT:;
#SUBTITLETRANSLIT:;
#ARTISTTRANSLIT:;
#GENRE:にじさんじ;
#CREDIT:;
#BANNER:LUNAM.png;
#BACKGROUND:../bg.png;
#LYRICSPATH:;
#CDTITLE:../cdtitle.png;
#MUSIC:LUNAM.ogg;
#OFFSET:1.986000;
#SAMPLESTART:78.151001;
#SAMPLELENGTH:15.000000;
#LASTBEATHINT:1.199633;
#SELECTABLE:YES;
#BPMS:0.000000=73.000000
,150.000000=65.800003
;
#STOPS:
;
#BGCHANGES:3.000=LUNAM.avi=1.000=0=0=0=StretchNoLoop====,
99999=-nosongbg-=1.000=0=0=0 // don't automatically add -songbackground-
;
#KEYSOUNDS:;
#ATTACKS:;

//---------------dance-single - ----------------
#NOTES:
     dance-single:
     :
     Beginner:
     1:
     0.031356,0.041978,0.000000,0.021949,0.000000,30.000000,30.000000,0.000000,3.000000,0.000000,0.000000,0.031356,0.041978,0.000000,0.021949,0.000000,30.000000,30.000000,0.000000,3.000000,0.000000,0.000000:
0000
0000
0000
0000
,
0000
0000
0000
0000
,
0000
0000
0000
0000
,
0000
0000
0000
0000
,
0000
0000
0000
0000
,
0000
0000
0000
0000
,
0000
0000
0000
1000
,
0000
0000
0000
0000
,
0000
0100
0000
0000
,
0000
0000
0000
0010
,
0000
0000
0000
0000
,
0000
0001
0000
0000
,
0000
0000
0000
1000
,
0000
0000
0000
0000
,
0000
1000
0000
0000
,
0000
0000
0000
0010
,
0000
0000
1000
0000
,
0000
0100
0000
0000
,
0000
0000
0000
0010
,
0000
0000
0000
0000
,
0000
0100
0000
0000
,
0000
0000
0000
1000
,
0000
0000
1000
0000
,
0000
0001
0000
0000
,
0000
0000
0000
0100
,
0000
0000
0100
0000
,
0000
0001
0000
0000
,
0001
0000
0000
1000
,
0000
0000
1000
0000
,
0000
0020
0000
0000
,
0030
0000
0000
0010
,
0000
0000
0010
0000
,
0000
0001
0000
0000
,
0001
0000
0000
0010
,
0000
0000
1000
0000
,
0000
0002
0000
0000
,
0003
0000
0000
0001
,
0000
0000
2000
0000
,
0000
3000
0000
0000
;

//---------------dance-single - ----------------
#NOTES:
     dance-single:
     :
     Easy:
     2:
     0.070029,0.087249,0.000000,0.168279,0.000000,67.000000,67.000000,0.000000,23.000000,0.000000,0.000000,0.070029,0.087249,0.000000,0.168279,0.000000,67.000000,67.000000,0.000000,23.000000,0.000000,0.000000:
0000
0000
0000
0000
,
0000
0000
0000
0000
,
0000
0000
0000
0000
,
0000
0000
0000
0000
,
0000
0000
0000
0000
,
0000
0000
0000
0000
,
0000
0000
0000
0020
,
0000
0000
0030
0000
,
0000
0000
0002
0000
0000
0200
0000
0000
,
0303
0000
0000
0010
0000
0000
2000
0000
,
0000
3000
0000
0000
1000
0000
0000
0100
,
0000
0000
0020
0000
0000
0100
0000
0000
,
0032
0000
0000
0003
0000
0000
2000
0000
,
0000
3010
0000
0000
0010
0000
0000
0100
,
0000
0000
0002
0000
0000
1003
0000
0000
,
2000
0000
0000
3001
0000
0000
0002
0000
,
0000
0013
0000
0000
0010
0000
0000
0100
,
0000
0000
2000
0000
0000
0100
0000
0000
,
3001
0000
0000
0001
,
0000
1000
0000
0000
0100
0000
0000
0000
,
0000
0000
1000
0000
0000
0001
0000
0000
,
0100
0000
0000
0010
,
0000
0000
0100
0000
,
0000
0001
0000
0000
,
0000
0000
0000
0010
,
0000
0100
0000
0000
0100
0000
0000
0010
,
0000
0000
0001
0000
0000
1000
0000
0000
,
1000
0000
0000
0001
0000
0000
0100
0000
,
0000
0100
0000
0000
1000
0000
0000
0100
,
0000
0000
0020
0000
0000
0200
0000
0000
,
0330
0000
0000
0002
0000
0000
2003
0000
,
0000
3100
0000
0000
0200
0000
0000
0310
,
0000
0000
1000
0000
0000
0010
0000
0000
,
0001
0000
0000
1000
0000
0000
0002
0000
,
0000
0013
0000
0000
0200
0000
0000
1300
,
0000
0000
0002
0000
0000
0003
0000
0000
,
2000
0000
0000
3000
0000
0000
0020
0000
,
0000
0030
0000
0000
2000
0000
0000
0100
,
0000
3002
0000
0000
,
0000
0000
0000
0003
;

//---------------dance-single - ----------------
#NOTES:
     dance-single:
     :
     Medium:
     4:
     0.118109,0.203581,0.000000,0.248760,0.000000,113.000000,113.000000,0.000000,34.000000,0.000000,0.000000,0.118109,0.203581,0.000000,0.248760,0.000000,113.000000,113.000000,0.000000,34.000000,0.000000,0.000000:
0000
0000
0000
0000
,
0000
0000
0000
0000
,
0000
0000
0000
0000
,
0000
0000
0000
0000
,
0000
0000
0000
0000
,
0000
0000
0000
0000
,
0000
0000
0000
0002
,
0000
0010
0000
0000
0003
0000
0000
0010
,
0000
0100
2000
0000
0000
3020
0000
0000
,
0030
0000
0000
1000
0100
0010
0002
0000
,
0000
1003
0000
0000
0200
0000
0000
1300
,
0000
0000
0020
0000
0000
0230
0000
0000
,
0002
0000
0000
0303
0000
0000
0020
0000
,
0001
0031
0000
1000
1000
0000
0001
0001
,
0000
0100
0020
0000
0000
0031
0010
1000
,
0200
0000
0000
0301
0100
1000
0020
0000
,
0000
0130
0000
0000
0002
0000
0000
0013
,
0000
0100
2000
0000
0000
0001
0000
0000
,
3001
0000
0000
1000
,
0010
0100
0000
0100
0001
0000
0000
1000
,
0000
0000
0001
0000
0010
0100
0000
0100
,
1000
0000
0000
0001
0100
0010
0200
0000
,
0000
0300
0000
0000
2000
0000
0000
3100
,
0000
0000
0002
0000
0000
0013
0000
0000
,
0200
0000
0000
0310
0000
0001
1000
0000
,
0100
0010
0000
0010
0001
0000
0001
0100
,
0010
1000
0001
0000
0100
0001
0000
0001
,
0010
0000
0010
0100
1000
0001
2000
0000
,
0000
3010
0000
0000
2000
0000
0000
3100
,
0000
0000
0020
0000
0000
0200
0000
0000
,
0330
0000
0000
2000
0000
0000
3002
0000
,
0000
0103
0000
0010
0200
0000
0000
0301
,
0000
1000
0020
0000
0000
0130
0000
0000
,
0010
1000
0100
0010
0000
0001
2000
0000
,
0000
3100
0000
0000
0002
0000
0000
0013
,
0000
1000
0002
0000
0000
0103
0000
0000
,
2000
0000
0000
3100
0000
0000
0002
0000
,
0000
0023
0000
0000
0230
0000
0000
0000
,
0000
2300
0000
0000
,
0000
0000
0000
3000
;

//---------------dance-single - ----------------
#NOTES:
     dance-single:
     :
     Hard:
     7:
     0.212178,0.290830,0.021949,0.343874,0.051215,203.000000,200.000000,3.000000,47.000000,0.000000,0.000000,0.212178,0.290830,0.021949,0.343874,0.051215,203.000000,200.000000,3.000000,47.000000,0.000000,0.000000:
0000
0000
0000
0000
,
0000
0000
0000
0000
,
0000
0000
0000
0000
,
0000
0000
0000
0000
,
0000
0000
0000
0000
,
0000
0000
0000
0000
,
0000
0000
0000
0100
0000
1000
0020
0000
,
0000
0200
0000
0000
0330
0000
0000
0010
,
0000
0001
1000
0000
0100
0020
2000
0000
,
3030
0000
0000
0000
0100
1000
0100
0000
0010
0000
0001
0000
2000
0000
0000
0000
,
0000
3001
0000
0000
0200
0000
0010
0310
,
0000
0100
0002
0000
0013
0200
0000
1300
,
0002
0000
0000
0000
0000
0000
0003
0100
0010
0100
0010
1000
0002
0000
0000
0000
,
0100
0103
0000
0001
0001
0000
1000
1000
,
0100
0010
0100
0010
0001
0000
2000
0000
0000
0000
3100
0000
1000
0000
0001
0000
,
0100
0000
0020
0000
0000
0000
0130
0000
0001
0000
0100
0010
1000
0000
0001
0000
,
1000
0200
0300
0100
0010
0100
1000
0002
,
0003
0100
0002
0000
0000
0100
0000
0000
,
0013
0000
0000
0100
0100
1000
0001
0000
,
0001
0100
0000
0100
0020
0000
0030
1000
,
0100
0010
0001
0000
0001
1000
0000
1000
,
0200
0000
0000
0000
0300
0000
0010
0100
0010
0100
1000
0000
0002
0000
0000
0000
,
1003
0010
0000
0010
0200
0300
0100
1000
,
0100
0010
2000
0000
0100
3100
0000
1000
,
0020
0000
0000
0000
0000
0000
1030
0100
1000
0100
0010
0000
0002
0000
0100
0000
,
0103
2001
0100
3100
0002
0010
0013
0100
,
1000
0001
2000
0100
3100
0201
0010
0310
,
2000
0100
3100
0010
0001
1000
0002
0100
,
0103
0001
0010
0100
2000
0100
3100
1000
,
0010
0100
0002
0000
0010
2003
0200
0300
,
3010
1000
0000
0200
0320
0032
2003
0000
,
0100
0000
3001
0000
0100
0000
0010
1000
0020
0000
0100
0000
0130
0000
0001
0000
,
1000
0100
0020
0000
0100
0031
1000
0001
,
1000
0000
0100
0000
0001
0000
0100
0000
1000
0000
0010
0100
0020
0000
0000
0000
,
0100
1030
0100
1000
0020
0200
0030
0302
,
0013
0100
1000
0000
0002
0000
0000
0000
0000
0000
1003
0000
0000
0000
0010
0000
,
0210
0000
0000
0301
0000
1000
0002
0000
,
0000
0013
0000
0100
2000
0000
3100
0100
,
0000
0010
0002
0000
0000
0000
0000
0000
,
0000
0000
0000
0003
;

//---------------dance-double - ----------------
#NOTES:
     dance-double:
     :
     Easy:
     2:
     0.064803,0.087249,0.000000,0.175595,0.000000,62.000000,62.000000,0.000000,24.000000,0.000000,0.000000,0.064803,0.087249,0.000000,0.175595,0.000000,62.000000,62.000000,0.000000,24.000000,0.000000,0.000000:
00000000
00000000
00000000
00000000
,
00000000
00000000
00000000
00000000
,
00000000
00000000
00000000
00000000
,
00000000
00000000
00000000
00000000
,
00000000
00000000
00000000
00000000
,
00000000
00000000
00000000
00000000
,
00000000
00000000
00000000
00002000
,
00000000
00000000
00003000
00000000
,
00000000
00020000
00000000
00000000
,
00030000
00000000
00000000
00000100
00000000
00000000
00002000
00000000
,
00000000
00003000
00000000
00000000
00000010
00000000
00000000
00000100
,
00000000
00000000
00000002
00000000
00000000
00000010
00000000
00000000
,
00002003
00000000
00000000
00003000
00000000
00000000
00000200
00000000
,
00000000
00000310
00000000
00000000
00000100
00000000
00000000
00010000
,
00000000
00000000
00000020
00000000
00000000
00001030
00000000
00000000
,
00020000
00000000
00000000
00031000
00000000
00000000
00000020
00000000
,
00000000
00000130
00000000
00000000
00001000
00000000
00000000
00010000
,
00000000
02000000
00000000
00000000
,
03000000
00000000
00000000
20000000
,
00000000
00020000
00000000
00000000
30030000
00000000
00000000
00000000
,
00000000
00000000
01000000
00000000
00000000
00001000
00000000
00000000
,
00010000
00000000
00000000
00000010
,
00000000
00000000
00001000
00000000
,
00000000
00000100
00000000
00000000
,
00000000
00000000
00000000
00001000
,
00000000
00000001
00000000
00000000
00001000
00000000
00000000
00000010
,
00000000
00000000
00001000
00000000
00000000
00000100
00000000
00000000
,
00000010
00000000
00000000
00000001
00000000
00000000
00001000
00000000
,
00000000
00001000
00000000
00000000
00000100
00000000
00000000
00000100
,
00000000
00000000
00020000
00000000
00000000
00002000
00000000
00000000
,
00033000
00000000
00000000
00002000
00000000
00000000
02003000
00000000
,
00000000
03100000
00000000
00000000
00200000
00000000
00000000
10300000
,
00000000
00000000
00010000
00000000
00000000
00100000
00000000
00000000
,
01000000
00000000
00000000
10000000
00000000
00000000
00020000
00000000
,
00000000
00130000
00000000
00000000
00002000
00000000
00000000
00013000
,
00000000
00000000
00000020
00000000
00000000
00000030
00000000
00000000
,
00000200
00000000
00000000
00000300
00000000
00000000
00000002
00000000
,
00000000
00000003
00000000
00000000
00000020
00000000
00000000
00000030
,
00000000
00002000
00000000
00000000
,
00000000
00000000
00000000
00003000
;

//---------------dance-double - ----------------
#NOTES:
     dance-double:
     :
     Medium:
     5:
     0.123335,0.203581,0.000000,0.256076,0.000000,118.000000,118.000000,0.000000,35.000000,0.000000,0.000000,0.123335,0.203581,0.000000,0.256076,0.000000,118.000000,118.000000,0.000000,35.000000,0.000000,0.000000:
00000000
00000000
00000000
00000000
,
00000000
00000000
00000000
00000000
,
00000000
00000000
00000000
00000000
,
00000000
00000000
00000000
00000000
,
00000000
00000000
00000000
00000000
,
00000000
00000000
00000000
00000000
,
00000000
00000000
00000000
00020000
,
00000000
00002000
00000000
00000000
00033000
00000000
00000000
00001000
,
00000000
00010000
00000020
00000000
00000100
00002000
00000030
00000000
,
00003000
00000000
00000000
00000010
00001000
00000100
00020000
00000000
,
00000000
00031000
00000000
00000000
00200000
00000000
00010000
00310000
,
00000000
00000000
20000000
00000000
31000000
00200000
00000000
00310000
,
20000000
00000000
00000000
30000000
00000000
00000000
00020000
00000000
,
00100000
00130000
00000000
01000000
01000000
00000000
10000000
10000000
,
00010000
01000000
00200000
00000000
00000000
00310000
00001000
00010000
,
00002000
00000000
00000000
00003100
00000001
00000010
00000200
00000000
,
00000000
00000310
00000000
00000000
00000002
00000000
00000000
00000103
,
00000000
00000010
00002000
00000000
00000000
00000200
00000000
00000000
,
00003300
00000000
00000000
00010000
,
00010000
00001000
00000000
00001000
01000000
00000000
00000000
00000000
,
00000000
00000000
00010000
00000000
00010000
00100000
00000000
00100000
,
01000000
00000000
00000000
10000000
01000000
00010000
00002000
00000000
,
00000000
00003000
00000000
00000000
00020000
00000000
00000000
00031000
,
00000000
00000000
00000200
00000000
00000000
00000301
00000000
00000000
,
00001000
00000000
00000000
00000001
00000100
00000010
00001000
00000000
,
00000100
00000010
00000000
00000010
00000001
00000000
00000001
00000100
,
00001000
00010000
00001000
00000000
00001000
00100000
00000000
00100000
,
00010000
00000000
00010000
01000000
00100000
10000000
00020000
00000000
,
00000000
00130000
00000000
00000000
00020000
00000000
00000000
10030000
,
00000000
00100000
02000000
00000000
00000000
00002000
00000000
00000000
,
03003000
00000000
00000000
00020000
00000000
00000000
00032000
00000000
,
00000000
00013000
00000000
00000100
00000020
00000000
00000000
00000130
,
00000000
00001000
00000002
00000000
00000000
00001003
00000000
00000000
,
00000010
00001000
00000100
00000010
00000000
00000001
00002000
00000000
,
00000000
00003100
00000000
00000000
00020000
00000000
00000000
00031000
,
00000000
01000000
00200000
00000000
00000000
01300000
00000000
00000000
,
00020000
00000000
00000000
00130000
00000000
00000000
00002000
00000000
,
00000000
00203000
00000000
00000000
02300000
00000000
00000000
00000000
,
00000000
23000000
00000000
00000000
,
00000000
00000000
00000000
30000000
;

//---------------dance-double - ----------------
#NOTES:
     dance-double:
     :
     Hard:
     7:
     0.210087,0.290830,0.014633,0.321925,0.047557,201.000000,199.000000,2.000000,44.000000,0.000000,0.000000,0.210087,0.290830,0.014633,0.321925,0.047557,201.000000,199.000000,2.000000,44.000000,0.000000,0.000000:
// measure 0
00000000
00000000
00000000
00000000
,  // measure 1
00000000
00000000
00000000
00000000
,  // measure 2
00000000
00000000
00000000
00000000
,  // measure 3
00000000
00000000
00000000
00000000
,  // measure 4
00000000
00000000
00000000
00000000
,  // measure 5
00000000
00000000
00000000
00000000
,  // measure 6
00000000
00000000
00000000
01000000
00000000
00010000
00002000
00000000
,  // measure 7
00000000
00200000
00000000
00000000
00303000
00000000
00000000
00001000
,  // measure 8
00000000
00010000
00000010
00000000
00000100
00000002
00002000
00000000
,  // measure 9
00003003
00000000
00000000
00000000
00000100
00001000
00000100
00000000
00000010
00000000
00000001
00000000
00002000
00000000
00000000
00000000
,  // measure 10
00000000
00003010
00000000
00000000
00020000
00000000
00000010
00030010
,  // measure 11
00000000
00001000
00000200
00000300
00000100
00020000
00030000
00010000
,  // measure 12
00002000
00000000
00000000
00000000
00000000
00000000
00003000
00100000
00010000
00100000
00010000
10000000
02000000
00000000
00000000
00000000
,  // measure 13
10000000
13000000
00000000
00100000
00100000
00000000
01000000
01000000
,  // measure 14
00001000
00010000
00001000
00000000
00010000
00000000
00002000
00000000
00000000
00000000
00003100
00000000
00000001
00000000
00000010
00000000
,  // measure 15
00000100
00000000
00002000
00000000
00000000
00000000
00003100
00000000
00010000
00000000
00001000
00010000
00001000
00000000
01000000
00000000
,  // measure 16
00100000
20000000
30000000
10000000
00010000
00100000
01000000
20000000
,  // measure 17
30000000
10000000
00020000
00000000
00000000
02000000
00000000
00000000
,  // measure 18
03030000
00000000
00000000
00010000
00010000
00100000
00010000
00000000
,  // measure 19
00010000
10000000
00000000
10000000
02000000
00000000
03000000
00010000
,  // measure 20
00001000
00010000
00001000
00000000
00001000
00000100
00000000
00000100
,  // measure 21
00000002
00000000
00000000
00000000
00000003
00000000
00000010
00000100
00000010
00000100
00001000
00000000
00000002
00000000
00000000
00000000
,  // measure 22
00001003
00000010
00000000
00000010
00000200
00000300
00000100
00001000
,  // measure 23
00010000
00001000
00020000
00000000
00001000
00031000
00000000
00001000
,  // measure 24
00200000
00000000
00000000
00000000
00300000
00000000
00100000
01000000
00100000
01000000
10000000
00000000
00020000
00000000
01000000
00000000
,  // measure 25
01030000
20010000
01000000
31000000
00200000
00010000
00310000
01000000
,  // measure 26
00001000
00010000
00002000
00100000
00103000
02000000
00010000
03010000
,  // measure 27
00002000
00000010
00003010
00000001
00001000
00000100
00002000
00000001
,  // measure 28
00003001
00000100
00000010
00001000
00000002
00000010
00000013
00000100
,  // measure 29
00010000
00001000
00020000
00000000
00001000
00030020
00002000
00003000
,  // measure 30
00010030
00001000
00000000
00100000
01000000
10000000
00020000
00000000
,  // measure 31
00100000
00000000
00130000
00000000
01000000
00000000
10000000
01000000
20000000
00000000
00010000
00000000
30010000
00000000
01000000
00000000
,  // measure 32
00100000
10000000
02000000
00000000
00010000
03100000
00001000
00010000
,  // measure 33
00000100
00000000
00010000
00000000
00001000
00000000
01000000
00000000
00001000
00000000
00010000
00000010
00002000
00000000
00000000
00000000
,  // measure 34
00000010
00003010
00010000
00000100
00000020
00000100
00000031
00002000
,  // measure 35
00003010
00000100
00000001
00000000
00002000
00000000
00000000
00000000
00000000
00000000
00003010
00000000
00000000
00000000
00010000
00000000
,  // measure 36
00021000
00000000
00000000
01030000
00000000
10000000
02000000
00000000
,  // measure 37
00000000
03100000
00000000
00010000
02000000
03000000
01000000
00001000
,  // measure 38
00000000
00001000
00020000
00000000
00000000
00000000
00000000
00000000
,  // measure 39
00000000
00000000
00000000
00030000
;
