#TITLE:LOL;
#SUBTITLE:;
#ARTIST:Kawai Sprite;
#TITLETRANSLIT:;
#SUBTITLETRANSLIT:;
#ARTISTTRANSLIT:;
#GENRE:Variety;
#CREDIT:;
#BANNER:LOL.png;
#BACKGROUND:LOL-bg.png;
#LYRICSPATH:;
#CDTITLE:../cdtitle.png;
#MUSIC:LOL.ogg;
#OFFSET:1.232000;
#SAMPLESTART:44.921001;
#SAMPLELENGTH:15.000000;
#LASTBEATHINT:0.703733;
#SELECTABLE:YES;
#BPMS:0.000000=182.000000
;
#STOPS:132.000000=2.308000
;
#BGCHANGES:261.125=LOL.avi=1.000=0=0=0=StretchNoLoop====,
99999=-nosongbg-=1.000=0=0=0 // don't automatically add -songbackground-
;
#KEYSOUNDS:;
#ATTACKS:;

//---------------dance-single - ----------------
#NOTES:
     dance-single:
     :
     Beginner:
     2:
     0.087233,0.171739,0.000000,0.031584,0.000000,58.000000,58.000000,0.000000,3.000000,0.000000,0.000000,0.087233,0.171739,0.000000,0.031584,0.000000,58.000000,58.000000,0.000000,3.000000,0.000000,0.000000:
0000
0000
0000
0000
,
0000
0000
0000
0000
,
0000
0000
0000
0000
,
0000
0000
0000
0000
,
0000
0000
0000
0000
,
0000
0000
0000
0000
,
0000
0000
0000
0000
,
0000
0000
0000
0000
,
0000
0000
0000
0000
,
0100
0000
0000
0000
,
0000
0000
0000
0000
,
0100
0000
0000
0000
,
0000
0000
0000
0000
,
0010
0000
0000
0000
,
0000
0000
0000
0000
,
0010
0000
0000
0000
,
0000
0000
0000
0000
,
0200
0000
0000
0000
,
0000
0000
0000
0000
,
0300
0000
0000
0000
,
0000
0000
0000
0000
,
0200
0000
0000
0000
,
0000
0000
0000
0000
,
0300
0000
0000
0000
,
0000
0000
0000
0000
,
1000
0000
0000
0000
,
1000
0000
0000
0000
,
0001
0000
0000
0000
,
0001
0000
0000
0000
,
0100
0000
0100
0000
,
0001
0000
0001
0000
,
0010
0000
0010
0000
,
2000
0000
3000
0000
,
0001
1000
0000
1000
,
0000
1000
0000
0000
,
0000
0100
0000
0100
,
0000
0100
0000
0000
,
0000
0001
0000
0001
,
0000
0001
0000
0000
,
0000
0010
0000
0010
,
0000
0010
0000
0000
,
0000
0001
0000
0000
,
0000
0001
0000
0000
,
0000
1000
0000
0000
,
0000
0010
0000
0000
,
0000
0100
0000
0000
,
0000
0100
0000
0000
,
0000
0001
0000
0000
,
0000
0010
0000
0000
,
0000
0001
0000
0001
,
0000
0001
0000
0000
,
0000
0010
0000
0010
,
0000
0010
0000
0000
,
0000
1000
0000
1000
,
0000
1000
0000
0000
,
0000
0100
0000
0100
,
0000
0100
0000
0000
,
0000
1000
0000
0000
,
0000
1000
0000
0000
,
0000
0001
0000
0000
,
0000
0100
0000
0000
,
0000
0010
0000
0000
,
0000
0010
0000
0000
,
0000
1000
0000
0000
,
0000
0000
0000
0000
,
0000
0100
0000
0000
;

//---------------dance-single - ----------------
#NOTES:
     dance-single:
     :
     Easy:
     5:
     0.257186,0.328082,0.010528,0.168449,0.000000,171.000000,170.000000,1.000000,16.000000,0.000000,0.000000,0.257186,0.328082,0.010528,0.168449,0.000000,171.000000,170.000000,1.000000,16.000000,0.000000,0.000000:
0000
0000
0000
0000
,
0000
0000
0000
0000
,
0000
0000
0000
0000
,
0000
0000
0000
0000
,
0000
0000
0000
0000
,
0100
0010
0000
0010
,
0100
0000
0100
0000
,
0010
0100
0000
0100
,
0010
0000
0200
0300
,
0001
0000
0001
0000
,
0010
0000
0010
0000
,
0100
0000
0100
0000
,
1000
0000
0001
0000
,
1000
0000
1000
0000
,
0010
0000
0010
0000
,
0100
0000
0100
0000
,
0001
0000
1000
0000
,
2002
0000
0000
0000
,
0000
0000
0000
0000
,
3003
0000
0000
0000
,
0000
0000
0000
0000
,
0020
0000
0000
0000
,
0000
0000
0000
0000
,
0030
0000
0000
0000
,
0000
0000
0000
0000
,
1000
0000
1000
0000
,
0100
0000
0100
0000
,
0001
0000
0001
0000
,
0010
0000
0010
0000
,
1000
1000
1000
0200
,
0310
0010
0010
0002
,
0103
0100
0100
0020
,
2030
0002
3003
0002
,
1003
0100
0100
1000
,
1000
0010
0010
0100
,
0000
0100
0100
0001
,
0001
0010
0001
0100
,
0000
0010
0010
0100
,
0100
0001
0001
0010
,
1000
0010
0010
0001
,
0001
1000
0001
0200
,
0300
0010
1000
0010
,
1000
0100
1000
0100
,
1000
0001
0100
0001
,
0100
0010
1000
0002
,
0003
0010
0001
0010
,
0001
0100
0001
0100
,
0001
1000
0100
1000
,
0100
0010
0001
2000
,
3000
0010
0010
1000
,
1000
0100
0100
0010
,
0000
0010
0010
0001
,
0001
0100
0001
0010
,
0000
0100
0100
0010
,
0010
0001
0001
1000
,
0000
0001
0001
0100
,
0100
0010
1000
0002
,
0003
0100
0001
0100
,
0001
0010
0001
0010
,
0001
1000
0010
1000
,
0010
0100
0001
2000
,
3000
0100
1000
0100
,
1000
0010
1000
0010
,
1000
0001
0010
0001
,
0010
0100
1000
0001
,
0000
0200
0000
0000
,
0000
0000
0000
0000
,
0000
0000
0000
0000
,
0000
0000
0000
0000
,
0000
0300
0000
0000
;

//---------------dance-single - ----------------
#NOTES:
     dance-single:
     :
     Hard:
     13:
     0.604613,0.765524,0.547461,0.200034,0.094753,402.000000,350.000000,52.000000,19.000000,0.000000,0.000000,0.604613,0.765524,0.547461,0.200034,0.094753,402.000000,350.000000,52.000000,19.000000,0.000000,0.000000:
0000
0000
0000
0000
,
0000
0000
0000
0000
,
0000
0000
0000
0000
,
0000
0000
0000
0000
,
0000
0000
0000
0000
,
1100
0000
0000
0100
0000
0000
0000
0000
0000
0000
1000
0000
0001
0000
0000
0000
,
0100
0000
0010
0000
0000
0100
0010
0000
,
0100
0000
0000
0100
0000
0000
0000
0000
0000
0000
0001
0000
1000
0000
0000
0000
,
0100
0000
0010
0200
0300
0100
0010
0000
,
0001
0100
0010
1000
0001
0100
0010
1000
,
0001
0010
0100
1000
0001
0010
0100
1000
,
0010
0100
0001
1000
0010
0100
0001
1000
,
0100
0010
0001
0010
0100
1000
0001
0001
,
1000
0010
0100
0001
1000
0010
0100
0001
,
1000
0100
0010
0001
1000
0100
0010
0001
,
0100
0010
1000
0001
0100
0010
1000
0001
,
0010
0100
1000
0100
0010
0001
1000
1000
,
0020
0000
0000
0000
,
0000
0000
0000
0000
,
0030
0000
0000
0000
,
0000
0000
0000
0000
,
2002
0000
0000
0000
,
0000
0000
0000
0000
,
3003
0000
0000
0000
,
0000
0000
0000
0000
,
1000
1000
0100
0100
,
0010
0010
0001
0001
,
0100
0100
0010
0010
,
1000
1000
0001
0001
,
1000
0000
0100
0000
1000
0000
0100
0000
1000
0000
0100
0000
1000
0100
1000
0000
,
0001
0000
0100
0000
0001
0000
0100
0000
0001
0000
0100
0000
0001
0100
0001
0000
,
0100
0000
0010
0000
0100
0000
0010
0000
0100
0000
0010
0000
0100
0010
0100
0000
,
0002
0023
1030
0200
,
0301
1001
1001
1100
,
1100
1001
0011
0110
,
1000
0001
0101
0000
0101
0000
0011
0000
,
0011
1001
1100
2010
,
3001
0100
0001
0100
0010
0000
0110
0000
1010
0000
0000
0000
1100
0000
0000
0000
,
1100
1010
1100
0011
,
0001
1000
1100
0100
0110
0000
1001
0000
,
1001
0000
1000
0010
1000
0010
0200
0000
,
0301
0010
0001
0000
1000
0000
0100
0000
1000
0000
0100
0000
0010
0000
0001
0000
,
0010
0001
1000
0100
0010
0001
0010
0100
,
1000
0001
1000
0010
1000
0010
0100
0001
,
0100
0001
1000
0010
0100
0001
0020
0000
,
0130
1000
0100
1000
0001
0000
0100
0000
0001
0000
0100
0000
0010
0100
0010
0000
,
0100
0010
1000
0010
1000
0001
0010
0100
,
0010
0000
0010
0000
0001
0000
0100
0000
0001
0000
0100
0000
0010
0100
0010
0000
,
1000
0001
1000
1000
0100
0100
0020
0000
,
0031
0100
0010
0000
1010
0000
0000
0000
1010
0000
0000
0000
0011
0000
0000
0000
,
0011
1010
0011
0220
,
0330
1000
1100
1100
0101
0000
1001
0000
,
1001
0011
1001
0201
,
0310
0100
0010
0000
1010
0000
1010
0000
0011
0000
0000
0000
1100
0000
0000
0000
,
1100
0110
0011
2002
,
3003
0000
0001
0100
0001
0000
0100
0000
0010
0000
0000
0000
1010
0000
0000
0000
,
1010
0000
1000
0100
1000
0100
0020
0000
,
0031
1000
0001
0000
1000
0000
0100
0000
1000
0000
0100
0000
0010
0000
0100
0000
,
0010
0100
1000
0001
1000
0001
0100
0010
,
0100
0100
0001
0010
0001
0010
0100
0010
,
0100
0010
1000
0001
0100
0010
0002
0103
,
0100
0010
1000
0000
0001
0000
0010
0000
0001
0000
0010
0000
0100
0000
0010
0000
,
0100
0010
0001
1000
0001
1000
0010
0100
,
0010
0000
0010
0000
1000
0000
0100
0000
1000
0000
0100
0000
0010
0100
0010
0000
,
0100
0010
0001
0001
1000
1000
0010
0100
,
0001
1000
0200
0000
0000
0000
0000
0000
,
0000
0000
0000
0000
,
0000
0000
0000
0000
,
0000
0000
0000
0000
,
0000
0300
0000
0000
;

//---------------dance-single - ----------------
#NOTES:
     dance-single:
     :
     Medium:
     9:
     0.428644,0.619710,0.421124,0.252674,0.000000,285.000000,245.000000,40.000000,24.000000,0.000000,0.000000,0.428644,0.619710,0.421124,0.252674,0.000000,285.000000,245.000000,40.000000,24.000000,0.000000,0.000000:
0000
0000
0000
0000
,
0000
0000
0000
0000
,
0000
0000
0000
0000
,
0000
0000
0000
0000
,
0000
0000
0000
0000
,
0100
0000
1000
0000
0000
1000
0100
0000
,
0010
0001
0000
0001
,
0100
0000
0001
0000
0000
0001
0100
0000
,
0010
0000
0000
2000
0000
0000
3100
0000
,
1000
0001
0100
0000
0001
1000
0010
0000
,
0100
0001
0010
0000
0100
1000
0010
0000
,
1000
0100
0010
0000
0100
0010
0001
0000
,
1000
0010
0100
0000
0001
0000
1000
0000
,
0001
1000
0100
0000
1000
0001
0010
0000
,
0100
1000
0010
0000
0100
0001
0010
0000
,
0001
0100
0010
0000
0100
0010
1000
0000
,
0001
0010
0100
0000
1000
0000
0001
0000
,
0020
0000
0000
0000
,
0000
0000
0000
0000
,
0030
0000
0000
0000
,
0000
0000
0000
0000
,
0200
0000
0000
0000
,
0000
0000
0000
0000
,
0300
0000
0000
0000
,
0000
0000
0000
0000
,
2001
0010
0010
0010
,
0010
0010
0010
3010
,
0100
0100
0100
0100
,
0100
0100
0100
0100
,
0001
0010
0001
0000
0010
0000
0002
0000
,
1003
0100
1000
0000
0100
0000
2000
0000
,
3010
0100
0010
0000
0100
0000
0020
0000
,
2030
0002
3003
0020
,
0130
1100
1100
0101
,
0101
1100
0100
0101
,
0010
0110
0110
1001
,
1001
0110
1001
0220
,
0330
0011
0011
1010
,
1010
0011
0010
1010
,
0100
0110
0110
1001
,
1001
0100
0100
0200
,
0300
1000
0001
1000
,
0001
0100
0010
0100
,
0010
1000
0001
0000
0010
0000
0001
0000
,
0010
0100
1000
0000
0100
0010
0002
0000
,
0003
0000
0001
0000
1000
0000
0001
0001
,
1000
0010
0100
0010
,
0100
0001
1000
0000
0100
0000
1000
0100
,
0010
0000
0001
0010
0100
0000
2000
0000
,
3001
1001
1001
0101
,
0101
1001
0100
0220
,
0330
0011
0100
1001
,
1001
1010
0110
0020
,
0030
0000
1000
0100
1000
0000
0110
0000
,
0110
0101
0010
2200
,
3300
0001
0100
0010
1000
0000
0001
0000
,
0101
0000
1000
0100
1000
0000
0002
0000
,
0023
0000
0130
1000
0100
0000
1000
0010
,
1000
0000
0001
0100
0001
0000
0010
0001
,
0010
0000
1000
0010
0001
0000
0010
0001
,
0100
0000
0010
1000
0001
0000
0020
0000
,
0130
0000
0010
0001
0010
0000
0001
0100
,
0001
0000
1000
0010
1000
0000
0100
1000
,
0100
0000
0001
0100
1000
0000
0100
1000
,
0010
0000
0100
0001
1000
0000
0100
0000
,
0010
0200
0000
0000
,
0000
0000
0000
0000
,
0000
0000
0000
0000
,
0000
0000
0000
0000
,
0000
0300
0000
0000
;

//---------------dance-double - ----------------
#NOTES:
     dance-double:
     :
     Easy:
     5:
     0.255682,0.328082,0.010528,0.168449,0.000000,170.000000,169.000000,1.000000,16.000000,0.000000,0.000000,0.255682,0.328082,0.010528,0.168449,0.000000,170.000000,169.000000,1.000000,16.000000,0.000000,0.000000:
// measure 0
00000000
00000000
00000000
00000000
,  // measure 1
00000000
00000000
00000000
00000000
,  // measure 2
00000000
00000000
00000000
00000000
,  // measure 3
00000000
00000000
00000000
00000000
,  // measure 4
00000000
00000000
00000000
00000000
,  // measure 5
00000100
00010000
00000000
00010000
,  // measure 6
00000100
00000000
00000000
00000000
,  // measure 7
01000000
00010000
00000000
00010000
,  // measure 8
01000000
00000000
00002000
00003000
,  // measure 9
00100000
00000000
00010000
00000000
,  // measure 10
00100000
00000000
00010000
00000000
,  // measure 11
01000000
00000000
00001000
00000000
,  // measure 12
00010000
00000000
00000010
00000000
,  // measure 13
00001000
00000000
00000100
00000000
,  // measure 14
00001000
00000000
00000100
00000000
,  // measure 15
00001000
00000000
00000010
00000000
,  // measure 16
00010000
00000000
00001000
00000000
,  // measure 17
00022000
00000000
00000000
00000000
,  // measure 18
00000000
00000000
00000000
00000000
,  // measure 19
00033000
00000000
00000000
00000000
,  // measure 20
00000000
00000000
00000000
00000000
,  // measure 21
02000000
00000000
00000000
00000000
,  // measure 22
00000000
00000000
00000000
00000000
,  // measure 23
03000000
00000000
00000000
00000000
,  // measure 24
00000000
00000000
00000000
00000000
,  // measure 25
10000000
00000000
10000000
00000000
,  // measure 26
00100000
00000000
00100000
00000000
,  // measure 27
00010000
00000000
00010000
00000000
,  // measure 28
00001000
00000000
00001000
00000000
,  // measure 29
00000100
00000100
00000100
00000200
,  // measure 30
00000301
00000001
00000001
00000002
,  // measure 31
00000013
00000010
00000010
00000020
,  // measure 32
00002030
00020000
00033000
00020000
,  // measure 33
00031000
00100000
00100000
00001000
,  // measure 34
00001000
01000000
01000000
00010000
,  // measure 35
00000000
00001000
00001000
00000010
,  // measure 36
00000010
00010000
00000100
00010000
,  // measure 37
00000000
00000010
00000010
00000100
,  // measure 38
00000100
00000001
00000001
00001000
,  // measure 39
00000001
00000010
00000010
00000100
,  // measure 40
00000100
00010000
00001000
00020000
,  // measure 41
00030000
00000010
00001000
00000010
,  // measure 42
00001000
00000001
00000010
00000001
,  // measure 43
00000010
00000100
00010000
00000100
,  // measure 44
00010000
00001000
00010000
00002000
,  // measure 45
00003000
01000000
00010000
01000000
,  // measure 46
00010000
10000000
01000000
10000000
,  // measure 47
01000000
00100000
00001000
00100000
,  // measure 48
00001000
00010000
00001000
00020000
,  // measure 49
00030000
00000100
00000100
00010000
,  // measure 50
00010000
00000010
00000010
00001000
,  // measure 51
00000000
00010000
00010000
01000000
,  // measure 52
01000000
00001000
00100000
00001000
,  // measure 53
00000000
01000000
01000000
00100000
,  // measure 54
00100000
10000000
00010000
10000000
,  // measure 55
00000000
01000000
01000000
00100000
,  // measure 56
00100000
00001000
00010000
00002000
,  // measure 57
00003000
01000000
00001000
01000000
,  // measure 58
00001000
00010000
00000100
00010000
,  // measure 59
00000100
00001000
00000010
00001000
,  // measure 60
00000010
00000100
00000001
00002000
,  // measure 61
00003000
00000100
00010000
00000100
,  // measure 62
00010000
00001000
01000000
00001000
,  // measure 63
01000000
00010000
00100000
00010000
,  // measure 64
00100000
01000000
10000000
00010000
,  // measure 65
00000000
02000000
00000000
00000000
,  // measure 66
00000000
00000000
00000000
00000000
,  // measure 67
00000000
00000000
00000000
00000000
,  // measure 68
00000000
00000000
00000000
00000000
,  // measure 69
00000000
03000000
00000000
00000000
;

//---------------dance-double - ----------------
#NOTES:
     dance-double:
     :
     Medium:
     9:
     0.425636,0.583256,0.389539,0.252674,0.000000,283.000000,246.000000,37.000000,24.000000,0.000000,0.000000,0.425636,0.583256,0.389539,0.252674,0.000000,283.000000,246.000000,37.000000,24.000000,0.000000,0.000000:
// measure 0
00000000
00000000
00000000
00000000
,  // measure 1
00000000
00000000
00000000
00000000
,  // measure 2
00000000
00000000
00000000
00000000
,  // measure 3
00000000
00000000
00000000
00000000
,  // measure 4
00000000
00000000
00000000
00000000
,  // measure 5
00000200
00000000
00001300
00000000
00000000
00001000
00000010
00000000
,  // measure 6
00000100
00001000
00000000
00001000
,  // measure 7
01000000
00000000
00010000
00000000
00000000
00010000
00100000
00000000
,  // measure 8
01000000
00000000
00000000
00020000
00000000
00000000
00031000
00000000
,  // measure 9
00010000
00001000
00000100
00000000
00001000
00000100
00000001
00000000
,  // measure 10
00000100
00000001
00000010
00000000
00000001
00000010
00001000
00000000
,  // measure 11
00010000
01000000
10000000
00000000
01000000
10000000
00100000
00000000
,  // measure 12
10000000
00100000
00010000
00000000
00001000
00000000
00010000
00000000
,  // measure 13
00001000
00010000
01000000
00000000
00010000
01000000
10000000
00000000
,  // measure 14
01000000
10000000
00100000
00000000
10000000
00100000
00010000
00000000
,  // measure 15
00001000
00000100
00000001
00000000
00000100
00000001
00000010
00000000
,  // measure 16
00000001
00000010
00001000
00000000
00010000
00000000
00001000
00000000
,  // measure 17
00022000
00000000
00000000
00000000
,  // measure 18
00000000
00000000
00000000
00000000
,  // measure 19
00033000
00000000
00000000
00000000
,  // measure 20
00000000
00000000
00000000
00000000
,  // measure 21
00020000
00000000
00000000
00000000
,  // measure 22
00000000
00000000
00000000
00000000
,  // measure 23
00030000
00000000
00000000
00000000
,  // measure 24
00000000
00000000
00000000
00000000
,  // measure 25
10000000
10000000
00100000
00100000
,  // measure 26
01000000
01000000
00001000
00001000
,  // measure 27
00010000
00010000
00000100
00000100
,  // measure 28
00000010
00000010
00000001
00000001
,  // measure 29
00000100
00001000
00000100
00000000
00001000
00000000
00000200
00000000
,  // measure 30
00001300
00010000
00001000
00000000
00010000
00000000
00002000
00000000
,  // measure 31
00013000
01000000
00010000
00000000
01000000
00000000
00020000
00000000
,  // measure 32
02030000
00000000
20000000
03000000
30000000
00000000
20000000
00000000
,  // measure 33
30010000
01010000
01010000
10100000
,  // measure 34
10100000
01100000
00010000
00011000
,  // measure 35
00100000
10010000
10010000
11000000
,  // measure 36
11000000
01010000
00011000
00000200
,  // measure 37
00000300
00000110
00000110
00001001
,  // measure 38
00001001
00000101
00000100
00001100
,  // measure 39
00010000
00011000
00011000
00001010
,  // measure 40
00001010
00010000
00001000
00020000
,  // measure 41
00030000
00001000
00100000
00001000
,  // measure 42
00100000
01000000
00100000
01000000
,  // measure 43
00100000
00010000
01000000
00000000
00001000
00000000
01000000
00000000
,  // measure 44
00001000
00010000
00001000
00000000
00010000
00000100
00020000
00000000
,  // measure 45
00030000
00000000
00010000
00000000
00000010
00000000
00000100
00000100
,  // measure 46
00000010
00001000
00000001
00001000
,  // measure 47
00000100
00000010
00000001
00000000
00000010
00000000
00000100
00000100
,  // measure 48
00001000
00000000
00000001
00000100
00000010
00000000
00002000
00000000
,  // measure 49
00003001
00000011
00000011
00001100
,  // measure 50
00001100
00000011
00000101
00002020
,  // measure 51
00003030
00000000
00010000
00010000
00001000
00000000
00011000
00000000
,  // measure 52
00011000
00100000
01000000
00200000
,  // measure 53
00300000
00000000
00010000
00010000
00010000
00000000
11000000
00000000
,  // measure 54
11000000
10100000
01000000
20020000
,  // measure 55
30030000
00010000
00100000
00010000
00100000
00000000
01100000
00000000
,  // measure 56
10000000
00000000
00100000
01000000
00100000
00000000
02000000
00000000
,  // measure 57
03002000
00000000
00013000
00001000
00010000
00000000
00000100
00001000
,  // measure 58
00000100
00000000
00001000
00000010
00001000
00000000
00000001
00000100
,  // measure 59
00000001
00000000
00000010
00000100
00001000
00000000
00000100
00010000
,  // measure 60
00001000
00000000
00100000
00010000
01000000
00000000
00002000
00000000
,  // measure 61
00013000
00000000
00001000
00010000
00001000
00000000
00100000
00010000
,  // measure 62
00100000
00000000
00010000
01000000
00010000
00000000
10000000
00100000
,  // measure 63
10000000
00000000
01000000
00100000
00010000
00000000
00100000
00001000
,  // measure 64
00010000
00000000
00000100
00001000
00000010
00000000
00010000
00000000
,  // measure 65
00001000
00000020
00000000
00000000
,  // measure 66
00000000
00000000
00000000
00000000
,  // measure 67
00000000
00000000
00000000
00000000
,  // measure 68
00000000
00000000
00000000
00000000
,  // measure 69
00000000
00000030
00000000
00000000
;

//---------------dance-double - ----------------
#NOTES:
     dance-double:
     :
     Hard:
     13:
     0.601605,0.765524,0.536933,0.200034,0.089489,400.000000,349.000000,51.000000,19.000000,0.000000,0.000000,0.601605,0.765524,0.536933,0.200034,0.089489,400.000000,349.000000,51.000000,19.000000,0.000000,0.000000:
// measure 0
00000000
00000000
00000000
00000000
,  // measure 1
00000000
00000000
00000000
00000000
,  // measure 2
00000000
00000000
00000000
00000000
,  // measure 3
00000000
00000000
00000000
00000000
,  // measure 4
00000000
00000000
00000000
00000000
,  // measure 5
00010000
00000000
00000000
00010000
00000000
00000000
00000000
00000000
00000000
00000000
00000100
00000000
00001000
00000000
00000000
00000000
,  // measure 6
00000010
00000000
00000100
00000000
00000000
00001000
00010000
00000000
,  // measure 7
00001000
00000000
00000000
00001000
00000000
00000000
00000000
00000000
00000000
00000000
00100000
00000000
00010000
00000000
00000000
00000000
,  // measure 8
01000000
00000000
00100000
02000000
03000000
01000000
00010000
00000000
,  // measure 9
10000000
01000000
00100000
00010000
10000000
01000000
00100000
00010000
,  // measure 10
01000000
00100000
00010000
00001000
01000000
00100000
00010000
00001000
,  // measure 11
00100000
00010000
00001000
00000100
00100000
00010000
00001000
00000100
,  // measure 12
00010000
00001000
00000100
00000010
00000001
00000010
00000100
00000100
,  // measure 13
00000001
00000010
00000100
00001000
00000001
00000010
00000100
00001000
,  // measure 14
00000010
00000100
00001000
00010000
00000010
00000100
00001000
00010000
,  // measure 15
00000100
00001000
00010000
00100000
00000100
00001000
00010000
00100000
,  // measure 16
00001000
00010000
00100000
01000000
10000000
01000000
00100000
00100000
,  // measure 17
20000000
00000000
00000000
00000000
,  // measure 18
00000000
00000000
00000000
00000000
,  // measure 19
30000000
00000000
00000000
00000000
,  // measure 20
00000000
00000000
00000000
00000000
,  // measure 21
00022000
00000000
00000000
00000000
,  // measure 22
00000000
00000000
00000000
00000000
,  // measure 23
00033000
00000000
00000000
00000000
,  // measure 24
00000000
00000000
00000000
00000000
,  // measure 25
00000001
00000001
00000010
00000010
,  // measure 26
00000100
00000100
00001000
00001000
,  // measure 27
00010000
00010000
01000000
01000000
,  // measure 28
00100000
00100000
10000000
10000000
,  // measure 29
00010000
00000000
00100000
00000000
00010000
00000000
00100000
00000000
00010000
00000000
00100000
00000000
00010000
00100000
00010000
00000000
,  // measure 30
01000000
00000000
00010000
00000000
01000000
00000000
00010000
00000000
01000000
00000000
00010000
00000000
01000000
00010000
01000000
00000000
,  // measure 31
00001000
00000000
00010000
00000000
00001000
00000000
00010000
00000000
00001000
00000000
00010000
00000000
00001000
00010000
00001000
00000000
,  // measure 32
00020000
02030000
13000000
00200000
,  // measure 33
00310000
00011000
00011000
00010100
,  // measure 34
00010100
00011000
01001000
00011000
,  // measure 35
00001000
00000010
00000011
00000000
00000011
00000000
00001001
00000000
,  // measure 36
00001001
00001100
00011000
02010000
,  // measure 37
03100000
10000000
00100000
10000000
00010000
00000000
00110000
00000000
10010000
00000000
00000000
00000000
11000000
00000000
00000000
00000000
,  // measure 38
11000000
01010000
00101000
00010100
,  // measure 39
00001000
00000001
00000101
00000100
00000110
00000000
00001001
00000000
,  // measure 40
00001001
00000000
00000001
00001000
00000001
00001000
00000200
00000000
,  // measure 41
00000310
00000001
00000010
00000000
00000100
00000000
00001000
00000000
00000100
00000000
00001000
00000000
00000010
00000000
00001000
00000000
,  // measure 42
00000010
00001000
00000001
00000010
00000001
00000010
00001000
00010000
,  // measure 43
01000000
10000000
00010000
01000000
00010000
01000000
00100000
10000000
,  // measure 44
00100000
01000000
00010000
00100000
01000000
00100000
00020000
00000000
,  // measure 45
01030000
00010000
01000000
00000000
00001000
00000000
00010000
00000000
00001000
00000000
00010000
00000000
00001000
00100000
00001000
00000000
,  // measure 46
00010000
00000010
00001000
00000100
00001000
00000010
00000100
00001000
,  // measure 47
00000100
00000000
00000010
00000000
00001000
00000000
00000001
00000000
00001000
00000000
00000001
00000000
00000010
00000100
00000010
00000000
,  // measure 48
00000100
00010000
00001000
00100000
00010000
01000000
00200000
00000000
,  // measure 49
01300000
00100000
10000000
00000000
10100000
00000000
00000000
00000000
10100000
00000000
00000000
00000000
01010000
00000000
00000000
00000000
,  // measure 50
01010000
00011000
00001100
00000022
,  // measure 51
00000033
00000001
00000101
00000101
00001010
00000000
00011000
00000000
,  // measure 52
00011000
00110000
11000000
20010000
,  // measure 53
30010000
01000000
00100000
00000000
10100000
00000000
10100000
00000000
00110000
00000000
00000000
00000000
00011000
00000000
00000000
00000000
,  // measure 54
00011000
01010000
00011000
00002200
,  // measure 55
00003300
00000000
00010000
00001000
00010000
00000000
00000010
00000000
00001000
00000000
00000000
00000000
00000110
00000000
00000000
00000000
,  // measure 56
00000110
00000000
00010000
00001000
00010000
00001000
00200000
00000000
,  // measure 57
00310000
10000000
01000000
00000000
00100000
00000000
00010000
00000000
00100000
00000000
00010000
00000000
01000000
00000000
00010000
00000000
,  // measure 58
01000000
00010000
10000000
01000000
10000000
01000000
00010000
00001000
,  // measure 59
00000010
00000001
00001000
00000010
00001000
00000010
00000100
00000001
,  // measure 60
00000100
00000010
00001000
00000100
00000010
00000100
00002000
00003001
,  // measure 61
00000001
00000100
00000010
00000000
00001000
00000000
00000001
00000000
00001000
00000000
00000001
00000000
00000010
00000000
00000001
00000000
,  // measure 62
00000010
00000001
00000010
00000100
00000010
00000100
00001000
00000100
,  // measure 63
00010000
00000000
00010000
00000000
00001000
00000000
00100000
00000000
00001000
00000000
00100000
00000000
00010000
10000000
00100000
00000000
,  // measure 64
01000000
00100000
10000000
01000000
00010000
00001000
00000010
00000100
,  // measure 65
00010000
00001000
00000200
00000000
00000000
00000000
00000000
00000000
,  // measure 66
00000000
00000000
00000000
00000000
,  // measure 67
00000000
00000000
00000000
00000000
,  // measure 68
00000000
00000000
00000000
00000000
,  // measure 69
00000000
00000300
00000000
00000000
;
