#TITLE:LOL!;
#SUBTITLE:;
#ARTIST:ApachE;
#TITLETRANSLIT:;
#SUBTITLETRANSLIT:;
#ARTISTTRANSLIT:;
#GENRE:BEMANI;
#CREDIT:;
#BANNER:LOL!.png;
#BACKGROUND:LOL!-bg.png;
#LYRICSPATH:;
#CDTITLE:../cdtitle.png;
#MUSIC:LOL!.ogg;
#OFFSET:0.858000;
#SAMPLESTART:45.876999;
#SAMPLELENGTH:15.000000;
#SELECTABLE:YES;
#BPMS:0.000000=190.000000
;
#STOPS:
;
#BGCHANGES:-99.000=../bg.avi=1.000=0=0=1=====,
99999=-nosongbg-=1.000=0=0=0 // don't automatically add -songbackground-
;
#KEYSOUNDS:;
#ATTACKS:;

//---------------dance-single - ----------------
#NOTES:
     dance-single:
     :
     Beginner:
     4:
     0.222537,0.295155,0.337059,0.145755,0.000000,171.000000,134.000000,37.000000,16.000000,0.000000,0.000000,0.222537,0.295155,0.337059,0.145755,0.000000,171.000000,134.000000,37.000000,16.000000,0.000000,0.000000:
0000
0000
0000
0000
,
0000
0000
0000
0000
,
0000
0000
0000
0000
,
0000
0000
0000
0000
,
0000
0000
0000
0000
,
2000
0000
3000
0000
,
2000
0000
3000
0000
,
0002
0000
0003
0000
,
0002
0000
0003
0000
,
1001
0000
0000
1001
,
0000
0000
1001
0000
,
0110
0000
0000
0110
,
0000
0000
0110
0000
,
1000
0000
1000
0000
,
1000
0000
1000
0000
,
0100
0000
0100
0000
,
0100
0000
0100
0000
,
0002
0000
0003
0000
,
0020
0000
0030
0000
,
0110
0000
0000
1001
,
0000
0000
0110
0000
,
1001
0000
0001
0000
,
0001
0000
0001
0000
,
0010
0000
0010
0000
,
0010
0000
0010
0000
,
2000
0000
3000
0000
,
0200
0000
0300
0000
,
0110
0000
0000
1001
,
0000
0000
0110
0000
,
1000
0000
0001
0000
,
0001
0000
0100
0000
,
0020
0000
0030
0000
,
2000
0000
3000
0000
,
0001
0000
1000
0000
,
1000
0000
0100
0000
,
0000
0010
0010
0000
,
0110
0000
0000
0000
,
0001
0001
0001
0000
,
1000
0000
0010
0000
,
0001
0001
0001
0000
,
0100
0000
1000
0000
,
0001
0001
0001
0000
,
1000
0000
0001
0000
,
0110
0000
0000
0110
,
0000
0000
0001
0000
,
1000
1000
1000
0000
,
0001
0000
0010
0000
,
0010
0000
0100
0000
,
1000
0000
0001
0000
,
1000
0000
0010
0000
,
0001
0000
0100
0000
,
1001
0000
0000
1001
,
0000
0000
0010
0000
,
0110
0000
0000
0110
,
0000
0000
0110
0000
,
1001
0000
0000
1001
,
0000
0000
1001
0000
,
0020
0000
0030
0000
,
0100
0100
0100
0000
,
0001
0000
1000
0000
,
1000
0000
0001
0000
,
0010
0010
0010
0000
,
0010
0010
0010
0000
,
0110
0000
0000
0110
,
0000
0000
0110
0000
,
1001
0000
0000
1001
,
0000
0000
1001
0000
,
0220
0000
0330
0000
,
2002
0000
3003
0000
,
0100
0100
0100
0000
,
0010
0010
0010
0000
,
0001
0000
0001
0000
,
1000
0000
1000
0000
,
0100
0100
0100
0000
,
0010
0010
0010
0000
,
1001
0000
0000
1001
,
0000
0000
1001
0000
,
0110
0000
0000
0110
,
0000
0000
0010
0020
,
0000
0000
0000
0000
,
0000
0000
0000
0000
,
0030
0000
0000
0000
;

//---------------dance-single - ----------------
#NOTES:
     dance-single:
     :
     Easy:
     8:
     0.348772,0.442732,0.127536,0.136646,0.000000,268.000000,254.000000,14.000000,15.000000,0.000000,0.000000,0.348772,0.442732,0.127536,0.136646,0.000000,268.000000,254.000000,14.000000,15.000000,0.000000,0.000000:
0000
0000
0000
0000
,
0000
0000
0000
0000
,
0000
0000
0000
0000
,
0000
0000
0000
0000
,
0000
0000
0000
0000
,
1000
1000
1100
1000
,
0010
0100
0010
1000
,
0001
0000
0001
0000
0101
0000
0000
2002
,
0000
3003
1000
0000
0002
0000
0003
0000
,
0001
0000
0000
0001
0000
0000
0100
0000
,
0000
0100
0000
0000
0010
0000
1000
0000
,
0100
0000
0000
0100
0000
0000
0010
0000
,
0000
0010
0000
0000
0001
0000
1000
0000
,
1000
0100
0010
0001
,
1000
0100
0010
0001
,
1000
0010
0100
0001
,
1000
0010
0100
0001
,
1000
1000
0001
0001
,
0100
1000
0100
0010
,
1000
0000
0000
1000
0000
0000
0100
0000
,
0000
0100
0000
0000
0010
0000
0001
0000
,
0001
0100
0010
1000
,
0001
0100
0010
1000
,
0001
0010
0100
1000
,
0001
0010
0100
1000
,
0001
0001
1000
1000
,
0100
0001
0100
0010
,
0001
0000
0000
0001
0000
0000
0100
0000
,
0000
0100
0000
0000
0010
0000
1000
0000
,
1000
0100
0001
0100
,
1000
0010
0001
0010
,
1000
1000
0001
0001
,
0010
0010
0100
0100
,
1000
0010
0001
0010
,
1000
0100
0001
0100
,
0000
0000
1000
0000
1001
0000
0000
0010
,
0000
0220
0000
0000
0000
0000
0330
0000
,
1000
1000
1100
0000
,
0001
1000
0010
0100
,
0110
1001
0110
0000
,
1000
0001
0010
0100
,
1000
1000
1100
0000
,
0001
1000
0010
0100
,
0001
0000
0000
0001
0000
0000
1000
0000
,
0000
1000
0100
0010
,
0001
0001
0011
0000
,
1000
0001
0100
0010
,
1000
1000
0001
0001
,
0010
0100
1000
0001
,
1000
1000
0100
0100
,
0001
0100
1000
0001
,
1000
0000
0000
1000
0000
0000
0001
0000
,
0000
0001
0100
0010
,
1000
0000
0000
1000
0000
0000
0100
0000
,
0000
0100
0000
0000
0010
0000
0001
0000
,
0100
0000
0000
0100
0000
0000
0010
0000
,
0000
0010
0000
0000
1000
0000
0001
0000
,
0001
0010
0100
1000
,
0001
0001
0002
1003
,
0100
0010
0001
0100
,
0010
1000
0002
0003
,
0100
0100
0100
0100
,
0010
0010
0010
0010
,
1000
0000
0000
1000
0000
0000
0001
0000
,
0000
0001
0010
0100
,
1000
0000
0000
1000
0000
0000
0001
0000
,
0000
0001
0100
0010
,
0220
0000
0000
0330
,
2002
0000
0000
3003
,
1000
0100
0010
0001
,
1000
1000
2000
3001
,
1000
0100
0001
0100
,
1000
0010
0001
0010
,
1000
1000
0100
0100
,
0001
0010
2000
3000
,
0001
0000
0000
0001
0000
0000
1000
0000
,
0000
1000
0100
0010
,
0001
0000
0000
0001
0000
0000
1000
0000
,
0000
1000
0010
0202
,
0000
0000
0000
0000
,
0000
0000
0000
0000
,
0303
0000
0000
0000
;

//---------------dance-single - ----------------
#NOTES:
     dance-single:
     :
     Medium:
     11:
     0.494527,0.516520,0.409937,0.501034,0.000000,380.000000,335.000000,45.000000,55.000000,0.000000,0.000000,0.494527,0.516520,0.409937,0.501034,0.000000,380.000000,335.000000,45.000000,55.000000,0.000000,0.000000:
0000
0000
0000
0000
,
0000
0000
0000
0000
,
0000
0000
0000
0000
,
0000
0000
0000
0000
,
0000
0000
0000
0000
,
1000
0100
0000
0001
0100
0000
1000
0010
,
0000
0001
0010
0000
1000
0000
1000
0000
,
0001
0010
0000
1000
0010
0000
0001
0002
,
0000
1003
2000
0000
3010
0200
0000
0300
,
1001
0000
0000
0100
0000
0000
1001
0000
,
0000
0100
0000
0000
1001
0000
0100
0000
,
1010
0000
0000
1100
0000
0000
0101
0000
,
0000
0011
0000
0000
0110
0000
0110
0000
,
2001
0000
3010
0000
0100
0001
1000
0000
,
0200
0000
0310
0000
0001
1000
0100
0000
,
2000
0000
3010
0000
0100
0001
1000
0000
,
0002
0000
0013
0000
0100
1000
0001
0000
,
2000
3100
0002
0103
,
1000
0100
1000
0000
0010
0000
0100
0000
,
1001
0000
0000
0100
0000
0000
1001
0000
,
0000
0100
0000
0000
0110
0000
0110
0000
,
1002
0000
0103
0000
0010
1000
0001
0000
,
0020
0000
0130
0000
1000
0001
0010
0000
,
0002
0000
0103
0000
0010
1000
0001
0000
,
2000
0000
3100
0000
0010
0001
1000
0000
,
0002
0013
2000
3010
,
0001
0010
0001
0000
0100
0000
0010
0000
,
1001
0000
0000
0010
0000
0000
1001
0000
,
0000
0010
0000
0000
0110
0000
0110
0000
,
1002
0023
0230
2300
,
3020
0000
0032
0000
0013
1000
0010
0000
,
2000
0100
3020
0100
,
2030
0100
3002
0100
,
2003
3200
0320
0032
,
0203
0000
1300
0100
0000
0100
0001
0000
,
0000
1000
1000
0000
0001
0001
0000
0010
,
0000
0220
0000
0000
0330
0001
1000
0000
,
1100
0001
2200
3300
,
0001
0100
0010
0000
1000
0000
0100
0000
,
0011
1000
0022
0033
,
1000
0010
0100
0000
0001
0000
0010
0000
,
1100
0001
2200
3300
,
0001
0100
0010
0000
1000
0000
0100
0000
,
0010
0010
0000
0100
0100
0000
1000
1000
,
0000
0001
0002
0000
2003
0000
3010
0000
,
0101
1000
0202
0303
,
1000
0100
0010
0000
0001
0000
0100
0000
,
0010
0100
0010
0000
1000
0100
1000
0000
,
0010
0000
0001
0000
0010
0100
0010
0000
,
1000
0010
1000
0000
0001
0100
0001
0000
,
1000
0100
1000
0000
0001
0000
0010
0000
,
0100
0100
0000
0010
0010
0000
0001
0001
,
0000
1000
2000
0000
3002
0000
0103
0000
,
1001
0000
0000
0010
0000
0000
1001
0000
,
0000
0010
0000
0000
1001
0000
0010
0000
,
0101
0000
0000
0011
0000
0000
1010
0000
,
0000
1100
0000
0000
0110
0000
0110
0000
,
1002
0103
2000
3100
,
0001
0100
0001
0000
2000
0000
3100
0000
,
0010
0100
1000
0000
0010
0100
0001
0000
,
0010
0100
1000
0000
0020
0000
0130
0000
,
0001
0001
0010
0000
1000
1000
0010
0000
,
0001
0001
0100
0000
1000
1000
0100
0000
,
0001
0100
0000
0010
1000
0000
0100
0010
,
0000
0001
1000
0000
0001
0000
0110
0000
,
1000
0100
0000
0010
0001
0000
0100
0010
,
0000
1000
0001
0000
1000
0000
0110
0000
,
2002
0000
0000
3003
,
0120
0000
0100
0000
0130
0010
0100
0010
,
1000
0001
0010
0000
0001
1000
0010
0000
,
0100
0001
0010
0000
0200
0000
1300
0000
,
0001
0010
1000
0000
0001
0100
1000
0000
,
0001
0100
1000
0000
0001
0010
1000
0000
,
0001
0001
0010
0000
1000
1000
0010
0000
,
0001
0001
0100
0000
1000
0200
0000
0300
,
0001
0100
0000
0010
1000
0000
0100
0010
,
0000
0001
1000
0000
0001
0000
0110
0000
,
1000
1000
0000
0100
0100
0000
0001
0001
,
0000
0010
0010
0000
1000
0000
0220
0000
,
0000
0000
0000
0000
,
0000
0000
0000
0000
,
0330
0000
0000
0000
;

//---------------dance-single - ----------------
#NOTES:
     dance-single:
     :
     Hard:
     14:
     0.760010,0.774781,0.783435,0.245962,0.018219,584.000000,498.000000,86.000000,27.000000,0.000000,0.000000,0.760010,0.774781,0.783435,0.245962,0.018219,584.000000,498.000000,86.000000,27.000000,0.000000,0.000000:
// measure 0
0000
0000
0000
0000
,  // measure 1
0000
0000
0000
0000
,  // measure 2
0000
0000
0000
0000
,  // measure 3
0000
0000
0000
0000
,  // measure 4
0000
0000
0000
0000
,  // measure 5
1000
0010
0010
0001
0010
0010
1000
0002
,  // measure 6
0000
0013
0100
1000
0100
0010
0001
1000
,  // measure 7
0001
0100
0100
1000
0100
0100
0001
2001
,  // measure 8
0000
3100
0010
0010
0001
2000
0000
3010
,  // measure 9
0101
0000
0010
1100
0000
0010
0101
0000
,  // measure 10
0010
1100
0000
0010
0101
0001
1000
0001
,  // measure 11
0011
0000
0100
1010
0000
0100
0011
0000
,  // measure 12
0100
1010
0010
0001
1000
0100
0010
0100
,  // measure 13
2100
0000
3001
1000
0010
0100
0010
1000
,  // measure 14
0001
0100
0010
0010
0100
0001
0010
0100
,  // measure 15
1000
1000
0001
1000
0010
0100
0001
1000
,  // measure 16
0001
0001
1000
1000
0100
0010
1000
0010
,  // measure 17
0001
0100
0010
1000
0001
0010
0100
0010
,  // measure 18
0001
0001
1000
1000
0010
0001
0010
1000
,  // measure 19
1010
0000
0001
0101
0000
0010
1010
0000
,  // measure 20
0001
0011
0000
0100
1100
0001
1000
0001
,  // measure 21
0012
0000
1003
0001
0100
0010
0100
0001
,  // measure 22
1000
0010
0100
0100
0010
1000
0100
0010
,  // measure 23
0001
0001
1000
0001
0100
0010
1000
0001
,  // measure 24
1000
1000
0001
0001
0010
0100
0001
0100
,  // measure 25
1000
0010
0100
0001
1000
0100
0010
0100
,  // measure 26
1000
1000
0001
0001
0100
1000
0100
0001
,  // measure 27
0101
0000
1000
1010
0000
0100
0101
0000
,  // measure 28
1000
1100
0000
0010
0011
1000
0001
1000
,  // measure 29
2100
0000
3010
0100
0010
1000
0001
0010
,  // measure 30
0100
0010
0001
1000
0100
0010
0001
1000
,  // measure 31
2100
0000
3010
0100
0102
0000
0013
0100
,  // measure 32
1000
1000
0001
0001
0010
0100
2000
3000
,  // measure 33
2100
0000
3010
0100
0010
1000
0001
0010
,  // measure 34
0100
0100
0010
0010
0001
1000
0200
0000
,  // measure 35
0300
1100
1100
0000
0011
0011
0000
0101
,  // measure 36
0000
2010
0000
3001
0010
0100
1000
0001
,  // measure 37
0011
0000
0110
0000
0011
0000
0001
0100
,  // measure 38
0010
0100
0001
1000
0010
0100
0001
0000
,  // measure 39
0101
0000
0110
0000
0101
0000
0001
0010
,  // measure 40
0100
0010
0001
1000
0100
0010
0001
1000
,  // measure 41
1100
0000
0110
0000
1100
0000
1000
0010
,  // measure 42
0100
0010
1000
0001
0100
0010
2000
0000
,  // measure 43
3010
0011
0000
0010
1010
0000
0010
0011
,  // measure 44
0000
0010
1010
1000
0001
0010
0100
1000
,  // measure 45
1010
0000
0110
0000
1010
0000
1000
0100
,  // measure 46
0010
0100
1000
0001
0010
0100
2000
0000
,  // measure 47
3001
0010
0100
0100
0010
0001
0100
0100
,  // measure 48
0010
1000
0100
0010
0001
1000
0200
0000
,  // measure 49
1300
0001
0010
0010
0001
1000
0010
0010
,  // measure 50
0100
0010
1000
0001
0010
0100
0010
0001
,  // measure 51
0100
1100
0000
0100
0101
0000
0100
1100
,  // measure 52
0000
0100
0101
0001
1000
0100
0010
0001
,  // measure 53
0011
0000
0100
1010
0000
0100
0011
0000
,  // measure 54
0100
1010
0000
0100
0011
0001
1000
0001
,  // measure 55
0101
0000
0010
1100
0000
0010
0101
0000
,  // measure 56
0010
1100
0100
0001
1000
0010
0100
0010
,  // measure 57
2010
3100
0012
0203
,  // measure 58
0310
1000
0001
0010
0100
0010
0002
0000
,  // measure 59
1003
0100
0010
0010
0001
0100
0010
0010
,  // measure 60
1000
0100
0010
0100
2000
0000
3001
0000
,  // measure 61
1000
1000
0100
0100
0010
0010
0001
0001
,  // measure 62
1000
0100
0010
0001
1000
0010
0100
0001
,  // measure 63
1000
1100
0000
0001
0101
0000
1000
1010
,  // measure 64
0000
0001
0010
0001
0010
0000
0110
0000
,  // measure 65
1000
1010
0000
0001
0011
0000
1000
1100
,  // measure 66
0000
0001
0100
0001
0100
0000
0110
0000
,  // measure 67
0220
0000
0000
0330
,  // measure 68
1002
0000
0000
0000
1000
0000
0000
0000
1003
0001
1000
0001
1000
0001
1000
0001
,  // measure 69
1000
0100
0001
0001
0100
1000
0010
0010
,  // measure 70
0001
0010
1000
0001
0010
0100
1000
0001
,  // measure 71
1000
0100
0010
0010
0001
0100
0010
0010
,  // measure 72
1000
0100
0010
0100
1000
0001
1000
0010
,  // measure 73
0100
0100
0010
1000
0001
0001
0010
0100
,  // measure 74
1000
1000
0001
0001
0100
2020
0000
3030
,  // measure 75
1000
1100
0000
0001
0101
0000
1000
1010
,  // measure 76
0000
0001
0010
0001
0010
0000
0110
0000
,  // measure 77
1100
1010
0000
0101
0011
0000
1010
1100
,  // measure 78
0000
0001
0100
0010
0110
0000
2002
0000
,  // measure 79
0000
0000
0000
0000
,  // measure 80
0000
0000
0000
0000
,  // measure 81
3003
0000
0000
0000
;
