#TITLE:LIGHTSABER;
#SUBTITLE:;
#ARTIST:EXO;
#TITLETRANSLIT:;
#SUBTITLETRANSLIT:;
#ARTISTTRANSLIT:;
#GENRE:K-Pop;
#CREDIT:;
#BANNER:LIGHTSABER.png;
#BACKGROUND:LIGHTSABER-bg.png;
#LYRICSPATH:;
#CDTITLE:../cdtitle.png;
#MUSIC:LIGHTSABER.ogg;
#OFFSET:-0.219000;
#SAMPLESTART:70.497002;
#SAMPLELENGTH:15.000000;
#SELECTABLE:YES;
#BPMS:0.000000=140.000000
;
#STOPS:
;
#BGCHANGES:0.000=LIGHTSABER.avi=1.000=0=0=0=StretchNoLoop====,
99999=-nosongbg-=1.000=0=0=0 // don't automatically add -songbackground-
;
#KEYSOUNDS:;
#ATTACKS:;

//---------------dance-single - ----------------
#NOTES:
     dance-single:
     :
     Beginner:
     3:
     0.121052,0.196014,0.038959,0.165577,0.000000,87.000000,83.000000,4.000000,17.000000,0.000000,0.000000,0.121052,0.196014,0.038959,0.165577,0.000000,87.000000,83.000000,4.000000,17.000000,0.000000,0.000000:
// measure 0
0000
0000
0000
0000
,  // measure 1
0000
0000
0000
0000
,  // measure 2
0000
0000
0000
0000
,  // measure 3
0000
0000
0000
0000
,  // measure 4
0000
0000
0000
0000
,  // measure 5
2000
0000
0000
0000
,  // measure 6
0000
0000
3000
0000
,  // measure 7
0002
0000
0000
0000
,  // measure 8
0000
0000
0003
0000
,  // measure 9
2000
0000
0000
0000
,  // measure 10
0000
0000
3000
0000
,  // measure 11
0002
0000
0000
0000
,  // measure 12
0000
0000
0003
0000
,  // measure 13
0010
0000
0001
0000
,  // measure 14
0010
0000
0010
0000
,  // measure 15
0100
0000
1000
0000
,  // measure 16
0100
0000
0100
0000
,  // measure 17
1000
0000
0100
0000
,  // measure 18
0001
0000
0100
0000
,  // measure 19
1000
0000
0010
0000
,  // measure 20
0001
0000
0001
0000
,  // measure 21
2000
0000
0000
0000
,  // measure 22
0000
0000
3000
0000
,  // measure 23
0002
0000
0000
0000
,  // measure 24
0000
0000
0003
0000
,  // measure 25
0010
0000
0001
0000
,  // measure 26
0010
0000
0001
0000
,  // measure 27
2000
0000
3000
0000
,  // measure 28
0020
0000
0030
0000
,  // measure 29
0001
0000
0001
0000
,  // measure 30
0100
0000
0100
0000
,  // measure 31
1000
0000
0002
0000
,  // measure 32
0003
0000
0000
0000
,  // measure 33
1001
0000
0100
0200
,  // measure 34
0000
0000
0000
0300
,  // measure 35
1000
0000
0010
0020
,  // measure 36
0000
0000
0000
0030
,  // measure 37
0110
0000
1000
2000
,  // measure 38
0000
0000
0000
3000
,  // measure 39
0100
0000
0001
0002
,  // measure 40
0000
0003
0001
0000
,  // measure 41
1001
0000
0001
0000
,  // measure 42
0000
0010
0010
0000
,  // measure 43
0100
0000
1000
0000
,  // measure 44
0020
0000
0030
0000
,  // measure 45
1001
0000
1000
0000
,  // measure 46
0000
0010
0010
0000
,  // measure 47
0100
0000
0001
0000
,  // measure 48
0020
0000
0030
0000
,  // measure 49
0100
0100
0100
0000
,  // measure 50
0001
0000
0100
0000
,  // measure 51
1000
1000
0010
0000
,  // measure 52
2000
0000
3000
0000
,  // measure 53
0001
0001
0001
0000
,  // measure 54
0010
0010
0010
0000
,  // measure 55
0100
0100
0100
0000
,  // measure 56
1000
1000
1000
0000
,  // measure 57
0002
0000
0003
0000
;

//---------------dance-single - ----------------
#NOTES:
     dance-single:
     :
     Easy:
     6:
     0.253236,0.335294,0.243496,0.292195,0.000000,182.000000,157.000000,25.000000,30.000000,0.000000,0.000000,0.253236,0.335294,0.243496,0.292195,0.000000,182.000000,157.000000,25.000000,30.000000,0.000000,0.000000:
// measure 0
0000
0000
0000
0000
,  // measure 1
0000
0000
0000
0000
,  // measure 2
0000
0000
0000
0000
,  // measure 3
0000
0000
0000
0000
,  // measure 4
0000
0000
0000
0000
,  // measure 5
2000
0000
0000
0000
3002
0000
0000
0020
,  // measure 6
0000
0000
0033
0000
,  // measure 7
0200
0000
0000
0000
2300
0000
0000
0020
,  // measure 8
0000
0000
3030
0000
,  // measure 9
0001
0000
0000
0000
0020
0000
0000
2000
,  // measure 10
0000
0000
3030
0000
,  // measure 11
0100
0000
0000
0000
0020
0000
0000
0032
,  // measure 12
0000
0000
2000
3003
,  // measure 13
1001
0001
0100
0001
,  // measure 14
0010
0010
0001
0110
,  // measure 15
0001
1000
0100
1000
,  // measure 16
0010
0010
1000
0110
,  // measure 17
0001
0010
1010
0000
,  // measure 18
1000
0100
0101
0000
,  // measure 19
1000
0010
0001
0010
,  // measure 20
1000
1000
0001
0010
,  // measure 21
0110
0000
2000
0000
,  // measure 22
0002
0000
0000
3003
,  // measure 23
0100
0000
0020
0000
,  // measure 24
0200
0000
0000
0330
,  // measure 25
1001
0100
0010
0010
,  // measure 26
1000
0001
0100
0001
,  // measure 27
2000
0000
3100
0000
,  // measure 28
0002
0000
0013
0110
,  // measure 29
1000
1000
0001
0001
,  // measure 30
0010
0010
0100
0100
,  // measure 31
1000
0010
0001
0100
,  // measure 32
2000
0000
3000
0000
,  // measure 33
1001
0000
0100
0200
,  // measure 34
0000
1000
0301
0110
,  // measure 35
2000
0000
0001
0020
,  // measure 36
3000
0130
0010
1001
,  // measure 37
0110
0000
1000
2000
,  // measure 38
0000
0010
3100
1001
,  // measure 39
0020
0000
0100
0002
,  // measure 40
0030
1003
0001
0110
,  // measure 41
1001
0100
0010
0110
,  // measure 42
0000
1000
0002
0003
,  // measure 43
0011
0100
0010
0100
,  // measure 44
2000
0000
3001
0000
,  // measure 45
1001
0010
0100
0110
,  // measure 46
0000
0001
2000
3010
,  // measure 47
1100
0010
1100
0010
,  // measure 48
0002
0000
1003
0000
,  // measure 49
0110
0001
1000
0110
,  // measure 50
0001
0010
0100
1001
,  // measure 51
1000
0100
0001
0100
,  // measure 52
2000
0010
3010
0110
,  // measure 53
0001
0001
0010
0010
,  // measure 54
1000
1000
0100
0100
,  // measure 55
0001
0010
1000
0100
,  // measure 56
0001
0100
1000
0010
,  // measure 57
0002
0000
0000
0003
0000
0000
0000
0000
;

//---------------dance-single - ----------------
#NOTES:
     dance-single:
     :
     Medium:
     9:
     0.339503,0.391177,0.214277,0.292195,0.121748,244.000000,222.000000,22.000000,30.000000,0.000000,0.000000,0.339503,0.391177,0.214277,0.292195,0.121748,244.000000,222.000000,22.000000,30.000000,0.000000,0.000000:
// measure 0
0000
0000
0000
0000
,  // measure 1
0000
0000
0000
0000
,  // measure 2
0000
0000
0000
0000
,  // measure 3
0000
0000
0000
0000
,  // measure 4
0000
0000
0000
0000
,  // measure 5
0020
0000
0000
0000
0030
0000
0000
0000
0100
0000
0000
1000
0000
0000
0002
0000
,  // measure 6
0000
0000
0000
0003
,  // measure 7
2000
0000
0000
0000
3000
0000
0000
0000
0010
0000
0000
0001
0000
0000
0020
0000
,  // measure 8
0000
0000
0000
0030
,  // measure 9
2000
0000
0000
0000
3000
0000
0000
0000
0100
0000
0000
0010
0000
0000
0002
0000
,  // measure 10
0000
0000
0000
0003
,  // measure 11
0020
0000
0000
0000
0030
0000
0000
0000
0100
0000
0000
1000
0000
0000
0020
0000
,  // measure 12
0000
0000
2000
3030
,  // measure 13
0110
0000
0001
0010
0001
0000
0001
0000
,  // measure 14
0100
0010
1000
1001
,  // measure 15
0110
0000
1000
0100
1000
0000
1000
0000
,  // measure 16
0010
0100
0001
1001
,  // measure 17
1000
0000
0000
0100
0000
0000
0010
0000
0002
0000
0000
0000
0003
0000
0000
0000
,  // measure 18
0100
0000
0000
0010
0000
0000
1000
0000
0002
0000
0000
0000
0003
0000
0000
0000
,  // measure 19
0010
0000
0000
0010
0000
0000
0100
0000
1000
0000
0000
1000
0000
0000
0001
0000
,  // measure 20
0100
0010
0011
1010
,  // measure 21
2002
0000
0000
0000
3003
0000
0000
0000
1000
0000
0000
0100
0000
0000
0002
0000
,  // measure 22
0000
0000
0000
0003
,  // measure 23
2000
0000
0000
0000
3000
0000
0000
0000
0001
0000
0000
0100
0000
0000
2000
0000
,  // measure 24
0000
0000
0002
3003
,  // measure 25
0110
0000
0001
0100
0002
0000
1003
0000
,  // measure 26
0100
0010
0100
0000
1000
0000
0001
0000
,  // measure 27
0200
0000
0310
0000
,  // measure 28
2000
0000
0000
0000
3100
0010
0001
0000
,  // measure 29
2100
0001
0001
3010
,  // measure 30
1000
0100
0010
0000
0100
1000
0100
0000
,  // measure 31
0010
0001
0100
0010
1000
0100
0010
0000
,  // measure 32
0002
0000
0003
0010
,  // measure 33
1001
0000
0000
0000
0000
0000
0000
0000
0000
0000
0000
0000
0000
0001
0000
0000
0000
0000
0000
0000
0000
0000
0000
0000
1000
0000
0000
0000
0000
0000
0000
0000
0000
0000
0000
0000
0000
1000
0000
0000
0000
0000
0000
0000
0000
0000
0000
0000
0010
0000
0000
0000
0000
0000
0000
0000
0000
0000
0000
0000
0000
0010
0000
0000
,  // measure 34
0000
0000
0000
0000
0000
0000
0000
0000
0010
0000
0000
0000
0000
0000
0000
0000
0000
0000
0000
0000
0000
0010
0000
0000
0000
0000
0000
0000
0000
0000
0000
0000
0010
0000
0000
0000
0000
0000
0000
0000
0000
0000
0000
0000
0000
0000
0000
0000
0110
0000
0000
0000
0000
0000
0000
0000
0000
0000
0000
0000
0000
0000
0000
0000
,  // measure 35
0001
0000
0000
0000
0000
0000
0000
0000
0000
0000
0000
0000
0000
0001
0000
0000
0000
0000
0000
0000
0000
0000
0000
0000
0010
0000
0000
0000
0000
0000
0000
0000
0000
0000
0000
0000
0000
0010
0000
0000
0000
0000
0000
0000
0000
0000
0000
0000
0100
0000
0000
0000
0000
0000
0000
0000
0000
0000
0000
0000
0000
0100
0000
0000
,  // measure 36
0000
0000
0000
0000
0000
0000
0000
0000
0100
0000
0000
0000
0000
0000
0000
0000
0000
0000
0000
0000
0000
0100
0000
0000
0000
0000
0000
0000
0000
0000
0000
0000
0100
0000
0000
0000
0000
0000
0000
0000
0000
0000
0000
0000
0000
0000
0000
0000
2000
0000
0000
0000
0000
0000
0000
0000
0000
0000
0000
0000
0000
0000
0000
0000
,  // measure 37
3010
0000
0000
0000
0000
0000
0000
0000
0000
0000
0000
0000
0000
0010
0000
0000
0000
0000
0000
0000
0000
0000
0000
0000
0100
0000
0000
0000
0000
0000
0000
0000
0000
0000
0000
0000
0000
0100
0000
0000
0000
0000
0000
0000
0000
0000
0000
0000
0001
0000
0000
0000
0000
0000
0000
0000
0000
0000
0000
0000
0000
0001
0000
0000
,  // measure 38
0000
0000
0000
0000
0000
0000
0000
0000
0001
0000
0000
0000
0000
0000
0000
0000
0000
0000
0000
0000
0000
0001
0000
0000
0000
0000
0000
0000
0000
0000
0000
0000
0001
0000
0000
0000
0000
0000
0000
0000
0000
0000
0000
0000
0000
0000
0000
0000
1001
0000
0000
0000
0000
0000
0000
0000
0000
0000
0000
0000
0000
0000
0000
0000
,  // measure 39
0010
0000
0000
0000
0000
0000
0000
0000
0000
0000
0000
0000
0000
0010
0000
0000
0000
0000
0000
0000
0000
0000
0000
0000
0001
0000
0000
0000
0000
0000
0000
0000
0000
0000
0000
0000
0000
0001
0000
0000
0000
0000
0000
0000
0000
0000
0000
0000
1000
0000
0000
0000
0000
0000
0000
0000
0000
0000
0000
0000
0000
1000
0000
0000
,  // measure 40
0000
1000
0100
0000
1000
0000
0110
0000
,  // measure 41
1001
0000
0010
0010
0010
0000
1001
0000
,  // measure 42
0000
0001
0100
0010
2000
0000
3001
0000
,  // measure 43
0110
0000
1000
1000
1000
0000
0010
0000
,  // measure 44
0200
0000
0000
0301
1000
0000
0100
0000
,  // measure 45
1001
0000
0010
0010
0010
0000
1001
0000
,  // measure 46
0000
1000
0100
0010
0002
0000
1003
1000
,  // measure 47
1000
0000
0001
0001
0001
0000
0010
0000
,  // measure 48
0200
0000
0000
1300
0001
0000
0100
0000
,  // measure 49
1010
0000
0001
0010
0001
0000
1100
0000
,  // measure 50
1000
0001
1000
0000
0020
0000
0130
0000
,  // measure 51
1010
0000
0001
0010
0001
0000
1000
0000
,  // measure 52
0020
0001
1030
1001
,  // measure 53
0001
0010
0001
0000
0010
1000
0010
0000
,  // measure 54
1000
0100
1000
0000
0100
0001
0100
0000
,  // measure 55
0001
0010
0100
0000
0010
0001
0100
0000
,  // measure 56
0010
1000
0100
0000
0001
0100
1000
0010
,  // measure 57
0002
0000
0000
1003
0000
0000
0000
0000
;

//---------------dance-single - ----------------
#NOTES:
     dance-single:
     :
     Hard:
     13:
     0.510646,0.726471,0.409074,0.409074,0.306805,367.000000,325.000000,42.000000,42.000000,0.000000,0.000000,0.510646,0.726471,0.409074,0.409074,0.306805,367.000000,325.000000,42.000000,42.000000,0.000000,0.000000:
// measure 0
0000
0000
0000
0000
,  // measure 1
0000
0000
0000
0000
,  // measure 2
0000
0000
0000
0000
,  // measure 3
0000
0000
0000
0000
,  // measure 4
0000
0000
0000
0000
,  // measure 5
0020
0000
0000
0000
0030
0000
1000
0000
0001
0000
0000
0010
0000
0000
2000
0000
,  // measure 6
0000
0000
0000
0000
0002
0000
0003
3010
,  // measure 7
0100
0000
1000
0000
0100
0000
0001
0000
0100
0000
0000
1000
0000
0000
0020
0000
,  // measure 8
0000
0000
0000
0000
0002
0000
0003
1030
,  // measure 9
0001
0000
0000
0000
0000
0000
0100
0000
0010
0000
0000
1000
0000
0000
0200
0000
,  // measure 10
0000
0000
0000
0000
0020
0000
0030
1300
,  // measure 11
0010
0000
0001
0000
0010
0000
1000
0000
0100
0000
0000
0010
0000
0000
0002
0000
,  // measure 12
0000
0000
0000
0000
0203
0000
0310
1000
,  // measure 13
1001
0000
0001
0010
0100
0010
1000
0001
,  // measure 14
0100
0010
0100
1000
0010
0100
0020
0030
,  // measure 15
1001
0000
1000
0100
0010
0100
0001
1000
,  // measure 16
0010
0100
0010
0001
0100
0010
2000
3000
,  // measure 17
0001
0000
0000
0101
0000
0000
0010
0000
1000
0000
0000
1100
0000
0000
0000
0000
,  // measure 18
1000
0000
0000
1001
0000
0000
0001
0000
0100
0000
0000
0110
0000
0000
0010
0000
,  // measure 19
1000
0000
0000
1100
0000
0000
1000
0000
0010
0000
0000
0101
0000
0000
0001
0000
,  // measure 20
0010
0100
0010
0000
0001
1000
0001
0000
0100
0010
1000
0001
0200
0000
0000
0000
,  // measure 21
0320
0000
0000
0000
0130
0000
0001
0000
0010
0000
0000
0100
0000
0000
2000
0000
,  // measure 22
0000
0000
0000
0000
0200
0000
0300
3001
,  // measure 23
0100
0000
0000
0000
0010
0000
0100
0000
0001
0000
0000
1000
0000
0000
0200
0000
,  // measure 24
0000
0000
0320
0031
,  // measure 25
1001
0000
0010
0100
0020
0000
1030
0100
,  // measure 26
0001
0100
1000
0100
0010
0100
1000
0000
,  // measure 27
2001
0000
3010
0100
0010
0000
1000
0000
,  // measure 28
1002
0000
0013
0000
0100
0000
0010
0000
0001
0100
0010
1000
0001
0000
0000
0000
,  // measure 29
0102
0000
0013
0100
0010
0000
0001
0000
,  // measure 30
1100
1000
0010
0100
0010
0010
1000
0001
,  // measure 31
0010
0100
0010
0100
0010
0001
0010
0001
1000
0100
1000
0100
0010
0001
0100
0010
,  // measure 32
2000
0000
0000
3001
0000
0000
0100
0000
,  // measure 33
0120
0000
0000
0000
0000
0000
0000
0000
0000
0000
0000
0000
0000
0001
0000
0000
0000
0000
0000
0000
0000
0000
0000
0000
1000
0000
0000
0000
0000
0000
0000
0000
0000
0000
0000
0000
0000
1000
0000
0000
0030
0000
0000
0000
0000
0000
0000
0000
1200
0000
0000
0000
0000
0000
0000
0000
0000
0000
0000
0000
0000
0010
0000
0000
,  // measure 34
0000
0000
0000
0000
0000
0000
0000
0000
0001
0000
0000
0000
0000
0000
0000
0000
0000
0000
0000
0000
0000
0001
0000
0000
0000
0000
0000
0000
0000
0000
0000
0000
1300
0000
0000
0000
0000
0000
0000
0000
0000
0000
0000
0000
0000
0000
0000
0000
0210
0000
0000
0000
0000
0000
0000
0000
0000
0000
0000
0000
0000
0310
0000
0000
,  // measure 35
0002
0000
0000
0000
0000
0000
0000
0000
0000
0000
0000
0000
0000
0010
0000
0000
0000
0000
0000
0000
0000
0000
0000
0000
1000
0000
0000
0000
0000
0000
0000
0000
0000
0000
0000
0000
0000
0100
0000
0000
0003
0000
0000
0000
0000
0000
0000
0000
0120
0000
0000
0000
0000
0000
0000
0000
0000
0000
0000
0000
0000
0001
0000
0000
,  // measure 36
0000
0000
0000
0000
0000
0000
0000
0000
0100
0000
0000
0000
0000
0000
0000
0000
0000
0000
0000
0000
0000
1000
0000
0000
0000
0000
0000
0000
0000
0000
0000
0000
1030
0000
0000
0000
0000
0001
0000
0000
1000
0000
0000
0000
0000
0100
0000
0000
0010
0000
0000
0000
0000
0001
0000
0000
1000
0000
0000
0000
0000
0001
0000
0000
,  // measure 37
0200
0000
0000
0000
0000
0000
0000
0000
0000
0000
0000
0000
0000
1000
0000
0000
0000
0000
0000
0000
0000
0000
0000
0000
0001
0000
0000
0000
0000
0000
0000
0000
0000
0000
0000
0000
0000
0001
0000
0000
0300
0000
0000
0000
0000
0000
0000
0000
0021
0000
0000
0000
0000
0000
0000
0000
0000
0000
0000
0000
0000
0100
0000
0000
,  // measure 38
0000
0000
0000
0000
0000
0000
0000
0000
1000
0000
0000
0000
0000
0000
0000
0000
0000
0000
0000
0000
0000
1000
0000
0000
0000
0000
0000
0000
0000
0000
0000
0000
0031
0000
0000
0000
0000
0000
0000
0000
0000
0000
0000
0000
0000
0000
0000
0000
0120
0000
0000
0000
0000
0000
0000
0000
0000
0000
0000
0000
0000
0130
0000
0000
,  // measure 39
2000
0000
0000
0000
0000
0000
0000
0000
0000
0000
0000
0000
0000
0100
0000
0000
0000
0000
0000
0000
0000
0000
0000
0000
0001
0000
0000
0000
0000
0000
0000
0000
0000
0000
0000
0000
0000
0010
0000
0000
3000
0000
0000
0000
0000
0000
0000
0000
0210
0000
0000
0000
0000
0000
0000
0000
0000
0000
0000
0000
0000
1000
0000
0000
,  // measure 40
0000
0000
0000
0000
0000
0000
0000
0000
0310
0000
0000
0000
0000
0000
0000
0000
0110
0000
0000
0000
0000
0000
0000
0000
0000
0000
0000
0000
0000
0000
0000
0000
0001
0000
0000
0000
0000
1000
0000
0000
0001
0000
0000
0000
0000
0100
0000
0000
0010
0000
0000
0000
0000
0000
0000
0000
0000
0000
0000
0000
0000
0000
0000
0000
,  // measure 41
2010
0000
0000
0000
0000
0000
0000
0000
0000
0000
0000
0000
0000
0000
0000
0000
3100
0000
0000
0000
0000
0000
0000
0000
0100
0000
0000
0000
0000
0000
0000
0000
0001
0000
0000
0000
0000
0000
0000
0000
0000
0000
0000
0000
0000
0000
0000
0000
0110
0000
0000
0000
0000
0000
0000
0000
0000
0000
0000
0000
0000
0011
0000
0000
,  // measure 42
0000
0000
0000
0000
0000
0000
0000
0000
0001
0000
0000
0000
0000
0000
0000
0000
0100
0000
0000
0000
0000
0000
0000
0000
0010
0000
0000
0000
0000
0000
0000
0000
1000
0000
0000
0000
0000
0001
0000
0000
0000
0000
0000
0000
0000
0000
0000
0000
2001
0000
0000
0000
0000
0000
0000
0000
0000
0000
0000
0000
0000
0000
0000
0000
,  // measure 43
3200
0000
0000
0000
0000
0000
0000
0000
0300
0000
0000
0000
0000
0000
0000
0000
0010
0000
0000
0000
0000
0000
0000
0000
0010
0000
0000
0000
0000
0000
0000
0000
0001
0000
0000
0000
0000
1000
0000
0000
0000
0000
0000
0000
0000
0000
0000
0000
1100
0000
0000
0000
0000
0000
0000
0000
0000
0000
0000
0000
0000
1000
0000
0000
,  // measure 44
0020
0000
0000
0000
0000
0000
0000
0000
0100
0000
0000
0000
0000
0000
0000
0000
0000
0000
0000
0000
0000
0100
0000
0000
0000
0000
0000
0000
0000
0000
0000
0000
0032
0000
0000
0000
0000
0000
0000
0000
0000
0000
0000
0000
0000
0000
0000
0000
0013
0000
0000
0000
0000
0000
0000
0000
0000
0000
0000
0000
0000
0000
0000
0000
,  // measure 45
0102
0000
0000
0000
0000
0000
0000
0000
0000
0000
0000
0000
0000
0000
0000
0000
0013
0000
0000
0000
0000
0000
0000
0000
0010
0000
0000
0000
0000
0000
0000
0000
1000
0000
0000
0000
0000
0000
0000
0000
0000
0000
0000
0000
0000
0000
0000
0000
0110
0000
0000
0000
0000
0000
0000
0000
0000
0000
0000
0000
0000
1100
0000
0000
,  // measure 46
0000
0000
0000
0000
0000
0000
0000
0000
1000
0000
0000
0000
0000
0000
0000
0000
0010
0000
0000
0000
0000
0000
0000
0000
0100
0000
0000
0000
0000
0000
0000
0000
0001
0000
0000
0000
0000
1000
0000
0000
0000
0000
0000
0000
0000
0000
0000
0000
1001
0000
0000
0000
0000
0000
0000
0000
0001
0000
0000
0000
0000
0000
0000
0000
,  // measure 47
0020
0000
0000
0000
0000
0000
0000
0000
0030
0000
0000
0000
0000
0000
0000
0000
0110
0000
0000
0000
0000
0000
0000
0000
0100
0000
0000
0000
0000
0000
0000
0000
1000
0000
0000
0000
0000
0001
0000
0000
0000
0000
0000
0000
0000
0000
0000
0000
0011
0000
0000
0000
0000
0000
0000
0000
0000
0000
0000
0000
0000
0001
0000
0000
,  // measure 48
0200
0000
0000
0000
0000
0000
0000
0000
0010
0000
0000
0000
0000
0000
0000
0000
0000
0000
0000
0000
0000
0010
0000
0000
0000
0000
0000
0000
0000
0000
0000
0000
2300
0000
0000
0000
0000
0000
0000
0000
0000
0000
0000
0000
0000
0000
0000
0000
3100
0000
0000
0000
0000
0000
0000
0000
0000
0000
0000
0000
0000
0000
0000
0000
,  // measure 49
0110
0000
0000
0000
1001
0000
0100
0000
0110
0000
0000
0000
1001
0000
0000
1000
,  // measure 50
0100
0010
0100
1000
0001
0000
0101
0000
,  // measure 51
0110
0000
0000
0000
1001
0000
0010
0000
0110
0000
0000
0000
1001
0000
0000
0001
,  // measure 52
0010
0100
0001
0100
0010
0010
1001
0000
,  // measure 53
1000
0100
0001
0100
1000
1000
0001
0001
,  // measure 54
0010
1000
0010
0001
0100
0100
0010
0010
,  // measure 55
0001
0010
1000
0100
0010
0010
1000
0010
,  // measure 56
0001
0000
0001
0000
0100
0000
0010
0000
1000
0100
1000
0100
1000
0000
0001
0000
,  // measure 57
0200
0000
0000
0310
0000
0000
0000
0000
;
