#TITLE:LIGHTSABER;
#SUBTITLE:-Japanese version-;
#ARTIST:EXO;
#TITLETRANSLIT:;
#SUBTITLETRANSLIT:;
#ARTISTTRANSLIT:;
#GENRE:K-Pop;
#CREDIT:;
#BANNER:LIGHTSABER -Japanese version-.png;
#BACKGROUND:LIGHTSABER -Japanese version--bg.png;
#LYRICSPATH:;
#CDTITLE:../cdtitle.png;
#MUSIC:LIGHTSABER -Japanese version-.ogg;
#OFFSET:-0.219000;
#SAMPLESTART:70.497002;
#SAMPLELENGTH:15.000000;
#SELECTABLE:YES;
#BPMS:0.000000=140.000000
;
#STOPS:
;
#BGCHANGES:0.000=LIGHTSABER -Japanese version-.avi=1.000=0=0=0=StretchNoLoop====,
99999=-nosongbg-=1.000=0=0=0 // don't automatically add -songbackground-
;
#KEYSOUNDS:;
#ATTACKS:;

//---------------dance-single - ----------------
#NOTES:
     dance-single:
     :
     Challenge:
     11:
     0.431336,0.502941,0.448033,0.292195,0.141228,310.000000,264.000000,46.000000,30.000000,24.000000,0.000000,0.431336,0.502941,0.448033,0.292195,0.141228,310.000000,264.000000,46.000000,30.000000,24.000000,0.000000:
// measure 0
0000
0000
0000
0000
,  // measure 1
0000
0000
0000
0000
,  // measure 2
0000
0000
0000
0000
,  // measure 3
0000
0000
0000
0000
,  // measure 4
0000
0000
0000
0000
,  // measure 5
2000
0000
0000
0000
3000
0000
1000
0000
0001
0000
0000
0010
0000
0000
0200
0000
,  // measure 6
0000
0000
0000
0000
0300
0000
0000
1000
,  // measure 7
0001
0000
0000
0000
0000
0000
0010
0000
0001
0000
0000
0100
0000
0000
0020
0000
,  // measure 8
0000
0000
0000
0000
0030
0000
0000
0100
,  // measure 9
0001
0000
0000
0000
0000
0000
0010
0000
0100
0000
0000
1000
0000
0000
0002
0000
,  // measure 10
0000
0000
0000
0000
0003
0000
0000
1000
,  // measure 11
0010
0000
0000
0000
0000
0000
0001
0000
0010
0000
0000
1000
0000
0000
0002
0000
,  // measure 12
0000
0000
0020
0033
,  // measure 13
0110
0000
0000
0000
0001
0100
0001
0000
1000
0000
0100
0000
0010
0000
0100
0000
,  // measure 14
0001
0100
0010
0100
1000
1000
0020
0000
,  // measure 15
0130
0000
0000
0000
0001
0010
0001
0000
1000
0000
0010
0000
0100
0000
0010
0000
,  // measure 16
0001
0010
0100
0010
1000
1000
0200
0000
,  // measure 17
0310
0000
0000
0100
0000
0000
0010
0000
0001
0000
0000
0100
0000
0000
0010
0000
,  // measure 18
1000
0000
0000
0100
0000
0000
0010
0000
0100
0000
0000
1000
0000
0000
0010
0000
,  // measure 19
0100
0000
0000
0100
0000
0000
0001
0000
0010
0000
0000
0010
0000
0000
0100
0000
,  // measure 20
1000
0001
0110
1001
,  // measure 21
0220
0000
0000
0000
0330
0000
0001
0000
0010
0000
0000
0100
0000
0000
2000
0000
,  // measure 22
0000
0000
0000
0000
0002
0000
3003
0100
,  // measure 23
0020
0000
0000
0000
0030
0000
0100
0000
0001
0000
0000
1000
0000
0000
0200
0000
,  // measure 24
0000
0000
0320
0031
,  // measure 25
1001
0000
0001
0010
0002
0000
1003
0001
,  // measure 26
0100
0010
0100
0001
0010
0100
0010
0000
,  // measure 27
0021
0000
0031
0100
0001
0000
0001
0000
,  // measure 28
1020
0000
1030
0100
1000
1000
0001
0000
,  // measure 29
2001
0000
3010
0100
0010
0000
0010
0000
,  // measure 30
1002
0013
0100
0010
0001
0001
0100
0010
,  // measure 31
1000
1000
0100
0100
0001
0001
0100
1000
,  // measure 32
0020
0000
0030
MMMM
,  // measure 33
1100
0000
0000
0000
0000
0000
0000
0000
0000
0000
0000
0000
0000
0110
0000
0000
0000
0000
0000
0000
0000
0000
0000
0000
0001
0000
0000
0000
0000
0000
0000
0000
0000
0000
0000
0000
0000
0101
0000
0000
0000
0000
0000
0000
0000
0000
0000
0000
1010
0000
0000
0000
0000
0000
0000
0000
0000
0000
0000
0000
0000
0010
0000
0000
,  // measure 34
0000
0000
0000
0000
0000
0000
0000
0000
0001
0000
0000
0000
0000
0000
0000
0000
0000
0000
0000
0000
0000
0010
0000
0000
0000
0000
0000
0000
0000
0000
0000
0000
1000
0000
0000
0000
0000
0000
0000
0000
0000
0000
0000
0000
0000
0000
0000
0000
0021
0000
0000
0000
0000
0000
0000
0000
0000
0000
0000
0000
0000
0000
0000
0000
,  // measure 35
0130
0000
0000
0000
0000
0000
0000
0000
0000
0000
0000
0000
0000
0101
0000
0000
0000
0000
0000
0000
0000
0000
0000
0000
0010
0000
0000
0000
0000
0000
0000
0000
0000
0000
0000
0000
0000
0011
0000
0000
0000
0000
0000
0000
0000
0000
0000
0000
1100
0000
0000
0000
0000
0000
0000
0000
0000
0000
0000
0000
0000
1000
0000
0000
,  // measure 36
0000
0000
0000
0000
0000
0000
0000
0000
0010
0000
0000
0000
0000
0000
0000
0000
0000
0000
0000
0000
0000
0001
0000
0000
0000
0000
0000
0000
0000
0000
0000
0000
0001
0000
0000
0000
0000
0000
0000
0000
0000
0000
0000
0000
0000
0000
0000
0000
0120
0000
0000
0000
0000
0000
0000
0000
0000
0000
0000
0000
0000
0000
0000
0000
,  // measure 37
1030
0000
0000
0000
0000
0000
0000
0000
0000
0000
0000
0000
0000
0110
0000
0000
0000
0000
0000
0000
0000
0000
0000
0000
0001
0000
0000
0000
0000
0000
0000
0000
0000
0000
0000
0000
0000
0011
0000
0000
0000
0000
0000
0000
0000
0000
0000
0000
1100
0000
0000
0000
0000
0000
0000
0000
0000
0000
0000
0000
0000
0100
0000
0000
,  // measure 38
0000
0000
0000
0000
0000
0000
0000
0000
0001
0000
0000
0000
0000
0000
0000
0000
0000
0000
0000
0000
0000
0100
0000
0000
0000
0000
0000
0000
0000
0000
0000
0000
1000
0000
0000
0000
0000
0000
0000
0000
0000
0000
0000
0000
0000
0000
0000
0000
0201
0000
0000
0000
0000
0000
0000
0000
0000
0000
0000
0000
0000
0000
0000
0000
,  // measure 39
0310
0000
0000
0000
0000
0000
0000
0000
0000
0000
0000
0000
0000
0011
0000
0000
0000
0000
0000
0000
0000
0000
0000
0000
0100
0000
0000
0000
0000
0000
0000
0000
0000
0000
0000
0000
0000
0101
0000
0000
0000
0000
0000
0000
0000
0000
0000
0000
1010
0000
0000
0000
0000
0000
0000
0000
0000
0000
0000
0000
0000
1000
0000
0000
,  // measure 40
0000
0100
MMMM
0000
0001
0000
MMMM
0000
,  // measure 41
0101
0000
0010
0010
0100
0000
1010
0000
,  // measure 42
MMMM
1000
0100
0010
0002
0000
0103
0000
,  // measure 43
1001
0000
0100
0100
0010
0000
0001
0000
,  // measure 44
2100
0000
3010
0100
0001
0000
0010
0000
,  // measure 45
1010
0000
0100
0100
0010
0000
0101
0000
,  // measure 46
MMMM
0001
0010
0100
2000
0000
3010
0100
,  // measure 47
0110
0000
1000
0001
1001
0000
0010
0000
,  // measure 48
1100
1000
0020
0000
1030
0000
MMMM
0000
,  // measure 49
1001
0000
0011
0010
0110
0000
1100
0000
,  // measure 50
0001
0010
0100
0010
0001
0000
0010
0000
,  // measure 51
1001
0000
0101
0100
0110
0000
1010
0000
,  // measure 52
1200
0000
0310
0001
1000
0000
0110
0000
,  // measure 53
1000
0100
0001
0100
1000
0000
0011
0000
,  // measure 54
0001
0010
1000
0010
0001
0000
1100
0000
,  // measure 55
0001
0100
0001
1000
0010
0100
0001
0000
,  // measure 56
0010
0010
0100
1000
0001
1000
0010
0100
,  // measure 57
0002
0000
0000
1003
0000
0000
0000
0000
;
