#VERSION:0.83;
#TITLE:LEFT RIGHT;
#SUBTITLE:;
#ARTIST:XG;
#TITLETRANSLIT:;
#SUBTITLETRANSLIT:;
#ARTISTTRANSLIT:;
#GENRE:K-Pop;
#ORIGIN:;
#CREDIT:;
#BANNER:LEFT RIGHT.png;
#BACKGROUND:LEFT RIGHT-bg.png;
#PREVIEWVID:;
#JACKET:LEFT RIGHT-jacket.png;
#CDIMAGE:;
#DISCIMAGE:;
#LYRICSPATH:;
#CDTITLE:../cdtitle.png;
#MUSIC:LEFT RIGHT.ogg;
#OFFSET:3.044000;
#SAMPLESTART:51.355000;
#SAMPLELENGTH:15.000000;
#SELECTABLE:YES;
#BPMS:0.000=75.000;
#STOPS:;
#DELAYS:;
#WARPS:;
#TIMESIGNATURES:0.000=4=4;
#TICKCOUNTS:0.000=4;
#COMBOS:0.000=1;
#SPEEDS:0.000=1.000=0.000=0;
#SCROLLS:0.000=1.000;
#FAKES:;
#LABELS:0.000=Song Start;
#BGCHANGES:3.750=LEFT RIGHT.avi=1.000=0=0=0=StretchNoLoop====,
99999=-nosongbg-=1.000=0=0=0 // don't automatically add -songbackground-
;
#KEYSOUNDS:;
#ATTACKS:
;

//---------------dance-single - ----------------
#NOTEDATA:;
#CHARTNAME:;
#STEPSTYPE:dance-single;
#DESCRIPTION:;
#CHARTSTYLE:;
#DIFFICULTY:Challenge;
#METER:12;
#RADARVALUES:0.475145,0.467216,0.247567,0.182985,0.559718,309.000000,286.000000,23.000000,17.000000,0.000000,0.000000,0.000000,0.000000,0.000000,0.475145,0.467216,0.247567,0.182985,0.559718,309.000000,286.000000,23.000000,17.000000,0.000000,0.000000,0.000000,0.000000,0.000000;
#CREDIT:led_light;
#NOTES:
0000
0000
0000
0000
,
0000
0000
0000
0000
,
0000
0000
0000
0000
,
0000
0000
0000
0000
,
0000
0000
0000
0000
,
1000
0100
1000
0100
0010
0000
0100
1000
0100
1000
0010
0000
0100
0010
1000
0000
,
0100
0010
0100
0010
1000
0000
0010
0001
0010
0001
1000
0000
0001
0100
0020
0000
,
1030
0000
0101
0000
1000
0100
0001
0100
1000
0000
0001
0100
0010
0010
0100
0010
,
1000
0000
0011
0000
0100
1000
0002
0000
0103
0000
0010
0000
0110
0100
0010
0000
,
1000
0010
0100
0010
1000
0000
0001
0010
1000
0010
0001
0000
1000
0100
0010
0000
,
0001
0010
0100
0010
0001
0000
1000
0010
0001
0010
1000
0000
0001
0100
0010
0000
,
1000
0000
0101
0000
1000
0100
0001
0100
1000
0000
0001
0100
0010
0010
0100
0010
,
1000
0000
0011
0000
0100
1000
0001
0000
0200
0000
1000
0000
0310
0000
1000
0100
,
0010
0100
0010
0000
0001
0100
0010
0000
0001
0001
0100
0001
0010
0000
0110
0000
,
0001
0010
1000
0000
1000
0100
0001
0000
1000
1000
0100
1000
0010
0000
0110
0000
,
0001
0010
0100
1000
0000
0010
0100
0010
1000
0001
1000
0000
0001
0100
0010
0000
,
1000
0000
0000
1000
0000
0000
0100
0000
0010
0000
0000
0010
0000
0000
0001
0000
2000
0000
0000
0000
0000
0000
0000
0000
3001
0000
0100
0000
0010
0000
1000
0000
,
1010
0000
0001
0000
1100
0000
0022
0000
0033
0001
1000
0100
0010
0100
1000
0010
,
1010
0000
0001
0000
1100
0000
0202
0000
0303
0010
1000
0100
0010
0001
0010
0000
,
0100
1000
0010
1000
0100
0000
0001
0100
1000
0010
0001
0000
0010
0000
0110
0000
,
0001
1000
0100
1000
0001
0000
1000
0010
0001
0010
1000
0001
0100
0001
0010
0100
,
1100
0000
0001
0000
1010
0000
0022
0000
0033
0000
1000
0100
0010
0100
1000
0010
,
1010
0000
0001
0000
1100
0000
0202
0000
0303
0010
1000
0100
0010
0001
0010
0000
,
0100
1000
0010
1000
0100
0000
0001
0100
1000
0010
0001
0000
0010
0000
0100
0100
,
0001
1000
0100
1000
0001
0000
1000
0010
0001
0010
1000
0000
0001
0010
0100
1000
,
1200
0000
0001
0000
1000
0000
0002
0000
0303
0000
0100
1000
0100
0010
0001
0000
,
1020
0000
0031
0000
1200
0000
0002
0000
0303
0000
0010
0001
0100
0010
1000
0000
,
0001
0100
0001
0000
0010
0100
0001
0100
0010
0000
0001
0100
0010
1000
0001
0000
,
1000
0100
1000
0000
0010
0100
1000
0100
0010
0000
1000
0100
0010
0100
1000
0001
;

//---------------dance-single - ----------------
#NOTEDATA:;
#CHARTNAME:;
#STEPSTYPE:dance-single;
#DESCRIPTION:;
#CHARTSTYLE:;
#DIFFICULTY:Beginner;
#METER:1;
#RADARVALUES:0.049206,0.075347,0.000000,0.000000,0.000000,32.000000,32.000000,0.000000,0.000000,0.000000,0.000000,0.000000,0.000000,0.000000,0.049206,0.075347,0.000000,0.000000,0.000000,32.000000,32.000000,0.000000,0.000000,0.000000,0.000000,0.000000,0.000000,0.000000;
#CREDIT:led_light;
#NOTES:
0000
0000
0000
0000
,
0000
0000
0000
0000
,
0000
0000
0000
0000
,
0000
0000
0000
0000
,
0000
0000
0000
0000
,
0100
0000
0000
0000
,
0100
0000
0000
0000
,
1000
0000
0000
0000
,
0001
0000
0000
0000
,
0010
0000
0000
0000
,
0010
0000
0000
0000
,
1000
0000
0000
0000
,
0001
0000
0000
0000
,
0100
0000
0000
0000
,
0100
0000
0000
0000
,
1000
0000
0000
0000
,
0001
0000
0000
0000
,
1000
0000
0001
0000
,
1000
0000
0001
0000
,
0100
0000
0010
0000
,
0010
0000
0100
0000
,
1000
0000
0001
0000
,
1000
0000
0001
0000
,
0100
0000
0010
0000
,
0010
0000
0100
0000
,
1000
0000
0000
0000
,
1000
0000
0000
0000
,
0001
0000
0000
0000
,
0001
0000
0000
0000
;

//---------------dance-single - ----------------
#NOTEDATA:;
#CHARTNAME:;
#STEPSTYPE:dance-single;
#DESCRIPTION:;
#CHARTSTYLE:;
#DIFFICULTY:Easy;
#METER:2;
#RADARVALUES:0.116864,0.139257,0.000000,0.043055,0.000000,76.000000,76.000000,0.000000,4.000000,0.000000,0.000000,0.000000,0.000000,0.000000,0.116864,0.139257,0.000000,0.043055,0.000000,76.000000,76.000000,0.000000,4.000000,0.000000,0.000000,0.000000,0.000000,0.000000;
#CREDIT:led_light;
#NOTES:
0000
0000
0000
0000
,
0000
0000
0000
0000
,
0000
0000
0000
0000
,
0000
0000
0000
0000
,
0000
0000
0000
0000
,
1000
0000
1000
0000
,
0001
0000
0001
0000
,
1000
0001
0100
0000
,
1000
0001
0010
0000
,
1000
0100
0001
0000
,
0001
0100
1000
0000
,
1000
0001
0100
0000
,
1000
0001
0010
0000
,
1000
0000
0100
0100
,
0001
0000
1000
1000
,
0010
0100
0010
0001
,
0020
0000
0200
0330
,
1000
0001
0000
0001
,
1000
0001
0000
0001
,
0010
0100
0100
0010
,
1000
0100
0100
0010
,
1000
0001
0000
0001
,
1000
0001
0000
0001
,
0010
0100
0100
0010
,
1000
0100
0100
0010
,
2000
0001
3000
0001
,
2000
0001
3000
0001
,
0100
0100
0001
0010
,
0100
0100
1000
0001
;

//---------------dance-single - ----------------
#NOTEDATA:;
#CHARTNAME:;
#STEPSTYPE:dance-single;
#DESCRIPTION:;
#CHARTSTYLE:;
#DIFFICULTY:Medium;
#METER:5;
#RADARVALUES:0.199899,0.233104,0.043055,0.043055,0.000000,130.000000,126.000000,4.000000,4.000000,0.000000,0.000000,0.000000,0.000000,0.000000,0.199899,0.233104,0.043055,0.043055,0.000000,130.000000,126.000000,4.000000,4.000000,0.000000,0.000000,0.000000,0.000000,0.000000;
#CREDIT:led_light;
#NOTES:
0000
0000
0000
0000
,
0000
0000
0000
0000
,
0000
0000
0000
0000
,
0000
0000
0000
0000
,
0000
0000
0000
0000
,
1000
1000
0100
0000
0001
0000
0000
0000
,
1000
1000
0010
0000
0001
0000
0000
0000
,
1000
0001
0100
0000
0100
0000
0010
0000
,
1000
0001
0010
0000
0100
0000
0110
0000
,
1000
0100
0010
0000
0001
0000
0000
0000
,
0001
0100
0010
0000
1000
0000
0000
0000
,
1000
0001
0010
0000
0100
0000
0100
0000
,
1000
0001
0100
0000
0020
0000
0030
0000
,
1000
0000
0100
0000
0001
0001
0010
0000
,
0001
0000
0100
0000
1000
1000
0010
0000
,
0100
0001
1000
0000
0100
0000
0110
0000
,
0002
2003
3020
0030
,
1000
0001
1000
0001
0000
0010
0100
0100
,
1000
0001
1000
0001
0000
0100
0010
0010
,
0100
0010
0100
0000
1000
0010
0001
0000
,
0010
0100
0010
0000
0001
0100
0010
0000
,
0100
0001
0100
0001
0000
0010
0100
0100
,
0010
0001
0010
0001
0000
1000
0010
0010
,
0100
0010
0100
0000
1000
0010
0001
0000
,
0010
0100
0010
0000
0001
0100
0010
0000
,
1000
0001
1000
0001
0000
0000
0011
0000
,
1000
0001
1000
0001
0000
0000
1100
0000
,
1000
0000
0001
0000
0100
0100
0001
0000
,
0010
0000
0100
0000
0010
0100
1000
0001
;

//---------------dance-single - ----------------
#NOTEDATA:;
#CHARTNAME:;
#STEPSTYPE:dance-single;
#DESCRIPTION:;
#CHARTSTYLE:;
#DIFFICULTY:Hard;
#METER:9;
#RADARVALUES:0.321376,0.373773,0.226040,0.226040,0.172221,209.000000,188.000000,21.000000,21.000000,0.000000,0.000000,0.000000,0.000000,0.000000,0.321376,0.373773,0.226040,0.226040,0.172221,209.000000,188.000000,21.000000,21.000000,0.000000,0.000000,0.000000,0.000000,0.000000;
#CREDIT:led_light;
#NOTES:
0000
0000
0000
0000
,
0000
0000
0000
0000
,
0000
0000
0000
0000
,
0000
0000
0000
0000
,
0000
0000
0000
0000
,
1000
0100
0001
0000
0001
0000
1100
0000
,
1000
0010
0001
0000
0001
0000
1010
0000
,
1000
0001
0100
0000
0010
0000
0100
0100
,
1000
0001
0010
0000
1000
0000
0110
0000
,
1000
1000
0010
0000
0100
0001
0011
0000
,
0001
0001
0100
0000
0010
1000
1100
0000
,
1000
0001
0100
0100
1000
0000
0101
0000
,
1000
0001
0010
0010
1000
0000
0011
0000
,
0100
0100
0010
0100
0010
0010
0100
0000
,
0001
0010
1000
0100
0001
0001
0100
0000
,
1000
0100
0010
0000
0100
1000
0010
0000
,
0200
0000
1000
0000
0320
0000
0001
0000
2030
0000
0000
0000
3001
0010
0100
0000
,
2100
0000
3001
0000
1200
0000
0302
0000
0003
0100
0010
0000
0100
0010
0001
0000
,
2100
0000
3001
0000
1020
0000
0032
0000
0003
0010
1000
0000
0010
0100
0001
0000
,
0100
0100
0010
0000
0100
0000
1000
1000
0010
0000
0001
0000
0100
0000
0110
0000
,
0001
0010
0001
0000
1000
0000
0100
0001
0100
0000
0010
0000
0100
1000
0001
0000
,
1020
0000
0031
0000
2010
0000
3002
0000
0003
0000
0010
0000
1000
0010
0001
0000
,
1200
0000
0301
0000
2100
0000
3002
0000
0003
0000
1000
0000
0100
0010
0001
0000
,
0100
0100
0010
0000
0100
0000
1000
1000
0010
0000
0001
0000
0100
0000
0110
0000
,
0001
0010
0001
0000
1000
0000
0100
0001
0100
0000
0010
0000
0100
1000
0001
0000
,
1200
0000
0301
0000
2100
0000
3002
0000
0003
0000
0100
0010
0000
0100
0001
0000
,
1020
0000
0031
0000
2010
0000
3002
0000
0003
0000
0010
0100
0000
0010
0001
0000
,
1000
0010
1000
0000
0100
0001
0000
0100
1000
0000
0100
0010
0000
0001
0100
0000
,
0001
0010
0001
0000
0100
1000
0000
0100
0001
0000
0010
0100
0000
1000
0001
1000
;

//---------------dance-double - ----------------
#NOTEDATA:;
#CHARTNAME:;
#STEPSTYPE:dance-double;
#DESCRIPTION:;
#CHARTSTYLE:;
#DIFFICULTY:Easy;
#METER:2;
#RADARVALUES:0.093799,0.154730,0.021528,0.032291,0.000000,61.000000,59.000000,2.000000,3.000000,0.000000,0.000000,0.000000,0.000000,0.000000,0.093799,0.154730,0.021528,0.032291,0.000000,61.000000,59.000000,2.000000,3.000000,0.000000,0.000000,0.000000,0.000000,0.000000;
#CREDIT:led_light;
#NOTES:
// measure 0
00000000
00000000
00000000
00000000
,  // measure 1
00000000
00000000
00000000
00000000
,  // measure 2
00000000
00000000
00000000
00000000
,  // measure 3
00000000
00000000
00000000
00000000
,  // measure 4
00000000
00000000
00000000
00000000
,  // measure 5
00100000
00000000
00000000
00000000
,  // measure 6
01000000
00000000
00000000
00000000
,  // measure 7
10000000
00000000
00000000
00000000
,  // measure 8
00010000
00000000
00000000
00000000
,  // measure 9
00000010
00000000
00000100
00000000
,  // measure 10
00000010
00000000
00000100
00000000
,  // measure 11
00001000
00000000
00000001
00000000
,  // measure 12
00001000
00000000
00000001
00000000
,  // measure 13
00001000
00000000
00010000
00000000
,  // measure 14
00010000
00000000
00001000
00000000
,  // measure 15
00100000
00000000
00010000
00000000
,  // measure 16
02000000
00000000
00000000
03000000
,  // measure 17
00001000
00010000
00000000
00010000
,  // measure 18
00001000
00010000
00000000
00010000
,  // measure 19
00000010
00000100
00000001
00000010
,  // measure 20
00001000
00010000
00001000
00011000
,  // measure 21
00001000
00010000
00000000
00010000
,  // measure 22
00001000
00010000
00000000
00010000
,  // measure 23
00000010
00000100
00000001
00000010
,  // measure 24
00001000
00010000
01000000
01100000
,  // measure 25
20000000
00010000
30000000
00010000
,  // measure 26
00002000
00010000
00003000
00010000
,  // measure 27
00001000
00000000
00000100
00000010
,  // measure 28
00000001
00000000
00000001
00000100
;

//---------------dance-double - ----------------
#NOTEDATA:;
#CHARTNAME:;
#STEPSTYPE:dance-double;
#DESCRIPTION:;
#CHARTSTYLE:;
#DIFFICULTY:Medium;
#METER:5;
#RADARVALUES:0.201437,0.233104,0.032291,0.043055,0.000000,131.000000,128.000000,3.000000,4.000000,0.000000,0.000000,0.000000,0.000000,0.000000,0.201437,0.233104,0.032291,0.043055,0.000000,131.000000,128.000000,3.000000,4.000000,0.000000,0.000000,0.000000,0.000000,0.000000;
#CREDIT:led_light;
#NOTES:
// measure 0
00000000
00000000
00000000
00000000
,  // measure 1
00000000
00000000
00000000
00000000
,  // measure 2
00000000
00000000
00000000
00000000
,  // measure 3
00000000
00000000
00000000
00000000
,  // measure 4
00000000
00000000
00000000
00000000
,  // measure 5
10000000
01000000
00010000
00000000
00001000
00000000
00000000
00000000
,  // measure 6
00010000
00001000
00000100
00000000
00000001
00000000
00000000
00000000
,  // measure 7
00001000
00000001
00000100
00000000
00000001
00000000
00000001
00000000
,  // measure 8
00001000
00000001
00000010
00000000
00000100
00000000
00000110
00000000
,  // measure 9
00000001
00000010
00001000
00000000
00010000
00000000
00000000
00000000
,  // measure 10
00001000
00010000
00100000
00000000
10000000
00000000
00000000
00000000
,  // measure 11
10000000
00010000
00100000
00000000
00010000
00000000
00010000
00000000
,  // measure 12
10000000
00010000
01000000
00000000
00200000
00000000
00300000
00000000
,  // measure 13
01000000
00000000
00010000
00000000
00100000
00100000
10000000
00000000
,  // measure 14
01000000
00000000
00010000
00000000
00001000
00001000
00000100
00000000
,  // measure 15
00000100
00000001
00000010
00000000
00000100
00010000
00001000
00000000
,  // measure 16
00200000
00320000
20030000
30000000
,  // measure 17
10000000
00010000
10000000
00010000
00000000
00100000
01000000
00100000
,  // measure 18
00001000
00010000
00001000
00010000
00000000
00000100
00000010
00000010
,  // measure 19
00000100
00000010
00000100
00000000
00001000
00000010
00000001
00000000
,  // measure 20
00000010
00000100
00000010
00000000
00010000
00001000
01000000
00001000
,  // measure 21
00100000
00010000
00100000
00010000
00000000
01000000
01000000
00001000
,  // measure 22
00001000
00010000
00001000
00010000
00000000
00000100
00000010
00000010
,  // measure 23
00000100
00000010
00000100
00000000
00001000
00000010
00000001
00000000
,  // measure 24
00000010
00000010
00000100
00000000
00001000
00010000
01000000
00000000
,  // measure 25
10000000
00010000
10000000
00010000
00000000
00000000
00011000
00000000
,  // measure 26
00001000
00000001
00001000
00000001
00000000
00000000
00011000
00000000
,  // measure 27
00100000
00000000
00010000
00000000
10000000
10000000
00010000
00000000
,  // measure 28
01000000
00000000
00001000
00000000
00100000
01000000
00010000
00001000
;

//---------------dance-double - ----------------
#NOTEDATA:;
#CHARTNAME:;
#STEPSTYPE:dance-double;
#DESCRIPTION:;
#CHARTSTYLE:;
#DIFFICULTY:Hard;
#METER:9;
#RADARVALUES:0.310612,0.373773,0.139929,0.204512,0.172221,202.000000,189.000000,13.000000,19.000000,0.000000,0.000000,0.000000,0.000000,0.000000,0.310612,0.373773,0.139929,0.204512,0.172221,202.000000,189.000000,13.000000,19.000000,0.000000,0.000000,0.000000,0.000000,0.000000;
#CREDIT:led_light;
#NOTES:
// measure 0
00000000
00000000
00000000
00000000
,  // measure 1
00000000
00000000
00000000
00000000
,  // measure 2
00000000
00000000
00000000
00000000
,  // measure 3
00000000
00000000
00000000
00000000
,  // measure 4
00000000
00000000
00000000
00000000
,  // measure 5
10000000
00100000
00010000
00000000
00010000
00000000
00011000
00000000
,  // measure 6
00001000
00000100
00000001
00000000
00000001
00000000
00001001
00000000
,  // measure 7
00001000
00000001
00000100
00000000
00000010
00000000
00000100
00000010
,  // measure 8
00001000
00000001
00000010
00000000
00000100
00000000
00000110
00000000
,  // measure 9
00000001
00000010
00001000
00000000
00010000
00001000
00011000
00000000
,  // measure 10
00001000
00010000
01000000
00000000
10000000
00010000
10010000
00000000
,  // measure 11
10000000
00010000
01000000
00100000
10000000
00000000
10000000
01000000
,  // measure 12
10000000
00010000
00100000
00100000
00002000
00000000
00013000
00000000
,  // measure 13
00000100
00010000
00000010
00001000
00000100
00000100
00000001
00000000
,  // measure 14
00000100
00001000
00010000
01000000
00010000
00001000
00000100
00000000
,  // measure 15
00001000
00001000
00010000
00000000
00010000
00010000
00001000
00000000
,  // measure 16
00200000
00000000
01000000
00000000
02300000
00000000
10000000
00000000
23000000
00000000
00000000
00000000
30010000
01000000
00100000
00000000
,  // measure 17
20000000
00000000
00010000
00000000
30002000
00000000
00010000
00000000
00003000
00100000
00010000
00000000
01000000
00001000
00010000
00000000
,  // measure 18
00002000
00000000
00010000
00000000
20003000
00000000
00010000
00000000
30000000
10000000
01000000
00000000
00100000
00010000
00100000
00000000
,  // measure 19
00001000
00010000
00000010
00000000
00000100
00000000
00001000
00000100
00000001
00000000
00000010
00000000
00001000
00000000
00011000
00000000
,  // measure 20
00001000
00010000
00001000
00000000
00100000
00000000
01000000
10000000
00010000
00000000
00001000
00000000
00000100
00000010
00000001
00000000
,  // measure 21
00002100
00000000
00003010
00000000
00010020
00000000
00002000
00000000
00003030
00000000
00000100
00000000
00010000
01000000
00100000
00000000
,  // measure 22
01200000
00000000
00310000
00000000
01002000
00000000
00020000
00000000
00033000
00000000
00001000
00000000
00100000
00010000
00100000
00000000
,  // measure 23
00001000
00010000
00000010
00000000
00000100
00000000
00001000
00000100
00000001
00000000
00000010
00000000
00001000
00000000
00011000
00000000
,  // measure 24
00001000
00010000
00001000
00000000
00100000
00000000
01000000
10000000
00010000
00000000
00001000
00000000
00000100
00000010
00000001
00000000
,  // measure 25
00002100
00000000
00003001
00000000
00001020
00000000
00020030
00000000
00030000
00000000
00001000
01000000
00000000
00010000
10000000
00000000
,  // measure 26
20000000
00000000
00010000
00000000
30002000
00000000
00010000
00000000
00003000
00000000
00100000
00010000
00000000
10000000
01000000
00000000
,  // measure 27
10000000
00100000
10000000
00000000
00010000
00100000
00000000
01000000
00010000
00000000
00001000
00000010
00000000
00001000
00010000
00000000
,  // measure 28
00000100
00001000
00000100
00000000
00001000
00000010
00000000
00000100
00000001
00000000
00000010
00001000
00000000
00010000
00001000
00010000
;

//---------------dance-double - ----------------
#NOTEDATA:;
#CHARTNAME:;
#STEPSTYPE:dance-double;
#DESCRIPTION:;
#CHARTSTYLE:;
#DIFFICULTY:Challenge;
#METER:12;
#RADARVALUES:0.461306,0.467216,0.193748,0.226040,0.538190,300.000000,282.000000,18.000000,21.000000,0.000000,0.000000,0.000000,0.000000,0.000000,0.461306,0.467216,0.193748,0.226040,0.538190,300.000000,282.000000,18.000000,21.000000,0.000000,0.000000,0.000000,0.000000,0.000000;
#CREDIT:led_light;
#NOTES:
// measure 0
00000000
00000000
00000000
00000000
,  // measure 1
00000000
00000000
00000000
00000000
,  // measure 2
00000000
00000000
00000000
00000000
,  // measure 3
00000000
00000000
00000000
00000000
,  // measure 4
00000000
00000000
00000000
00000000
,  // measure 5
10000000
01000000
10000000
01000000
00010000
00000000
01000000
00100000
01000000
00100000
00001000
00000000
00010000
00001000
00000100
00000000
,  // measure 6
00000001
00001000
00000001
00001000
00000010
00000000
00001000
00000001
00001000
00000001
00000010
00000000
00001000
00010000
02000000
00000000
,  // measure 7
13000000
00000000
00110000
00000000
10000000
00100000
00010000
00001000
00010000
00000000
00001000
00000010
00000100
00000100
00000010
00000001
,  // measure 8
00001000
00000000
00000011
00000000
00000100
00001000
00000002
00000000
00000103
00000000
00000010
00000000
00000110
00000001
00000010
00000000
,  // measure 9
00000001
00000100
00000001
00000100
00001000
00000000
00000100
00000010
00000100
00000010
00010000
00000000
00001000
00010000
01000000
00000000
,  // measure 10
10000000
00010000
10000000
00010000
00100000
00000000
00010000
10000000
00010000
10000000
00100000
00000000
01000000
00001000
00020000
00000000
,  // measure 11
00031000
00000000
00010010
00000000
00010000
00001000
00000010
00001000
00010000
00000000
00000100
00001000
00000010
00000010
00000100
00000001
,  // measure 12
00001000
00000000
00000011
00000000
00000100
00001000
00000001
00000000
00000200
00000000
00001000
00000000
00000310
00000000
00001000
00000100
,  // measure 13
00010000
00010000
00001000
00000000
00100000
00100000
00010000
00000000
01000000
01000000
10000000
00010000
00100000
00000000
10000000
00100000
,  // measure 14
00010000
01000000
10000000
00000000
10000000
01000000
00100000
00000000
01000000
01000000
00001000
00010000
00001000
00000000
00011000
00000000
,  // measure 15
00000100
00001000
00000100
00000010
00000000
00001000
00010000
00001000
00100000
00010000
10000000
00000000
01000000
10000000
00100000
00000000
,  // measure 16
01000000
00000000
00000000
01000000
00000000
00000000
00010000
00000000
00100000
00000000
00000000
00100000
00000000
00000000
00001000
00000000
00020000
00000000
00000000
00000000
00000000
00000000
00000000
00000000
01030000
00000000
10000000
00000000
00010000
00000000
00000000
00000000
,  // measure 17
20000000
00000000
30020000
00000000
00032000
00000000
00003002
00000000
00000003
00000010
00000100
00010000
00001000
01000000
00100000
00000000
,  // measure 18
20000000
00000000
30020000
00000000
00032000
00000000
00003002
00000000
00000003
00000010
00001000
00010000
00100000
00010000
00001000
00000000
,  // measure 19
00010000
00001000
00100000
00010000
01000000
00000000
00001000
00010000
01000000
10000000
00100000
00000000
00010000
00000000
00011000
00000000
,  // measure 20
00000100
00000001
00000100
00001000
00000100
00000000
00010000
00100000
00010000
00001000
00010000
00000000
01000000
10000000
00010000
00000000
,  // measure 21
11000000
00000000
00110000
00000000
00001100
00000000
00000022
00000000
00000033
00000000
00001000
00000100
00010000
00001000
01000000
00100000
,  // measure 22
10100000
00000000
01010000
00000000
00001010
00000000
00000202
00000000
00000303
00000100
00001000
00010000
01000000
00010000
00001000
00000000
,  // measure 23
00010000
00001000
00100000
00010000
01000000
00000000
00001000
00010000
01000000
10000000
00100000
00000000
00010000
00000000
00011000
00000000
,  // measure 24
00000100
00000001
00000100
00001000
00000100
00000000
00010000
00100000
00010000
00001000
00010000
00000000
00010000
00000010
00001000
00000100
,  // measure 25
00001200
00000000
00010000
00000000
00001000
00000000
00020000
00000000
00030300
00000000
00000100
00001000
00000010
00010000
00001000
00000000
,  // measure 26
00201000
00000000
00010000
00000000
00001000
00000000
00020000
00000000
00330000
00000000
00100000
00010000
01000000
00001000
00010000
00000000
,  // measure 27
00000100
00001000
00000100
00000000
00010000
00001000
00010000
00000010
00000100
00000000
00001000
00000100
00000001
00000010
00001000
00000000
,  // measure 28
00100000
00010000
00100000
00000000
00001000
00010000
00001000
01000000
00100000
00000000
00010000
00100000
10000000
01000000
00010000
00001000
;
