#VERSION:0.83;
#TITLE:LA FESTA LA VITA!!;
#SUBTITLE:;
#ARTIST:GUHROOVY;
#TITLETRANSLIT:;
#SUBTITLETRANSLIT:;
#ARTISTTRANSLIT:;
#GENRE:BEMANI;
#ORIGIN:;
#CREDIT:;
#BANNER:LA FESTA LA VITA!!.png;
#BACKGROUND:LA FESTA LA VITA!!-bg.png;
#PREVIEWVID:;
#JACKET:LA FESTA LA VITA!!-jacket.png;
#CDIMAGE:;
#DISCIMAGE:;
#LYRICSPATH:;
#CDTITLE:../cdtitle.png;
#MUSIC:LA FESTA LA VITA!!.ogg;
#OFFSET:0.831000;
#SAMPLESTART:88.500000;
#SAMPLELENGTH:15.000000;
#SELECTABLE:YES;
#BPMS:0.000=180.000;
#STOPS:;
#DELAYS:;
#WARPS:;
#TIMESIGNATURES:0.000=4=4;
#TICKCOUNTS:0.000=4;
#COMBOS:0.000=1;
#SPEEDS:0.000=1.000=0.000=0;
#SCROLLS:0.000=1.000;
#FAKES:;
#LABELS:0.000=Song Start;
#BGCHANGES:-99.000=../bg.avi=1.000=0=0=1=====,
99999=-nosongbg-=1.000=0=0=0 // don't automatically add -songbackground-
;
#KEYSOUNDS:;
#ATTACKS:
;

//---------------dance-double - ----------------
#NOTEDATA:;
#CHARTNAME:;
#STEPSTYPE:dance-double;
#DESCRIPTION:;
#CHARTSTYLE:;
#DIFFICULTY:Easy;
#METER:6;
#RADARVALUES:0.245606,0.328273,0.039432,0.000000,0.000000,218.000000,213.000000,5.000000,0.000000,0.000000,0.000000,0.000000,0.000000,0.000000,0.245606,0.328273,0.039432,0.000000,0.000000,218.000000,213.000000,5.000000,0.000000,0.000000,0.000000,0.000000,0.000000,0.000000;
#CREDIT:led_light;
#NOTES:
00000000
00000000
00000000
00000000
,
00000000
00000000
00000000
00000000
,
00000000
00000000
00000000
00000000
,
00000000
00000000
00000000
00000000
,
00000000
00000000
00000000
00000000
,
00000000
00000000
00000000
00000000
,
00000000
00000000
00000000
00000000
,
00000000
00000000
00000000
00000000
,
00000000
00000000
00000000
00000000
,
00010000
00000000
00000100
00000000
,
00010000
00000000
00000100
00000000
,
00100000
00000000
00001000
00000000
,
00100000
00000000
00001000
00000000
,
10000000
00000000
00010000
00000000
,
10000000
00000000
00010000
00000000
,
01000000
00000000
00001000
00000000
,
01000000
00000000
00001000
00000000
,
00010000
00000100
00000000
00000100
,
00000010
00000001
00000000
00000001
,
00001000
00000100
00000000
00000100
,
00010000
00001000
00100000
00010000
,
01000000
00100000
00000000
00100000
,
10000000
01000000
00000000
01000000
,
00010000
00100000
00000000
00100000
,
00010000
00000100
00001000
00000010
,
00000100
00000000
00000100
00000000
,
00000010
00000000
00000010
00000000
,
00001001
00000001
00000000
00001000
,
00000000
00000001
00000000
00001000
,
00000000
00010000
00000000
00001000
,
00000000
00010000
00000000
00001000
,
00000000
00010000
00000000
10000000
,
00000000
00010000
00000000
10000000
,
00000000
00100000
00000000
01000000
,
00000000
00100000
00000000
01000000
,
10000000
00010000
01000000
00001000
,
00010000
00000000
00100000
00000000
,
00010000
00000010
00001000
00000100
,
00000001
00000000
00000010
00000000
,
00000001
00001000
00000010
00010000
,
00001000
00000000
00010000
00000000
,
00001000
00000100
00010000
01000000
,
00100000
00010000
00010000
00000000
,
10000000
01000000
00010000
00000000
,
00100000
00010000
01000000
00000000
,
01000000
00010000
00000100
00000000
,
00001000
00000001
00000010
00000000
,
00000001
00000100
00001000
00000000
,
00000010
00001000
00000100
00000000
,
00000100
00001000
01000000
00000000
,
00010000
00000000
00010000
00000000
,
00100000
00000000
10000000
00000000
,
00010000
10000000
01000000
00100000
,
10000000
00000000
00010000
00000000
,
00100000
00001000
00010000
00000100
,
00001000
00000000
00000001
00000000
,
00001000
00000000
00000001
00000010
,
00000100
00000000
00000000
00000100
00000000
00000000
00001000
00000000
,
00010000
00000000
00000000
00010000
00000000
00000000
00001000
00000000
,
00011000
00000000
00001000
00000000
,
00100000
00000000
00001000
00000000
,
00010000
00000000
00000100
00000000
,
00010000
00000000
00000100
00000000
,
00001000
00000000
00000001
00000000
,
00001000
00000000
00000001
00000000
,
00001000
00010000
00010000
00001000
,
00010000
00100000
01000000
00000000
,
10010000
00100000
00000000
00100000
,
10000000
00010000
00000000
00010000
,
10000000
01000000
00000000
01000000
,
00010000
00001000
00000000
00000100
,
00001001
00000010
00000000
00000010
,
00000001
00001000
00000000
00001000
,
00000001
00000100
00000000
00000100
,
00001000
00010000
00000000
01000000
,
10000000
00010000
01000000
00000000
,
00100000
00000000
00001000
00000000
,
00010000
00001000
00000010
00000000
,
00000100
00000000
00000010
00000000
,
00000001
00001000
00000100
00000000
,
00000010
00000000
00010000
00000000
,
00001000
00010000
00100000
00000000
,
10000000
00000000
10010000
00000000
,
10000000
00000000
01000000
00000000
,
00010000
00000000
00000000
00000000
,
00100000
00000000
00010000
00000000
,
00001000
00000000
00000000
00000000
,
00010000
00000000
00001000
00000000
,
00000010
00000000
00000000
00000000
,
00001000
00000000
00000100
00000000
,
00000001
00000000
00000000
00000000
,
00000100
00000000
00000100
00000000
,
01000000
00000000
01000000
00000000
;

//---------------dance-double - ----------------
#NOTEDATA:;
#CHARTNAME:;
#STEPSTYPE:dance-double;
#DESCRIPTION:;
#CHARTSTYLE:;
#DIFFICULTY:Medium;
#METER:10;
#RADARVALUES:0.397702,0.476094,0.118297,0.134069,0.000000,353.000000,338.000000,15.000000,17.000000,0.000000,0.000000,0.000000,0.000000,0.000000,0.397702,0.476094,0.118297,0.134069,0.000000,353.000000,338.000000,15.000000,17.000000,0.000000,0.000000,0.000000,0.000000,0.000000;
#CREDIT:led_light;
#NOTES:
00000000
00000000
00000000
00000000
,
00000000
00000000
00000000
00000000
,
00000000
00000000
00000000
00000000
,
00000000
00000000
00000000
00000000
,
00000000
00000000
00000000
00000000
,
00000000
00000000
00000000
00000000
,
00000000
00000000
00000000
00000000
,
00000000
00000000
00000000
00000000
,
00000000
00000000
00000000
00000000
,
00200000
00000000
00301000
00000000
,
00002000
00000000
01003000
00000000
,
20000000
00000000
30010000
00000000
,
00002000
00000000
00013000
00000000
,
00000020
00000000
00010030
00000000
,
00020000
00000000
00030100
00000000
,
00000002
00000000
00001003
00000000
,
00020000
00000000
00031000
00000000
,
00100000
00001000
00010000
00000000
00000000
00101000
00000000
00000000
,
00010000
10000000
01000000
00000000
00000000
10010000
00000000
00000000
,
01000000
00100000
10000000
00000000
00000000
01100000
00000000
00000000
,
10000000
01000000
00010000
00000000
01000000
00010000
00001000
00000000
,
00010000
00001000
00000100
00000000
00000000
00001010
00000000
00000000
,
00001000
00000100
00000001
00000000
00000000
00000110
00000000
00000000
,
00000010
00000001
00001000
00000000
00000000
00000011
00000000
00000000
,
00001000
00000100
00000010
00000000
00000001
00000100
00000010
00000000
,
00000100
00000000
00000100
00000000
00001000
00000000
00000000
00010000
,
01000000
00000000
01000000
00000000
00010000
00000000
00000000
00001000
,
00011000
00000000
01000000
00000000
00001000
00010000
01000000
00000000
,
10000000
00000000
00010000
00000000
10000000
00100000
00010000
00000000
,
00100000
00000000
01000000
00000000
00100000
10000000
01000000
00000000
,
00100000
00000000
00001000
00000000
00100000
00010000
00001000
00000000
,
00010000
00000000
00000010
00000000
00010000
00001000
00000010
00000000
,
00000001
00000000
00001000
00000000
00000001
00000100
00001000
00000000
,
00000100
00000000
00000010
00000000
00000100
00000001
00000010
00000000
,
00000100
00000000
00010000
00000000
00000100
00001000
00010000
00000000
,
00100000
00000000
10000000
00000000
00100000
01000000
10000000
00000000
,
01000000
00000000
00100000
00010000
00000000
00100000
00001000
00000000
,
00010000
00000000
00000100
00000000
00001000
00000001
00000100
00000000
,
00000010
00000000
00001000
00000100
00000000
00001000
00000001
00000000
,
00000010
00000000
00000001
00000000
00000010
00000100
00000001
00000000
,
00000100
00000000
00000010
00001000
00000000
00000010
00010000
00000000
,
00001000
00010000
01000000
00010000
,
00001000
00010000
00100000
00000000
02200000
00000000
03300000
00000000
,
10010000
00000000
01000000
00000000
00100000
10000000
01000000
00000000
,
00100000
00000000
00001000
00010000
00000000
00010000
00001000
00000000
,
01000000
00000000
00001000
00000000
00010000
00001000
00000100
00000000
,
00000001
00000000
00000010
00000100
00000000
00000100
00000010
00000000
,
00001001
00000000
00000010
00000000
00000100
00000001
00000010
00000000
,
00000100
00000000
00010000
00001000
00000000
00001000
00010000
00000000
,
00000010
00000000
00010000
00000000
00001000
00010000
00100000
01000000
,
00200000
00000000
01300000
00000000
10000000
00010000
00000000
00010000
,
10000000
00000000
01000000
00000000
10000000
00010000
01000000
00000000
,
00100000
00000000
00010000
00000000
00100000
00010000
00001000
00000000
,
00010000
00000000
00000100
00000000
00010000
00000010
00001000
00000000
,
00000001
00000010
00000001
00000000
00000100
00000000
00000100
00000000
,
00000001
00000000
00000100
00000000
00000001
00001000
00000100
00000000
,
00000010
00000000
00001000
00000000
00000010
00001000
00010000
00000000
,
01000000
00000000
00000000
00100000
00000000
00000000
10000000
00000000
,
10000000
00000000
00000000
01000000
00000000
00000000
00010000
00000000
,
00011000
00000000
00000100
00000000
,
00001000
00000000
00000010
00000000
,
00000101
00000000
00000100
00000000
,
00000010
00000000
00010000
00000000
,
00011000
00000000
01000000
00000000
,
00010000
00000000
00100000
00000000
,
11000000
00000000
01000000
10000000
01000000
00100000
00010000
00000000
,
00001000
00000100
00000210
00000000
,
00000301
00000000
00001000
00000000
00000001
00000100
00001000
00000000
,
00000010
00000000
00000100
00000000
00000010
00000001
00000100
00000000
,
00001000
00000000
00000010
00000000
00000100
00001000
00000100
00000000
,
00001000
00000000
00010000
00000000
01000000
00010000
01000000
00000000
,
10000000
00000000
00010000
00000000
10000000
01000000
00010000
00000000
,
00100000
00000000
01000000
00000000
00100000
10000000
01000000
00000000
,
00010000
00000000
00100000
00000000
01000000
00010000
01000000
00000000
,
00010000
00000000
00001000
00000000
00000100
00001000
00000100
00000000
,
00000010
00000001
00000010
00000100
,
00001000
00000000
00000100
00000001
00000000
00000001
00000100
00000000
,
00001000
00010000
00100000
01000000
,
00010000
00000000
00100000
01000000
00000000
01000000
00100000
00000000
,
01000000
10000000
01000000
00100000
,
00010000
00000000
00100000
10000000
00000000
10000000
00100000
00000000
,
00010000
00001000
00000100
00000010
,
00001000
00000100
00000002
00000000
,
00001003
00000010
00000001
00000000
,
00000200
00000000
00001300
00000000
,
00010000
00001000
00000010
00000000
,
00002000
00000000
00003100
00000000
,
00001000
00010000
01000000
00000000
,
00020000
00000000
00130000
00000000
,
00010000
01000000
10000000
00000000
,
00200000
00000000
00310000
00000000
,
01000000
00000000
01000000
00000000
00010000
00000000
00000000
00001000
,
00000100
00000000
00000100
00000000
00001000
00000000
00000000
00010000
;

//---------------dance-double - ----------------
#NOTEDATA:;
#CHARTNAME:;
#STEPSTYPE:dance-double;
#DESCRIPTION:;
#CHARTSTYLE:;
#DIFFICULTY:Hard;
#METER:13;
#RADARVALUES:0.593736,0.659207,0.118297,0.283912,0.114353,527.000000,512.000000,15.000000,36.000000,0.000000,0.000000,0.000000,0.000000,0.000000,0.593736,0.659207,0.118297,0.283912,0.114353,527.000000,512.000000,15.000000,36.000000,0.000000,0.000000,0.000000,0.000000,0.000000;
#CREDIT:led_light;
#NOTES:
00000000
00000000
00000000
00000000
,
00000000
00000000
00000000
00000000
,
00000000
00000000
00000000
00000000
,
00000000
00000000
00000000
00000000
,
00000000
00000000
00000000
00000000
,
00000000
00000000
00000000
00000000
,
00000000
00000000
00000000
00000000
,
00000000
00000000
00000000
00000000
,
00000000
00000000
00000000
00000000
,
00020100
00000000
00001000
00000000
,
00000100
00000000
00031000
00000010
,
00000021
00000000
00001000
00000000
,
00000001
00000000
00001030
00010000
,
00102000
00000000
00010000
00000000
,
00100000
00000000
00013000
01000000
,
12000000
00000000
00010000
00000000
,
10000000
00000000
00000000
00000000
00000000
00000000
00000000
00000000
03010000
00000000
00000000
00000000
00000000
00000000
00100000
00001000
,
00100000
00001000
00010000
00000000
00010000
00000100
00000010
00000000
,
00000001
00001000
00000100
00000000
00010000
00000010
00001000
00000000
,
00010000
01000000
00001000
00000000
00100000
00010000
10000000
00000000
,
00100000
00000000
01000000
00000000
00010000
00000000
00000000
00000000
10000000
00000000
01000000
00000000
00100000
00010000
00100000
00010000
,
00001000
00000100
00000010
00000000
00000001
00000100
00000010
00000000
,
00001000
00000100
00010000
00000000
00001000
01000000
00010000
00000000
,
00100000
01000000
10000000
00000000
00100000
01000000
00010000
00000000
,
10000000
01000000
00010000
00000000
00001000
00000100
00000001
00000000
,
00000001
00000100
00000010
00000010
00002000
00000000
00000000
00013000
,
01000000
00100000
10000000
10000000
02000000
00000000
00000000
03100000
,
10010000
00010000
01000000
00100000
10000000
01000000
00010000
00001000
,
00000010
00001000
00010000
00001000
00000010
00000001
00001000
00000100
,
00000010
00000001
00000100
00001000
00010000
00001000
00000100
00001000
,
00010000
00100000
01000000
10000000
01000000
00100000
10000000
01000000
,
00100000
00010000
01000000
00001000
00100000
00010000
01000000
00001000
,
00010000
00000100
00001000
00000010
00010000
00000100
00001000
00000010
,
00001000
00000100
00000010
00000001
00000100
00000010
00001000
00000010
,
00010000
00000000
00001000
00000000
00100000
00000000
00000000
00010000
00000000
00000000
10000000
01000000
10000000
00000000
00000000
00000000
,
01000000
00100000
00010000
01000000
00001000
00010000
00100000
00000000
,
01000000
00001000
00010000
00000010
00001000
00000100
00000010
00000000
,
00000001
00000010
00001000
00000010
00000001
00001000
00000100
00000000
,
00010000
00001000
00000010
00000100
00001000
00010000
00100000
00000000
,
01000000
00100000
00010000
01000000
00001000
00010000
00100000
00000000
,
01000000
00001000
00010000
00000010
00001000
00000100
00000010
00000000
,
00000001
00000001
00000100
00000100
00001000
00001000
00010000
00010000
,
10000000
10000000
00100000
00000000
20020000
00000000
30030000
00000000
,
10000000
01000000
00010000
01000000
10000000
01000000
00100000
00010000
,
00001000
00000100
00010000
00001000
00000010
00000001
00000200
00000000
,
00000310
00001000
00010000
00001000
00000010
00000100
00000001
00000100
,
00001000
00010000
00100000
01000000
00010000
00100000
02000000
00000000
,
13000000
00100000
00010000
00100000
10000000
00100000
01000000
00010000
,
00001000
00000010
00010000
00001000
00000100
00000001
00000020
00000000
,
00000130
00001000
00010000
00001000
00000100
00000010
00000001
00000010
,
00000200
00000000
00000310
00001000
00010000
00010000
00100000
00100000
,
01000000
00100000
10000000
00100000
01000000
00010000
00100000
01000000
,
00100000
00001000
00010000
00000100
00002000
00003020
00000230
00000302
,
00001003
00000010
00000100
00000010
00001000
00000001
00000010
00000100
,
00000020
00000000
00000032
00000000
00000023
00000000
00002030
00000000
00013000
00001000
00010000
00000000
01000000
00000000
10000000
00000000
,
00010000
01000000
00100000
01000000
00010000
10000000
01000000
00100000
,
00010000
00100000
00001000
01000000
00020000
00230000
02300000
23000000
,
30100000
01000000
00010000
00001000
00000000
00001000
00010000
00000000
,
00000100
00000000
00000010
00000000
00001000
00000000
00010000
00000000
00000000
00000000
00010000
00001000
00010000
00000000
00000000
00000000
,
00011000
00001000
00010100
00000100
,
00000010
00000010
00000101
00000001
,
00001000
00001000
00000110
00000001
,
00000100
00000100
00010010
00001000
,
00010000
00010000
00101000
00100000
,
01000000
01000000
10100000
10000000
,
00010000
00000000
00000000
00000000
00010000
00000000
01000000
00000000
10000000
00000000
10000000
00010000
10000000
00000000
00100000
00000000
,
01000000
00010000
00001000
00000100
00000002
00000000
00000103
00000000
,
00000110
00000000
00000000
00000000
00001000
00000000
00000000
00010000
00000000
00000000
00010000
00000000
00000010
00000000
00000000
00000000
,
00000100
00000000
00000001
00000000
00000010
00000000
00000000
00000010
00000000
00000000
00001000
00000000
00010000
00000000
00000000
00000000
,
00000010
00000000
00000100
00000000
00001000
00000000
00000000
00010000
00000000
00000000
00010000
00000000
00100000
00000000
00000000
00100000
,
01000000
00000000
01000000
00000000
00100000
00000000
00000000
10000000
00000000
00000000
00010000
00100000
00010000
00000000
00000000
00000000
,
01100000
00000000
00000000
00000000
00010000
00000000
00000000
00001000
00000000
00000000
00001000
00000000
01000000
00000000
00000000
00000000
,
00100000
00000000
10000000
00000000
01000000
00000000
00000000
01000000
00000000
00000000
00010000
00000000
00001000
00000000
00000000
00000000
,
01000000
00000000
00100000
00000000
00010000
00000000
00000000
00001000
00000000
00000000
00001000
00000000
00000100
00000000
00000000
00000100
,
00000010
00000000
00001000
00000010
00001000
00000000
00000000
00000001
00000000
00000000
00001000
00000010
00001000
00000000
00000000
00000000
,
00000001
00000000
00000100
00000000
00000010
00000000
00010000
00001000
00000000
00000000
00000100
00000000
00000010
00000000
00001000
00000000
,
00000100
00000000
00010000
00000000
00001000
00000000
00100000
00010000
00000000
00000000
01000000
00000000
00010000
00000000
00100000
00000000
,
01000000
00000000
10000000
00000000
00010000
00000000
01000000
00010000
00000000
00000000
10000000
00000000
00100000
00000000
01000000
00000000
,
00001000
00000000
00010000
00000000
00000100
00000000
00001000
00000100
00000000
00000000
00000010
00000000
00000001
00000000
00000100
00000000
,
00000010
00000000
00010000
00000000
00001000
00000000
00000010
00000001
00000000
00000000
00001000
00000000
00000010
00000000
00010000
00000000
,
00001000
00000000
01000000
00000000
00010000
00000000
10000000
01000000
00000000
00000000
00100000
00000000
00001000
00000000
00010000
00000000
,
00001000
00000000
00000100
00000000
00000001
00000000
00000100
00000001
00000000
00000000
00000010
00000000
00000010
00000000
00001000
00000000
,
00010000
00000000
02000000
00000000
00000000
00000000
03100000
00010000
00100000
00000000
01000000
00000000
20000000
00000000
00000000
00000000
,
30010000
01000000
10000000
00100000
,
00020000
00000000
02030000
00000000
,
03010000
10000000
00100000
00010000
,
00000020
00000000
00000230
00000000
,
00001300
00000010
00000001
00000100
,
00002000
00000000
00003010
00000100
,
00001000
00000001
00000100
00001000
,
02000000
00000000
03200000
00000000
,
10300000
01000000
00100000
00100000
00020000
00000000
00000000
00031000
,
00000100
00000010
00000001
00000001
00000200
00000000
00000000
00010300
;

//---------------dance-single - ----------------
#NOTEDATA:;
#CHARTNAME:;
#STEPSTYPE:dance-single;
#DESCRIPTION:;
#CHARTSTYLE:;
#DIFFICULTY:Hard;
#METER:13;
#RADARVALUES:0.592609,0.659207,0.141956,0.205047,0.114353,526.000000,508.000000,18.000000,26.000000,0.000000,0.000000,0.000000,0.000000,0.000000,0.592609,0.659207,0.141956,0.205047,0.114353,526.000000,508.000000,18.000000,26.000000,0.000000,0.000000,0.000000,0.000000,0.000000;
#CREDIT:led_light;
#NOTES:
// measure 0
0000
0000
0000
0000
,  // measure 1
0000
0000
0000
0000
,  // measure 2
0000
0000
0000
0000
,  // measure 3
0000
0000
0000
0000
,  // measure 4
0000
0000
0000
0000
,  // measure 5
0000
0000
0000
0000
,  // measure 6
0000
0000
0000
0000
,  // measure 7
0000
0000
0000
0000
,  // measure 8
0000
0000
0000
0000
,  // measure 9
0021
0000
1000
0000
,  // measure 10
0001
0000
0130
1000
,  // measure 11
1020
0000
0001
0000
,  // measure 12
1000
0000
0130
0010
,  // measure 13
0201
0000
1000
0000
,  // measure 14
0001
0000
0310
1000
,  // measure 15
1200
0000
0001
0000
,  // measure 16
1000
0000
0000
0000
0000
0000
0000
0000
0310
0000
0000
0000
0100
0000
1000
0001
,  // measure 17
1000
0100
0010
0000
0100
0010
0001
0000
,  // measure 18
0001
0100
0010
0000
0100
0010
1000
0000
,  // measure 19
0001
0100
0010
0000
1000
0100
0010
0000
,  // measure 20
0100
0000
1000
0000
0010
0000
0000
0000
0100
0000
0001
0000
0010
0100
0010
0100
,  // measure 21
0010
0001
1000
0000
0100
1000
0001
0000
,  // measure 22
0010
0001
0100
0000
0001
0100
0010
0000
,  // measure 23
0100
0001
1000
0000
0010
1000
0100
0000
,  // measure 24
0010
0100
1000
0000
0001
0010
0100
1000
,  // measure 25
0001
0010
0001
0010
0002
0000
0000
1003
,  // measure 26
0010
0100
0010
0100
0020
0000
0000
0130
,  // measure 27
1001
0010
1000
0001
0100
0010
1000
0001
,  // measure 28
0010
0100
1000
0001
1000
0100
0010
0100
,  // measure 29
1000
0001
1000
0100
0001
0100
1000
0001
,  // measure 30
0100
0001
0100
0010
1000
0100
1000
0010
,  // measure 31
0001
0100
0001
1000
0010
0100
0001
1000
,  // measure 32
0100
0010
0001
1000
0001
0010
0100
0010
,  // measure 33
0001
1000
0001
0010
1000
0010
0001
1000
,  // measure 34
0010
0000
1000
0000
0010
0000
0000
0100
0000
0000
0001
0010
0001
0000
0000
0000
,  // measure 35
0010
1000
0100
1000
0001
0100
0010
0000
,  // measure 36
0010
0001
0010
1000
0001
0100
0010
0000
,  // measure 37
0100
0001
1000
0010
0100
0001
0010
0000
,  // measure 38
1000
0010
0001
0010
0100
1000
0001
0000
,  // measure 39
1000
0010
0001
0010
0100
0001
1000
0000
,  // measure 40
0001
0100
0001
0010
0100
1000
0001
0000
,  // measure 41
1000
0001
1000
0000
0100
0000
0100
0000
0001
0000
0010
0000
0001
0000
0100
0000
,  // measure 42
0010
0010
0100
0000
2002
0000
3003
0000
,  // measure 43
0100
0001
1000
0010
0100
0010
1000
0001
,  // measure 44
0100
0010
1000
0010
1000
0100
0002
0000
,  // measure 45
0103
0010
0100
0010
1000
0001
0100
1000
,  // measure 46
0001
0010
0001
0010
0100
1000
0020
0000
,  // measure 47
0130
0001
1000
0001
0100
0001
0010
0100
,  // measure 48
1000
0100
1000
0001
1000
0100
0020
0000
,  // measure 49
0031
0010
0100
0010
1000
0001
0100
0010
,  // measure 50
0200
0000
1300
0001
0010
0010
0100
0100
,  // measure 51
0110
0010
0001
0010
0001
1000
0001
0100
,  // measure 52
0010
1000
0010
0100
0001
0001
1000
1000
,  // measure 53
0010
0100
0001
1000
0010
1000
0010
0100
,  // measure 54
0001
0000
0001
0000
0010
0000
0010
0000
0100
1000
0100
0000
0010
0000
0001
0000
,  // measure 55
0100
0010
1000
0010
1000
0001
1000
0100
,  // measure 56
0010
0001
0010
0100
1000
1000
0001
0001
,  // measure 57
1002
0000
0103
0020
0000
1030
0100
0000
,  // measure 58
0120
0000
0000
0000
0031
0000
2000
0000
0000
0000
3100
1000
0001
0000
0000
0000
,  // measure 59
1001
0100
1010
0001
,  // measure 60
0100
0100
1001
0010
,  // measure 61
1000
1000
0101
0010
,  // measure 62
0001
0001
0110
0001
,  // measure 63
1000
1000
0011
0100
,  // measure 64
1000
1000
0110
0001
,  // measure 65
1000
0000
0000
0000
0001
0000
0100
0000
0010
0000
1000
0100
1000
0000
0001
0000
,  // measure 66
1000
0100
0001
0100
2000
0000
3001
0000
,  // measure 67
0101
0000
0000
0000
0010
0000
0000
1000
0000
0000
1000
0000
0100
0000
0000
0000
,  // measure 68
0001
0000
0100
0000
1000
0000
0000
0010
0000
0000
0010
0000
0100
0000
0000
0000
,  // measure 69
0001
0000
0000
0000
1000
0000
0000
0010
0000
0000
0010
0000
0100
0000
0000
0001
,  // measure 70
1000
0000
0001
0000
0010
0000
0000
0100
0000
0000
0100
0000
0010
0000
0000
0000
,  // measure 71
1100
0000
0000
0000
0010
0000
0000
0001
0000
0000
0001
0000
0100
0000
0000
0000
,  // measure 72
1000
0000
0100
0000
0001
0000
0000
0010
0000
0000
0010
0000
0100
0000
0000
0000
,  // measure 73
1000
0000
0000
0000
0001
0000
0000
0010
0000
0000
0010
0000
0100
0000
0000
1000
,  // measure 74
0001
0000
1000
0010
1000
0000
0000
0100
0000
0000
1000
0010
1000
0000
0000
0000
,  // measure 75
0001
0000
0100
0000
0010
0000
1000
0010
0000
0000
0100
0000
0001
0000
0010
0000
,  // measure 76
0100
0000
1000
0000
0100
0000
0010
0100
0000
0000
1000
0000
0001
0000
0000
0000
,  // measure 77
0100
0000
0001
0000
0100
0000
0010
1000
0000
0000
0010
0000
1000
0000
0001
0000
,  // measure 78
1000
0000
0100
0000
1000
0000
0001
1000
0000
0000
0001
0000
0100
0000
0000
0000
,  // measure 79
0010
0000
1000
0000
0010
0000
0100
0001
0000
0000
0100
0000
0001
0000
1000
0000
,  // measure 80
0001
0000
0010
0000
0001
0000
1000
0001
0000
0000
1000
0000
0010
0000
0000
0000
,  // measure 81
1000
0000
0100
0000
0010
0000
0001
0010
0000
0000
0100
0000
0100
0000
0001
0000
,  // measure 82
0100
0000
1000
0000
0000
0000
0001
0100
0001
0000
0100
0000
0020
0000
0000
0000
,  // measure 83
1030
0100
0001
0100
,  // measure 84
2000
0000
3001
0010
,  // measure 85
1000
0010
0001
0100
,  // measure 86
0020
0000
2030
0000
,  // measure 87
3001
0100
1000
0100
,  // measure 88
0002
0000
1003
0010
,  // measure 89
0001
0010
1000
0100
,  // measure 90
0020
0000
0032
0000
,  // measure 91
1003
0100
1000
0100
0020
0000
0000
0130
,  // measure 92
1000
0001
1000
0001
0200
0000
0000
0310
;

//---------------dance-single - ----------------
#NOTEDATA:;
#CHARTNAME:;
#STEPSTYPE:dance-single;
#DESCRIPTION:;
#CHARTSTYLE:;
#DIFFICULTY:Medium;
#METER:10;
#RADARVALUES:0.429247,0.512717,0.070978,0.205047,0.039432,381.000000,372.000000,9.000000,26.000000,0.000000,0.000000,0.000000,0.000000,0.000000,0.429247,0.512717,0.070978,0.205047,0.039432,381.000000,372.000000,9.000000,26.000000,0.000000,0.000000,0.000000,0.000000,0.000000;
#CREDIT:led_light;
#NOTES:
0000
0000
0000
0000
,
0000
0000
0000
0000
,
0000
0000
0000
0000
,
0000
0000
0000
0000
,
0000
0000
0000
0000
,
0000
0000
0000
0000
,
0000
0000
0000
0000
,
0000
0000
0000
0000
,
0000
0000
0000
0000
,
2000
0000
0100
0000
,
0001
0000
3100
1000
,
0020
0000
0100
0000
,
1000
0000
0130
0001
,
0020
0000
0100
0000
,
0001
0000
0130
1000
,
0002
0000
0100
0000
,
1000
0000
0103
0000
,
0010
1000
0010
0000
0100
0001
0100
0000
,
0001
0010
0100
0000
1000
0100
0010
0000
,
0001
0100
0001
0000
1000
0100
1000
0000
,
0100
0010
0100
0000
1000
0001
1000
0010
,
0100
0001
0100
0000
0010
1000
0010
0000
,
1000
0100
0010
0000
0001
0010
0100
0000
,
1000
0010
1000
0000
0001
0010
0001
0000
,
0010
0100
0010
0000
0001
1000
0001
0000
,
0100
0010
0100
0000
0020
0000
0030
0000
,
1000
0100
1000
0000
0002
0000
0003
0000
,
1001
0001
0100
0001
,
1000
0000
0010
0000
0100
0001
1000
0000
,
0001
0010
0100
0010
,
0001
0000
0010
0000
1000
0010
0001
0000
,
0110
1000
0100
1000
,
0001
0000
0010
0000
0100
1000
0001
0000
,
1000
0010
0100
0010
,
1000
0000
0000
0000
0010
0000
0000
0100
0000
0000
0100
0000
0010
0000
0000
0000
,
1000
0100
0001
0000
0100
0000
1000
0000
,
0010
0000
0100
0001
0000
0001
1000
0000
,
0001
0010
1000
0000
0010
0000
0001
0000
,
0100
0000
0010
1000
0000
1000
0001
0000
,
0100
0010
0100
0000
1000
0000
0001
0000
,
0010
0000
0100
0010
0000
0010
1000
0000
,
0001
0010
0001
0000
1000
0100
1000
0000
,
0010
0100
2002
3003
,
0001
0000
0100
0000
0010
1000
0001
0000
,
0100
0000
0010
1000
0000
1000
0100
0000
,
0010
0000
0100
0000
1000
0100
0010
0000
,
0001
0000
0100
0010
0000
0010
0100
0000
,
0001
0000
0010
0000
0100
1000
0001
0000
,
0010
0000
0100
1000
0000
1000
0010
0000
,
0100
0000
0010
0000
1000
0010
0100
0010
,
2000
0000
3001
0000
0010
0010
0001
0000
,
1002
0000
0103
0000
0010
1000
0100
0000
,
1000
0000
0010
0000
1000
0100
1000
0100
,
0020
0000
0130
0000
1000
0010
0100
0000
,
0001
0100
0001
0100
0010
1000
0001
0000
,
1002
0000
0013
0000
0100
1000
0010
0000
,
1000
0000
0100
0000
1000
0010
1000
0010
,
0100
0000
0000
0100
0000
0000
0001
0000
,
0010
0000
0000
0010
0000
0000
0100
0000
,
2001
0000
0100
0000
,
0001
0000
0100
0000
,
3002
0000
0100
0000
,
1000
0000
0100
0000
,
0023
0000
0100
0000
,
0001
0000
0100
0000
,
0031
0000
0100
0010
1000
0001
0100
0001
,
0010
0100
0010
0000
0200
0000
0300
0000
,
1001
0000
0000
0000
0001
0000
0000
0100
0000
0000
0100
0000
0010
0000
0000
0000
,
0100
0000
0000
0000
0001
0000
0000
1000
0000
0000
1000
0000
0100
0000
0000
0000
,
0010
0000
0000
0000
0100
0000
0000
1000
0000
0000
1000
0000
0010
0000
0000
0000
,
0100
0000
0001
0000
0010
0000
0000
0100
0000
0000
0100
0000
0010
0000
0000
0000
,
1001
0000
0000
0000
1000
0000
0000
0010
0000
0000
0010
0000
0100
0000
0000
0000
,
0010
0000
0000
0000
1000
0000
0000
0001
0000
0000
0001
0000
0010
0000
0000
0000
,
0100
0000
0000
0000
0010
0000
0000
0001
0000
0000
0001
0000
0100
0000
0000
0010
,
0000
0000
0010
0000
0100
0000
0000
1000
0000
0000
1000
0000
0100
0000
0000
0000
,
0001
0100
0001
0000
0010
0000
0100
0000
,
1000
0000
0001
0010
0000
1000
0010
0000
,
0001
0000
1000
0100
0001
0000
0100
0000
,
1000
0000
0010
0100
0000
0100
0010
0000
,
1000
0000
0100
1000
0010
0000
0100
0000
,
0001
0000
1000
0010
0000
0001
0010
0000
,
1000
0000
0001
0100
1000
0100
0010
0100
,
0001
1000
0100
0000
0220
0000
0330
0000
,
0001
0010
1000
0100
,
0002
0000
0013
0000
,
0100
1000
0010
0001
,
0020
0000
2030
0000
,
3001
0100
1000
0010
,
0002
0000
0103
0010
,
0100
1000
0100
0001
,
0020
0000
0230
0000
,
1300
0010
1000
0000
0020
0000
0000
0030
,
0100
0001
0100
0000
0002
0000
0000
1003
;

//---------------dance-single - ----------------
#NOTEDATA:;
#CHARTNAME:;
#STEPSTYPE:dance-single;
#DESCRIPTION:;
#CHARTSTYLE:;
#DIFFICULTY:Easy;
#METER:7;
#RADARVALUES:0.328977,0.402849,0.157729,0.244479,0.000000,292.000000,272.000000,20.000000,31.000000,0.000000,0.000000,0.000000,0.000000,0.000000,0.328977,0.402849,0.157729,0.244479,0.000000,292.000000,272.000000,20.000000,31.000000,0.000000,0.000000,0.000000,0.000000,0.000000;
#CREDIT:led_light;
#NOTES:
0000
0000
0000
0000
,
0000
0000
0000
0000
,
0000
0000
0000
0000
,
0000
0000
0000
0000
,
0000
0000
0000
0000
,
0000
0000
0000
0000
,
0000
0000
0000
0000
,
0000
0000
0000
0000
,
0000
0000
0000
0000
,
2000
0000
3100
0000
,
0002
0000
0103
0000
,
2000
0000
3010
0000
,
0002
0000
0013
0000
,
2000
0000
3100
0000
,
0002
0000
1003
0000
,
0002
0000
0103
0000
,
2000
0000
3001
0000
,
0100
0010
0000
0010
,
1000
0100
0000
0100
,
0001
0010
0000
0010
,
1000
0100
0001
0100
,
1000
0010
0000
0010
,
0100
0001
0000
0001
,
0010
0100
0000
0100
,
1000
0010
0001
0010
,
1000
1000
2000
3000
,
0001
0001
0002
0003
,
1001
0100
0010
0001
,
1000
0100
0010
0100
,
1000
0001
0010
0100
,
1000
0100
0010
0110
,
0001
0100
0010
1000
,
0001
0100
0010
0100
,
0001
1000
0010
0100
,
0001
0100
0000
0110
,
1000
0100
0001
0000
,
0010
0010
0010
0000
,
0001
0100
1000
0000
,
0010
0010
0010
0000
,
1000
0100
0001
0000
,
0001
0100
1000
0000
,
0010
0010
0100
0100
,
0010
0100
2002
3003
,
0001
0100
0010
1000
,
0001
0100
0001
1100
,
0001
0010
0100
1000
,
0001
0010
0001
1010
,
1000
0100
0010
0001
,
1000
0100
1000
0101
,
1000
0010
0100
0001
,
0020
0030
0100
0100
,
1001
0010
0100
0010
,
0001
0100
0010
0010
,
1000
0100
0001
0100
,
1000
1000
0001
0110
,
0001
0100
0010
0100
,
0001
0010
0100
0100
,
0110
0000
0000
0100
0000
0000
0100
0000
,
1001
0000
0000
0010
0000
0000
0010
0000
,
2100
0000
3010
0000
,
0020
0000
0031
0000
,
0002
0000
0103
0000
,
0200
0000
1300
0000
,
2000
0000
3010
0000
,
0020
0000
0031
0000
,
0010
0100
0100
0100
,
0010
0100
0220
0330
,
1001
0001
0100
0001
,
0010
1000
0010
1000
,
0001
0100
0001
0100
,
1000
0001
0010
0110
,
0001
1000
0100
1000
,
0010
0001
0010
0001
,
1000
0100
1000
0100
,
0001
1000
0000
0110
,
0001
1000
0100
0010
,
0100
0000
1000
0001
0000
0000
1001
0000
,
0001
0100
0010
0100
,
0001
0000
0010
0100
0000
0000
0110
0000
,
0001
1000
0010
0001
,
0010
0000
0100
0010
0000
0000
0110
0000
,
1000
0001
0010
1000
,
0020
0030
2002
3003
,
0001
0100
0010
0000
,
2000
0000
3100
0000
,
0001
0100
1000
0000
,
0020
0000
0130
0000
,
0001
0010
0100
0000
,
2000
0000
3010
0001
,
0010
1000
0100
0000
,
0020
0000
0230
0000
,
1300
1000
2000
3000
,
0001
0000
0001
0000
0002
0000
0000
0003
;

//---------------dance-single - ----------------
#NOTEDATA:;
#CHARTNAME:;
#STEPSTYPE:dance-single;
#DESCRIPTION:;
#CHARTSTYLE:;
#DIFFICULTY:Beginner;
#METER:4;
#RADARVALUES:0.153222,0.219736,0.031546,0.149842,0.000000,136.000000,132.000000,4.000000,19.000000,0.000000,0.000000,0.000000,0.000000,0.000000,0.153222,0.219736,0.031546,0.149842,0.000000,136.000000,132.000000,4.000000,19.000000,0.000000,0.000000,0.000000,0.000000,0.000000;
#CREDIT:led_light;
#NOTES:
0000
0000
0000
0000
,
0000
0000
0000
0000
,
0000
0000
0000
0000
,
0000
0000
0000
0000
,
0000
0000
0000
0000
,
0000
0000
0000
0000
,
0000
0000
0000
0000
,
0000
0000
0000
0000
,
0000
0000
0000
0000
,
2000
0000
0000
0000
,
0000
0000
3000
0000
,
0002
0000
0000
0000
,
0000
0000
0003
0000
,
2000
0000
0000
0000
,
0000
0000
3000
0000
,
0002
0000
0000
0000
,
0000
0000
0003
0000
,
0010
0010
0000
0100
,
0000
0010
0000
1000
,
0000
0010
0000
0001
,
0000
1000
0000
1000
,
0010
0010
0000
0100
,
0000
0010
0000
0001
,
0000
0010
0000
1000
,
0000
0001
0000
0001
,
2000
0000
3000
0000
,
0002
0000
0003
0000
,
1001
0000
1000
0000
,
1000
0000
1000
0000
,
0100
0000
0100
0000
,
0010
0000
0100
0000
,
0001
0000
0001
0000
,
0001
0000
0001
0000
,
0010
0000
0010
0000
,
0100
0000
0010
0000
,
1000
1000
1000
0000
,
0010
0000
1000
0000
,
0001
0001
0001
0000
,
0100
0000
0001
0000
,
0010
0010
0010
0000
,
0100
0000
0010
0000
,
0002
0000
0003
0000
,
2000
0000
3000
0000
,
0001
0000
0001
0000
,
0001
0000
0010
0000
,
1000
0000
1000
0000
,
1000
0000
0100
0000
,
0001
0000
0001
0000
,
0001
0000
0100
0000
,
0010
0000
0010
0000
,
1000
1000
1000
0000
,
0001
0000
0010
0000
,
0100
0000
0100
0000
,
1000
0000
0010
0000
,
0100
0100
0100
0000
,
0001
0000
1000
0000
,
0100
0000
0010
0000
,
0110
0000
0000
0000
,
0110
0000
0000
0000
,
2000
0000
0000
0000
,
0000
0000
3000
0000
,
0002
0000
0000
0000
,
0000
0000
0003
0000
,
2000
0000
0000
0000
,
0000
0000
3000
0000
,
0001
0000
0001
0000
,
0200
0000
0300
0000
,
0110
0000
0010
0000
,
0010
0000
0010
0000
,
1000
0000
1000
0000
,
0100
0000
1000
0000
,
0001
0000
0001
0000
,
0001
0000
0001
0000
,
0010
0000
0010
0000
,
1000
0000
0010
0000
,
0000
0001
0001
0000
,
0010
0000
1000
0000
,
0000
0001
0001
0000
,
0100
0000
1000
0000
,
0000
0010
0010
0000
,
0100
0000
0010
0000
,
0000
1000
1000
0000
,
0002
0000
0003
0000
,
0020
0000
0000
0000
,
0030
0000
0000
0000
,
0200
0000
0000
0000
,
0300
0000
0000
0000
,
2000
0000
0000
0000
,
3000
0000
0000
0000
,
0002
0000
0000
0000
,
0003
0000
0000
0000
,
0200
0000
0300
0000
,
0200
0000
0000
0000
0000
0000
0000
0300
;
