#TITLE:Knight Rider;
#SUBTITLE:;
#ARTIST:USAO;
#TITLETRANSLIT:;
#SUBTITLETRANSLIT:;
#ARTISTTRANSLIT:;
#GENRE:Crossover;
#CREDIT:;
#BANNER:Knight Rider.png;
#BACKGROUND:Knight Rider-bg.png;
#LYRICSPATH:;
#CDTITLE:../cdtitle.png;
#MUSIC:Knight Rider.ogg;
#OFFSET:-0.098000;
#SAMPLESTART:51.695999;
#SAMPLELENGTH:15.000000;
#SELECTABLE:YES;
#DISPLAYBPM:50.000000:200.000000;
#BPMS:0.000000=200.000000
,40.000000=50.000000
,41.000000=200.000000
,105.000000=100.000000
,121.000000=400.000000
,122.000000=200.000000
,149.000000=50.000000
,150.000000=200.000000
,182.000000=400.000000
,183.000000=200.000000
,274.000000=100.000000
,276.000000=200.000000
,300.000000=100.000000
,304.000000=200.000000
,328.000000=100.000000
,332.000000=400.000000
,333.000000=200.000000
,364.000000=400.000000
,365.000000=200.000000
;
#STOPS:121.000000=0.150000,
182.000000=0.150000,
332.000000=0.150000,
364.000000=0.150000
;
#BGCHANGES:-99.000=../bg.avi=1.000=0=0=1=====,
99999=-nosongbg-=1.000=0=0=0 // don't automatically add -songbackground-
;
#KEYSOUNDS:;
#ATTACKS:;

//---------------dance-single - ----------------
#NOTES:
     dance-single:
     :
     Beginner:
     5:
     0.179599,0.299909,0.136322,0.083308,0.000000,166.000000,148.000000,18.000000,11.000000,0.000000,0.000000,0.179599,0.299909,0.136322,0.083308,0.000000,166.000000,148.000000,18.000000,11.000000,0.000000,0.000000:
0000
0000
0000
0000
,
0000
0000
0000
0000
,
0000
0000
0000
0000
,
0000
0000
0000
0000
,
0000
0000
0000
0000
,
0000
0000
0000
0000
,
0000
0000
0000
0000
,
1001
0000
0100
0000
,
1001
0000
0100
0000
,
0010
0010
0010
0010
,
0010
0100
0000
0100
,
0000
0010
0000
0100
,
0000
0010
0000
0010
,
0000
0100
0000
0010
,
0000
0001
0000
0001
,
0000
1000
0000
0001
,
0000
1000
0000
1000
,
0000
1000
1000
1000
,
0000
0020
0000
0000
,
0000
0030
0000
0000
,
0000
1000
0000
0001
,
0000
1000
0000
0100
,
0000
0020
0000
0000
,
0000
0030
0000
0000
,
0000
0002
0000
0000
,
0000
0003
0000
0000
,
0000
1001
0000
0100
,
0000
1001
0000
0100
,
0000
0110
0000
0010
,
0000
0110
0000
0100
,
0000
0100
0000
0100
,
0000
0100
0000
0000
,
0000
0001
0000
0001
,
0000
1000
0000
0000
,
0000
0010
0000
0010
,
0000
0010
0000
0000
,
0000
0001
0000
0001
,
0000
0000
0002
0003
1001
0000
0000
0000
,
0000
0000
0001
0000
,
0000
0000
0100
0000
,
0000
0000
0100
0000
,
1000
0000
1000
0000
,
0000
0000
0010
0000
,
0000
0000
0010
0000
,
0010
0000
0002
0000
,
0003
0000
0110
0000
,
0000
0000
0010
0000
,
0000
0000
1000
0000
,
0000
0000
1000
0000
,
0100
0000
0100
0000
,
0000
0000
0001
0000
,
0000
0000
0002
0000
,
0003
0000
0020
0000
,
0030
0000
0200
0000
,
0000
0000
0000
0000
,
0000
0000
0300
0000
,
0000
0000
0000
0000
,
0000
0000
2000
0000
,
0000
0000
3000
0000
,
0000
0000
0002
0000
,
0000
0000
0003
0000
,
0000
0000
1001
0000
,
0000
0000
1001
0000
,
0000
0000
1001
0000
,
0000
0000
1001
0000
,
0000
0000
1001
0000
,
0010
0000
1001
0000
,
0010
0000
0100
0100
,
0100
0100
0100
0000
,
1001
0000
0001
0000
,
0001
0000
0000
0000
,
1000
0000
1000
0000
,
0001
0000
0000
0000
,
0010
0010
0010
0000
,
0100
0100
0100
0000
,
0010
0000
0100
0000
,
1000
0000
1000
0000
,
1000
0000
0000
0000
,
0001
0000
0001
0000
,
0100
0000
0000
0000
,
0110
0000
0010
0000
,
0010
0000
0000
0000
,
0100
0000
0010
0000
,
0010
0000
0010
0000
,
0010
0000
0000
0000
,
0001
0000
0001
0000
,
2000
0000
3000
0000
,
0100
0000
0010
0000
,
0100
0000
0100
0000
,
0010
0000
0010
0000
,
0010
0010
0010
0010
,
0010
0000
0110
0000
,
0100
0000
0100
0000
,
1000
0000
0001
0000
,
1000
0000
0001
0000
,
0100
0000
1000
0000
,
0100
0000
0001
0000
,
0010
0010
0010
0000
,
0100
0100
0100
0000
,
1001
0000
0000
0000
;

//---------------dance-single - ----------------
#NOTES:
     dance-single:
     :
     Challenge:
     17:
     0.888259,1.499546,0.583157,0.181763,0.427901,821.000000,744.000000,77.000000,24.000000,16.000000,0.000000,0.888259,1.499546,0.583157,0.181763,0.427901,821.000000,744.000000,77.000000,24.000000,16.000000,0.000000:
0000
0000
0000
0000
,
0000
0000
0000
0000
,
0000
0000
0000
0000
,
0000
0000
0000
0000
,
0000
0000
0000
0000
,
0000
0000
0000
0000
,
0000
0000
0000
0000
,
0011
0100
1000
0000
1010
0100
0001
0000
,
0101
0001
0010
0000
1100
1000
0010
0000
,
0011
0000
0010
0000
0110
0000
0010
0000
1010
0000
1000
0000
0100
0010
0100
0010
,
0001
0000
0110
0100
1000
0010
0100
0010
,
0100
0000
0010
0000
1000
0000
0010
0100
0010
0000
0001
0010
0001
0000
0010
0000
,
1000
0000
0110
0010
1000
0100
0010
0100
,
0010
0000
0100
0000
1000
0000
0010
1000
0010
0000
0100
1000
0100
0000
0010
0000
,
0100
0001
0100
0001
0010
0000
0100
0000
0010
0000
1000
0000
0010
0000
0100
0000
,
0010
0100
0010
1000
0010
0100
0010
0001
,
1000
0001
0101
1000
0100
1000
0110
0001
,
0100
0000
0001
0000
1000
0000
1000
0000
0001
0000
0001
0000
0010
0100
1000
0001
,
0010
MMMM
2000
0100
3100
1000
0002
0100
,
0103
0001
0020
0100
0130
0010
0001
0001
,
0001
0000
1000
0100
1000
0000
0001
0000
0100
0000
0010
0000
0001
0000
0010
0000
,
0100
0010
0001
1000
0100
0010
0100
0010
,
1000
0000
0011
0011
0011
0000
2000
0100
,
3100
1000
0020
0100
0130
0010
1000
1000
,
1000
0000
0001
0000
0010
0100
0010
0100
0010
0001
0010
0001
1000
0100
1000
0100
,
0010
0100
0010
0001
2000
0000
3020
0000
0032
0000
0203
0000
1300
0000
0000
0000
,
MMMM
0000
0000
0000
0000
0000
0000
0000
1010
0000
1000
0000
0000
0000
0001
0100
0001
0000
1000
0000
0001
0000
0001
0000
1000
0000
0100
0000
1000
0000
0001
0000
,
0010
0000
0100
0000
0100
0000
0000
0000
1100
0000
0000
0000
1100
0000
0000
0000
0101
0000
0000
0000
0001
0010
0100
1000
0001
0000
0000
0000
0001
0100
0010
1000
,
0001
0000
0010
0000
0100
0000
0010
0000
0011
0000
0001
0000
0100
0000
0001
0000
1001
0000
1000
0000
0100
0000
1000
0001
1000
0000
0001
0000
0010
0000
1000
0000
,
0010
0000
0001
0000
1000
0000
0010
0000
0110
0000
0000
0000
0110
0000
0000
0000
1001
0000
0000
0000
0001
0010
0100
0010
0001
0000
1000
0000
0100
0000
1000
0000
,
0010
0001
0001
0001
MMMM
0000
0000
0000
0100
0001
0100
0000
1000
0000
0100
0010
,
0100
0001
1000
0010
0100
0010
0100
0001
,
0010
0100
0010
0100
0010
0000
0000
0000
0011
0000
0010
0000
0110
0000
0100
0000
,
1000
0001
0010
0001
1000
0000
0000
0000
0010
0100
0001
0100
0010
0000
0100
0000
,
0001
0000
1000
0001
1000
0000
1000
0000
0100
0000
0100
0000
0010
0000
0010
0000
,
0001
0001
1000
0100
1000
0010
0100
0010
,
0100
0000
0001
0000
0010
0100
0010
0100
0010
0100
0010
0100
1000
0001
1000
0001
,
1000
0010
0100
0001
2000
0000
0002
3003
1001
0000
0000
0000
0101
0000
0100
0000
,
0110
0000
1000
0100
0010
0100
0010
0100
,
1000
0010
0100
0010
1000
0001
0100
0010
,
0001
0010
0100
0001
0010
0100
0001
0100
,
0010
0000
0001
0000
1000
0000
0001
1000
0001
0000
0001
0000
0101
0000
0000
0000
,
0010
1000
0001
1000
0100
0100
0001
0001
,
1000
1000
0001
0100
1000
0001
1000
0010
,
0100
0010
1000
0100
0020
0000
1030
0020
,
0000
0031
0010
0100
0110
0000
1001
0001
,
0101
0000
0100
0010
1010
1000
1100
1000
,
1001
0001
0201
0000
0301
0010
0001
0010
,
0100
0010
0001
1000
0010
0100
1000
0100
,
0010
1000
0100
0000
0101
0101
0101
0000
,
1100
0100
1000
0001
0100
0100
0010
0010
,
1000
0000
1000
0000
0001
0000
0010
0000
0100
1000
0100
1000
0001
0010
0100
1000
,
0010
0100
0010
1000
0010
0100
0001
0010
0200
0000
0000
0000
0000
0000
0000
0000
,
0300
0000
2002
0000
,
0000
0003
0020
0000
,
0000
3000
0200
0000
,
0000
0030
0002
0300
,
2000
0003
3001
0001
,
0001
0001
0100
0100
,
0100
0100
0010
0010
,
0010
0100
0010
0000
1000
0000
1000
0000
,
1000
0000
1000
0000
1001
0010
0000
0010
,
0000
0010
1000
0010
1001
0100
0000
0100
,
0000
0100
0001
0100
0110
0001
0000
0001
,
0000
0001
0010
0001
0110
1000
0000
1000
,
0000
1000
0100
1000
1100
0001
0100
0000
,
0101
1000
0100
0000
0011
1000
0010
0000
,
1010
0001
0010
0000
0100
0100
1000
1000
,
0001
0000
0000
0000
0001
0000
0000
0000
0100
0000
0010
0000
1000
0000
0001
0000
1000
0000
0000
0000
0000
0000
0000
0000
0001
0010
0001
0010
0100
1000
0100
1000
,
0001
0010
1000
0010
0001
1000
0100
0001
,
0100
0000
1000
0000
0001
0000
0010
0000
0100
0000
1000
0000
0001
0100
0010
1000
,
0001
0010
1000
0001
0100
1000
0010
0001
,
1000
0100
0001
0010
0100
1000
0001
0000
,
0110
0110
0110
0001
1000
0010
0100
0001
,
0010
0001
1000
0010
0001
0010
0100
0010
,
1000
0000
0000
0000
1010
0000
0000
0000
1100
0000
0100
0000
0100
0000
0010
0100
1000
0000
0000
0000
0110
0000
0000
0000
0100
0000
1000
0000
0010
0100
0010
0100
,
0001
1000
0001
0010
0100
0010
0100
1000
,
0100
0010
0001
0100
0010
1000
0010
0001
,
0010
0100
0010
0100
1000
0100
0001
1000
,
0010
0001
1000
0100
0001
0010
0100
0010
,
0011
0000
1001
0000
1010
0100
0010
1000
,
0001
0000
0001
0000
0010
0000
0010
0000
0100
0000
0100
0000
1000
0000
0001
1000
,
0001
0000
0000
0000
0100
0000
0000
0000
0101
0000
0010
0000
1000
0000
0100
0010
0200
0000
0000
0000
1300
0000
0200
0000
0000
0000
0301
0100
0010
0000
0000
0000
,
0110
0000
1001
0001
0011
0000
0010
0100
,
1100
1000
1010
1000
1001
0001
0021
0000
,
0031
0100
0001
0100
0010
0100
0001
1000
,
0010
0000
0001
0000
1000
0000
0001
0000
0010
0000
1000
0000
0001
0000
0010
0100
,
0010
0001
0011
0000
1010
0010
1000
0001
,
0010
0100
0010
0001
0010
0100
1000
0001
,
1001
0000
0001
0100
0110
0000
1000
0100
,
0110
0000
0000
0000
0110
0000
0000
0000
0001
0000
1000
0000
0010
0100
0010
0100
,
0010
0000
1001
0001
0010
0100
0010
0100
,
0001
0100
0010
0001
1000
0100
0010
0001
,
1000
1000
0010
0010
0100
0100
1000
0100
,
0010
1000
0010
1000
0001
0010
MMMM
0000
,
1100
0001
1000
0010
0100
0001
0100
0001
,
1000
0000
0010
0000
0100
0000
0001
0000
0010
0100
0010
0000
0001
0000
1000
0000
,
0100
0010
0100
0010
0001
1000
0100
0010
0001
1000
0001
0100
0010
1000
0100
0010
,
0001
0010
0110
0000
0110
0100
0010
0000
,
1001
0000
0000
0000
;

//---------------dance-single - ----------------
#NOTES:
     dance-single:
     :
     Hard:
     15:
     0.764920,1.199637,0.454408,0.318085,0.284005,707.000000,647.000000,60.000000,42.000000,0.000000,0.000000,0.764920,1.199637,0.454408,0.318085,0.284005,707.000000,647.000000,60.000000,42.000000,0.000000,0.000000:
0000
0000
0000
0000
,
0000
0000
0000
0000
,
0000
0000
0000
0000
,
0000
0000
0000
0000
,
0000
0000
0000
0000
,
0000
0000
0000
0000
,
0000
0000
0000
0000
,
0110
1000
0110
0001
,
1001
0100
1001
0010
,
0110
0000
0000
0000
0110
0000
0000
0000
1001
0000
0010
0000
0100
1000
0100
1000
,
0001
0000
1010
0010
0100
0010
0001
0010
,
0001
0010
0100
0010
1000
0010
0100
0001
,
1000
0000
0001
0010
0100
0010
1000
0010
,
1000
0010
0100
0010
0001
0010
0100
1000
,
0001
1000
0001
1000
0001
0000
0100
0000
0010
0000
0100
0000
1000
0000
0100
0000
,
1000
0100
0010
0100
0001
0100
0010
0100
,
1000
0000
1100
0010
1000
0000
0011
0100
,
0001
0000
0000
0000
0100
0000
0001
0000
0100
0000
1000
0000
0001
0010
0100
1000
,
0001
2001
3100
1002
,
0103
0000
0021
0000
0100
0000
0031
0001
,
0010
0001
1000
0000
0010
0100
0010
1000
,
0010
0100
0001
0010
0100
0010
0001
0100
,
0010
0000
2010
0010
3010
0000
1002
0000
,
0013
0000
2100
0000
3010
0000
0100
0001
,
0010
0000
0000
0000
0100
1000
0100
1000
0001
0010
0001
0010
0001
0100
0001
0100
,
0010
1000
0100
0010
0002
0000
0023
0000
0230
0000
2300
0000
3002
0000
0000
0000
,
0013
0000
0000
0000
0110
0010
0000
0001
1000
0001
1000
0010
0100
0001
0100
0010
,
1000
0100
0020
0000
0130
0000
0100
0000
1001
0000
0001
0010
0001
0000
1000
0100
,
1000
0001
0100
0000
0010
1000
0001
0100
0000
0010
1000
0100
0010
0100
0010
0100
,
1000
0001
0010
0100
1000
0010
1000
0010
0100
0001
0100
0001
1000
0100
0010
0001
,
0010
0100
0010
0100
1000
0000
0000
0000
1001
0000
0001
0000
0100
0000
0001
0000
,
1000
0010
0100
0001
0100
0001
1000
0010
,
1000
0100
0010
0001
1000
0000
0000
0000
0001
0000
0100
0000
0001
0000
0100
0000
,
0001
0010
0100
1000
0001
0000
0000
0000
1000
0100
0010
0001
1000
0000
0001
0000
,
0100
0000
0110
0001
1000
0100
1000
0001
,
1000
0010
0100
0001
0010
0100
0010
0001
,
1000
0000
0010
0000
0100
0010
0100
0000
0001
0000
0010
0000
0100
0010
0100
0000
,
1000
0100
0010
0001
2000
0000
0002
3003
0101
0000
0000
0000
1001
0000
0100
0000
,
0020
0000
0130
1000
0001
0001
1000
0010
,
1000
0100
0020
0000
0031
0100
0010
0100
,
1000
0100
0010
0100
0001
1000
0010
0100
,
0010
0000
0001
0000
0010
0000
1000
0010
1000
0000
0001
0000
1001
0000
0000
0000
,
0001
0010
0001
0000
1000
0100
0010
0100
,
1000
0010
0100
0010
1000
0000
0110
0000
,
0001
0010
0100
0000
0002
0000
0103
2000
,
0000
3100
0020
0000
0031
0000
1001
0010
,
0200
0000
0310
0001
1000
1000
0001
0100
,
0001
0010
0200
0000
1300
0010
0100
0010
,
0001
0010
0100
0010
1000
0001
0100
0010
,
0100
1000
0200
0000
0310
0000
1001
0000
,
1000
0100
1000
0000
0001
0010
0100
0010
,
0001
0000
0100
0000
0010
0000
0100
0000
0001
0100
0001
0100
0001
0000
0010
0000
,
0100
1000
0100
1000
0100
0010
0001
0100
0020
0000
0000
0000
0000
0000
0000
0000
,
0030
0000
2020
0000
,
0000
0030
0200
0000
,
0000
3000
0020
0000
,
0000
0300
0002
0030
,
0200
0003
0002
0000
,
0000
0300
0020
0000
,
0000
0003
2000
0000
,
0000
0030
0002
0000
,
0000
3003
1001
1001
,
0100
0010
0100
0000
1001
0000
1001
0000
,
0010
0100
0010
0000
0110
0000
0110
0000
,
1000
0100
0001
0000
0110
0000
0110
0000
,
0001
0100
1000
0000
1100
0000
0001
0000
,
0101
0010
0011
1000
,
1010
0100
0110
1001
,
0110
0000
0001
0000
0010
0100
0010
0100
1000
0000
0000
0000
0002
0023
0230
2300
,
3010
0100
0010
1000
0001
0010
0100
0001
,
0100
0010
0100
1000
0001
0010
0100
1000
,
0100
0010
0100
1000
0001
0100
0010
0001
,
0010
0100
0010
1000
0001
0100
0010
0000
,
0011
0010
1010
0000
0100
0001
0100
0001
,
0010
0100
0010
0001
1000
0100
0010
0100
,
1000
0000
0001
0000
0110
0010
0010
1000
0001
0000
1100
0000
0100
1000
0100
0001
,
0100
0000
1000
0001
1001
0000
1000
0010
,
0001
1000
0001
1000
0100
0001
2000
0000
,
3100
0001
0100
0001
0100
1000
0100
0010
,
0100
1000
0001
0010
0100
1000
0001
0001
,
0001
0000
1001
0000
1000
0001
0010
0000
,
0100
1000
0100
1000
0010
0100
0001
1000
,
0001
0000
0010
0000
0110
0100
0010
0000
0002
0000
1003
0200
0000
0301
0200
0000
,
1300
0000
0001
0001
1001
0000
1000
0010
,
0100
0010
0100
0001
0010
0100
0020
0000
,
0130
1000
0100
1000
0001
0010
0100
1000
,
0010
0000
0100
0000
0010
0000
1000
0000
0100
0000
0010
0000
0001
0000
0010
0100
,
0010
0001
0011
0000
1000
0100
1000
0001
,
0010
0100
0001
0100
0010
0001
1000
0100
,
1100
0000
0001
0010
0011
0000
0100
0010
,
0110
0000
0000
0000
0110
0000
0000
0000
0100
0000
0001
0000
1000
0100
1000
0100
,
0010
0000
1001
0000
0001
0010
0001
0000
,
1000
0000
0100
0000
1000
0000
0001
0000
1000
0000
0010
0000
0100
0001
0100
0000
,
0001
0001
0010
0100
1000
1000
0100
0010
,
0001
1000
0001
0100
0010
1000
0001
0000
,
1001
1000
0100
0010
0100
1000
0001
1000
,
0010
0000
0100
0000
1000
0000
0100
0000
0010
0100
0010
0000
0100
0000
0001
0000
,
0010
0100
0010
0100
0010
0000
0001
0000
1000
0000
1000
0000
0010
0000
0010
0000
,
0110
0000
0110
0000
1000
0100
0010
0000
,
1001
0000
0000
0000
;

//---------------dance-single - ----------------
#NOTES:
     dance-single:
     :
     Medium:
     12:
     0.564764,0.937216,0.408967,0.302939,0.056801,522.000000,468.000000,54.000000,40.000000,0.000000,0.000000,0.564764,0.937216,0.408967,0.302939,0.056801,522.000000,468.000000,54.000000,40.000000,0.000000,0.000000:
0000
0000
0000
0000
,
0000
0000
0000
0000
,
0000
0000
0000
0000
,
0000
0000
0000
0000
,
0000
0000
0000
0000
,
0000
0000
0000
0000
,
0000
0000
0000
0000
,
1100
0000
1100
0000
,
0101
0000
0101
0000
,
0110
0000
0110
0000
1001
0010
0100
1000
,
0001
0000
0110
0000
0001
0000
1000
0100
,
0001
0000
0100
1000
0100
1000
0001
0010
,
0100
0000
0010
0000
1001
0000
0001
1000
,
0010
0000
0100
0001
0100
1000
0100
0000
,
1001
0000
0001
0010
0001
0000
1000
0100
,
1000
0000
0010
1000
0010
0000
0100
0001
,
0100
0110
0001
1001
,
0100
0000
1000
0100
0001
0100
1000
1000
,
0001
1002
0100
2003
,
0100
0000
3020
0000
0100
0000
1030
0010
,
1000
0100
1000
0000
0001
0010
0001
0100
,
0001
0000
1000
0000
1000
0000
0010
0100
,
0001
2001
0100
3002
,
0100
0000
0023
0000
0100
0000
0031
0010
,
0001
0000
1000
0100
0001
0000
0001
0100
,
1000
0000
1000
0100
0010
0001
2000
0000
,
3001
0000
1001
0000
0110
0010
1000
1000
,
0001
0100
0010
0000
1000
0000
1000
0000
0110
0000
0001
0100
0001
0000
1000
0100
,
0010
0000
0100
0000
1000
0100
1000
0100
0000
0010
0001
0000
1000
0100
1000
0000
,
0010
0000
0010
0000
0100
0001
0100
0000
0010
1000
0001
0000
0010
0100
1000
0000
,
0100
0010
0100
0010
0001
0000
0000
0000
1001
0000
0000
0000
0101
0000
0000
0000
,
0001
1000
0100
0000
1100
0000
0101
0000
,
0001
0010
1000
0000
1010
0000
0001
0010
,
0001
1000
0010
0000
1000
0001
0010
0000
,
0110
0000
1000
0100
1000
0010
0000
0100
,
0001
0000
1000
0100
0010
0000
0001
0100
,
0010
0000
0100
0001
0100
0001
1000
0100
,
0010
0000
0001
0000
2000
0000
0002
3003
0101
0000
0000
0000
0010
0000
1000
0000
,
0002
0000
0013
0100
0010
0001
0010
0001
,
1000
0000
0002
0000
0103
0010
0100
0000
,
0010
1000
0010
0000
1000
0100
1000
0100
,
0010
0001
0020
0000
0130
0000
1001
0000
,
0001
0100
0001
0000
0010
0000
0010
0000
,
0200
0000
1300
0001
1000
0000
0001
0000
,
0001
0100
0010
0000
0002
0000
0000
0023
,
0000
1030
1010
0100
,
1100
0000
0001
0000
0100
1000
0100
0000
,
0001
0000
2000
0000
3100
0010
0100
0000
,
0010
0001
0010
0000
0001
0100
0001
0100
,
0010
2000
3001
1001
,
0010
0100
0010
0000
1000
0000
1000
0000
,
0002
0000
0013
0100
2000
0000
3200
0000
,
0302
0023
2030
0000
,
3000
0000
2002
0000
,
0000
0000
0000
0000
,
0000
0000
0000
0000
,
0000
0000
0000
0000
,
3003
0000
0002
0000
,
0000
0000
2003
0000
,
0000
0000
3200
0000
,
0000
0000
0320
0000
,
0000
0030
0110
0001
,
0000
0001
0110
1000
,
0000
1000
1001
0010
,
0000
0010
1001
0100
,
0000
0100
1100
0000
,
1100
0000
0101
0000
,
0101
0000
0110
0110
,
1001
0010
0100
1000
0001
0000
0000
0000
,
0110
0000
0001
0000
1000
0100
1000
0000
,
0001
0010
0001
0010
0100
0000
0100
0000
,
1000
0000
1000
0000
0001
1000
0010
0000
,
0100
0010
0100
0010
1000
0000
0101
0000
,
1000
1000
1000
0000
0001
0100
0001
0000
,
0010
0100
0010
0000
0100
1000
0100
0000
,
1000
0000
1000
0000
1001
0000
0001
0000
0100
0000
0100
0000
0010
0100
0001
0000
,
0101
0000
0100
0001
2000
0000
3100
0010
,
0100
1000
0100
1000
0001
0000
2000
0000
,
3010
0100
0010
0000
0100
0001
0100
0000
,
0001
0010
0001
0010
0100
1000
0200
0000
,
0310
0000
1001
0000
1000
0010
1000
0000
,
0100
0000
0100
0000
0020
0000
0031
1000
,
0100
0000
0010
0000
0001
0100
0001
0000
0020
0000
0000
0230
0000
0000
1300
0000
,
1100
0010
0011
1000
,
0010
0001
0010
0000
1000
0000
0002
0000
,
0013
0100
0010
0000
0100
1000
0100
0000
,
1000
0010
1000
0010
0100
0000
0002
0000
,
1003
0000
1001
0000
0100
0010
0100
0000
,
0001
0000
0001
0000
2000
0000
3100
0010
,
0002
0013
2000
3100
,
0110
0000
0110
0000
0100
1000
0100
1000
,
0001
0000
1001
0000
0001
1000
0010
0000
,
1000
0001
0100
0010
1000
0000
1000
0000
,
0001
0010
0100
0000
1000
0100
0010
0000
,
0001
0010
0100
1000
0010
0100
0010
0000
,
0110
0000
0010
0000
1000
0100
0010
0000
,
0100
1000
0100
0010
0001
1000
0001
0000
,
1000
0010
0100
0001
1000
0010
0100
0001
,
0010
0000
0110
0000
0001
0100
1000
0000
,
1001
0000
0000
0000
;

//---------------dance-single - ----------------
#NOTES:
     dance-single:
     :
     Easy:
     8:
     0.404639,0.562330,0.446834,0.302939,0.003787,374.000000,315.000000,59.000000,40.000000,0.000000,0.000000,0.404639,0.562330,0.446834,0.302939,0.003787,374.000000,315.000000,59.000000,40.000000,0.000000,0.000000:
0000
0000
0000
0000
,
0000
0000
0000
0000
,
0000
0000
0000
0000
,
0000
0000
0000
0000
,
0000
0000
0000
0000
,
0000
0000
0000
0000
,
0000
0000
0000
0000
,
1000
0000
1100
0000
,
0001
0000
0101
0000
,
1100
0101
0011
1010
,
1001
0110
0001
0010
,
0001
0100
0010
1000
,
0010
0100
0100
0010
,
0010
0100
0001
1000
,
1001
0001
0001
1000
,
1000
0001
0010
0100
,
0010
0110
0000
1001
,
0000
0110
0110
0110
,
1000
0002
0003
2000
,
3000
0002
0003
1000
,
1000
0010
0100
0010
,
0100
0001
0010
0100
,
1000
2000
3000
0002
,
0003
2000
3000
0001
,
0001
0100
0010
0100
,
0010
1000
0100
0020
,
0030
0000
0110
0000
0001
0000
0010
0010
,
0010
0000
0100
0000
1000
0000
0001
0001
,
0001
0000
1001
0000
0110
0000
0100
0100
,
0100
0010
0001
1000
,
0002
0003
1000
1001
,
0000
0001
0001
0001
,
0000
1000
0010
0100
,
0001
0010
0100
1100
,
0000
0001
0100
0001
,
0100
0010
1000
0100
,
0010
0002
0023
0230
,
2300
0000
0002
3003
0110
0000
0001
0000
,
1001
0001
0010
0100
,
1000
0002
1003
1000
,
0001
0001
0010
0100
,
1000
0002
1003
1100
,
0001
0001
1000
1000
,
0010
0001
0010
1000
,
0001
0000
0010
0000
1000
0000
0000
0010
,
0000
0001
1001
0010
,
0110
0010
1000
0001
,
0100
0020
0130
0100
,
0010
0010
1000
0001
,
0100
0020
0130
1001
,
0010
0010
0001
0010
,
0100
1000
0002
0023
,
2030
3200
0302
0000
,
0003
0000
2002
0000
,
0000
0000
0000
0000
,
0000
0000
0000
0000
,
0000
0000
0000
0000
,
3003
0000
0002
0000
,
0000
0000
0023
0000
,
0000
0000
0230
0000
,
0000
0000
2300
0000
,
0000
3000
1100
0100
,
0000
0001
0101
0100
,
0000
1000
1010
0010
,
0000
0001
0011
0010
,
0000
1000
1010
0000
,
1001
0000
0011
0000
,
0110
0000
1100
0101
,
0011
1010
1001
0000
,
0110
0001
0010
0001
,
0100
0010
1000
0010
,
0100
0100
0010
0010
,
0100
0001
1000
1001
,
0001
0001
1000
1000
,
0001
0010
0100
0010
,
0001
0000
1001
0000
0010
0010
0010
0000
,
0110
1000
1001
1000
,
0100
0010
0001
2000
,
3001
0001
1000
1000
,
0100
0010
0001
2000
,
3001
0011
1000
1000
,
0001
0001
0100
1000
,
0100
0000
0000
0000
0110
0000
0000
0000
0001
0000
0000
0010
0000
0000
1000
0000
,
1001
0100
0110
0100
,
0001
1000
0010
0200
,
0310
0010
0100
0100
,
0001
1000
0010
0200
,
0310
1001
0100
0100
,
1000
0100
0010
0001
,
2200
3300
2002
3003
,
0110
0110
1001
0110
,
0010
0100
0110
0001
,
1000
0001
0100
0010
,
0100
0100
0001
1000
,
0010
0100
0001
1001
,
0001
1000
0100
0100
,
0010
0100
1000
0001
,
2000
3200
0302
0023
,
1030
1001
0010
0010
,
0110
0000
0000
0000
;

//---------------dance-single - 裏鬼 (Single)----------------
#NOTES:
     dance-single:
     :
     Edit:
     13:
     0.649154,1.049682,0.348379,0.249924,0.090882,600.000000,554.000000,46.000000,33.000000,40.000000,0.000000,0.649154,1.049682,0.348379,0.249924,0.090882,600.000000,554.000000,46.000000,33.000000,40.000000,0.000000:
// measure 0
0000
0000
0000
0000
,  // measure 1
0000
0000
0000
0000
,  // measure 2
0000
0000
0000
0000
,  // measure 3
0000
0000
0000
0000
,  // measure 4
0000
0000
0000
0000
,  // measure 5
0000
0000
0000
0000
,  // measure 6
0000
0000
0000
0000
,  // measure 7
0110
0001
0110
1000
,  // measure 8
1100
0010
0101
0010
,  // measure 9
1100
0000
0101
0000
0001
0010
1000
0100
,  // measure 10
0001
0000
1000
0100
0001
0100
0010
0100
,  // measure 11
0010
0100
0001
0100
0010
0100
1000
0100
,  // measure 12
0010
0000
0001
0100
1000
0100
0010
0100
,  // measure 13
0010
0100
1000
0100
0010
0100
0001
0100
,  // measure 14
MMMM
0000
1000
0100
0001
0100
1000
0001
,  // measure 15
1000
0001
1000
0100
0001
0100
1000
0001
,  // measure 16
1000
0201
0310
1200
,  // measure 17
0310
0000
0001
0100
0010
1000
0100
0010
,  // measure 18
MMMM
2001
3100
1002
,  // measure 19
0103
0000
2010
0000
3001
0000
0010
0010
,  // measure 20
0010
0100
0010
0000
0100
1000
0001
0010
,  // measure 21
0001
0100
0010
0100
0010
0100
0001
1000
,  // measure 22
0001
0000
2100
0100
0100
0000
3002
0000
,  // measure 23
0100
0000
0023
0000
0100
0000
0031
0010
,  // measure 24
0001
0000
1000
0100
0010
0001
1000
0100
,  // measure 25
0010
0001
1000
0010
0100
0010
0200
0300
,  // measure 26
MMMM
0000
0000
0000
0010
0010
0000
0001
0010
0001
0010
0000
0100
0000
0110
0000
,  // measure 27
1000
1000
1000
0000
0001
0000
1000
0000
0110
0000
0001
0100
0001
0000
1000
0100
,  // measure 28
1000
0100
0010
0000
1000
1000
0010
0001
0000
1000
0010
0001
1000
0100
0001
1000
,  // measure 29
0010
0001
0010
0000
1000
0000
1010
0000
0001
0001
0001
0000
0010
0100
0010
0001
,  // measure 30
0100
0010
0100
0010
MMMM
0000
0000
0000
0001
0000
0001
0000
1001
0000
0000
0000
,  // measure 31
1000
0001
0010
0100
0010
0100
0010
0001
,  // measure 32
1000
0010
0100
0000
0001
1000
0001
0001
,  // measure 33
0100
0010
1000
0000
0100
0010
0001
0010
,  // measure 34
0110
0000
1000
0100
1000
0010
0001
0010
,  // measure 35
0001
0010
1000
0100
1000
0010
0001
0010
,  // measure 36
1000
0100
0010
0001
0010
0001
1000
0100
,  // measure 37
0010
0000
0001
0000
0200
0000
0310
MMMM
0110
0000
0000
0000
1000
0000
1000
0000
,  // measure 38
0002
0000
0013
0100
1000
1000
0100
0100
,  // measure 39
0001
0001
0200
0000
1300
0010
0100
0001
,  // measure 40
1000
0010
0100
0001
1000
1000
0100
0100
,  // measure 41
0010
0010
0002
0000
0103
0000
1010
0000
,  // measure 42
0001
1000
0001
0000
0010
0100
0010
0100
,  // measure 43
1000
0001
1000
0010
0100
0000
0010
0000
,  // measure 44
1000
0100
0010
0000
0002
0000
0013
2000
,  // measure 45
0000
3010
0001
0000
MMMM
0000
0001
0001
,  // measure 46
1001
0000
1000
0010
0100
0001
0100
0001
,  // measure 47
1000
0100
0020
0000
0130
1000
0001
0010
,  // measure 48
0100
1000
0010
0100
0010
1000
0010
1000
,  // measure 49
0100
0010
0002
0000
0013
0000
1100
0000
,  // measure 50
0001
1000
0001
0000
0100
0010
0100
0010
,  // measure 51
1000
0001
1000
0100
0020
0000
0130
0000
,  // measure 52
0200
0310
2001
0000
,  // measure 53
3000
0000
1002
0000
,  // measure 54
0000
0000
0000
0000
,  // measure 55
0000
0000
0000
0000
,  // measure 56
0000
0000
0000
0000
,  // measure 57
0000
0000
0023
0000
,  // measure 58
0000
0000
0230
0000
,  // measure 59
0000
0000
2300
0000
,  // measure 60
0000
0000
3002
0000
,  // measure 61
0000
0003
1001
0100
,  // measure 62
0000
0010
0100
0000
1001
0000
0010
0000
,  // measure 63
0000
0100
0010
0000
0110
0000
1000
0000
,  // measure 64
0000
0001
1000
0000
0110
0000
0001
0000
,  // measure 65
0000
1000
0001
0000
0011
0000
0100
0000
,  // measure 66
0011
1000
1010
0100
,  // measure 67
1010
0001
0011
1010
,  // measure 68
0001
0100
1000
0010
0001
0000
MMMM
0000
,  // measure 69
0001
0010
0100
1000
0010
0100
0001
1000
,  // measure 70
0100
0010
0100
1000
0100
1000
0001
0000
,  // measure 71
0100
0010
1000
0100
0010
0001
0010
0001
,  // measure 72
0100
0010
0100
0010
1000
0001
MMMM
0000
,  // measure 73
0001
1000
0001
0001
1000
1000
0100
0010
,  // measure 74
0001
0001
1000
0001
0100
0010
1000
0001
,  // measure 75
1000
0000
0100
0000
1100
0001
0100
0000
0010
0000
0010
0000
1010
0000
0010
0100
,  // measure 76
0001
0010
0001
0010
0100
0000
0010
0001
,  // measure 77
1000
0010
0100
0010
1000
0001
2000
0000
,  // measure 78
3100
0010
0100
0010
0001
1000
0100
0010
,  // measure 79
0001
0100
0010
1000
0100
0010
0200
0000
,  // measure 80
1300
0000
1001
0000
0001
0100
0001
0000
,  // measure 81
1000
0100
1000
0100
0010
0001
0100
0010
,  // measure 82
1000
0000
1000
0000
0110
0000
0001
0000
0020
0000
1030
0020
0000
0031
0010
0000
,  // measure 83
MMMM
1000
1100
0001
,  // measure 84
1000
0010
0100
0010
1000
0000
0002
0000
,  // measure 85
0013
0100
0010
0000
0100
1000
0100
0000
,  // measure 86
1000
0001
1000
0001
0010
0100
2000
0000
,  // measure 87
3100
0000
0110
0000
0001
0010
0001
0000
,  // measure 88
1000
0100
1000
0010
0100
0001
0010
0100
,  // measure 89
0120
0031
0210
1300
,  // measure 90
1001
0000
1001
0000
0010
0100
0010
0100
,  // measure 91
0010
0000
0110
0000
0001
1000
0100
0000
,  // measure 92
1000
0010
1000
0010
0100
0001
1000
0000
,  // measure 93
0001
0010
0100
0000
1000
0001
0100
0000
,  // measure 94
0001
0010
0001
0010
0100
1000
MMMM
0000
,  // measure 95
1000
0010
0100
0010
0100
0001
0010
0100
,  // measure 96
1000
0001
1000
0001
1000
0010
0100
0010
,  // measure 97
1000
0100
0010
0001
0100
0010
1000
0100
,  // measure 98
0010
0000
0110
0000
1000
1000
0001
0000
,  // measure 99
0110
0000
0000
0000
;
