#TITLE:Kingslayer ft. BABYMETAL;
#SUBTITLE:;
#ARTIST:Bring Me The Horizon;
#TITLETRANSLIT:;
#SUBTITLETRANSLIT:;
#ARTISTTRANSLIT:;
#GENRE:Popular Songs;
#CREDIT:;
#BANNER:Kingslayer ft. BABYMETAL.png;
#BACKGROUND:Kingslayer ft. BABYMETAL-bg.png;
#LYRICSPATH:;
#CDTITLE:../cdtitle.png;
#MUSIC:Kingslayer ft. BABYMETAL.ogg;
#OFFSET:1.126000;
#SAMPLESTART:56.604000;
#SAMPLELENGTH:15.000000;
#LASTBEATHINT:0.388500;
#SELECTABLE:YES;
#BPMS:0.000000=185.000000
,308.000000=92.500000
,323.000000=46.250000
,324.000000=92.500000
;
#STOPS:
;
#BGCHANGES:3.500=Kingslayer ft. BABYMETAL.avi=1.000=0=0=0=StretchNoLoop====,
99999=-nosongbg-=1.000=0=0=0 // don't automatically add -songbackground-
;
#KEYSOUNDS:;
#ATTACKS:;

//---------------dance-single - ----------------
#NOTES:
     dance-single:
     :
     Hard:
     14:
     0.643688,1.023908,0.262051,0.262051,0.323924,619.000000,583.000000,36.000000,36.000000,0.000000,0.000000,0.643688,1.023908,0.262051,0.262051,0.323924,619.000000,583.000000,36.000000,36.000000,0.000000,0.000000:
0000
0000
0000
0000
,
0000
0000
0000
0000
,
0000
0000
0000
0000
,
0000
0000
0000
0000
,
0000
0000
0000
0000
,
0012
0000
1003
0100
0010
0001
0010
0001
,
1000
0100
0010
0001
0100
0010
1000
0001
,
0100
0000
0001
0010
0100
1000
0100
1000
,
0001
0010
0100
1000
0001
0100
0010
0000
,
0110
0000
1000
0001
0100
0010
0100
0010
,
1000
0001
0100
0010
1000
0100
0001
0100
,
0010
0000
0100
1000
0001
0100
0001
0100
,
0010
1000
0100
0010
0100
0000
0010
0000
,
1100
0000
0001
0010
0100
1000
0100
1000
,
0001
0010
0100
1000
0010
0100
0001
1000
,
0010
0000
1000
0100
0010
0001
0010
0001
,
1000
0100
0010
0001
1000
0010
0100
0000
,
0110
0000
0001
1000
0010
0100
0010
0100
,
0001
1000
0010
0100
0001
0010
1000
0010
,
0100
0000
0010
0001
1000
0010
1000
0010
,
0100
0010
0100
0000
0001
0000
1000
0100
1000
0000
0100
0000
0010
0000
0000
0000
,
0011
0000
0100
1000
0000
1000
0100
0000
,
1000
1000
0001
0000
0100
0000
0001
0000
,
1001
0000
0001
0100
0000
0100
0001
0000
,
0100
0100
0010
0000
1000
0000
0001
0000
,
0101
0000
0010
0100
0000
0001
0010
0000
,
0100
1000
0100
0000
0010
0000
0001
0000
,
0100
0000
0010
0100
0010
0000
1000
0000
,
1001
0101
1010
0110
,
1100
0000
0010
0001
0000
0001
0010
0000
,
0001
0001
1000
0000
0010
0000
1000
0000
,
1001
0000
1000
0010
0000
0010
1000
0000
,
0010
0010
0100
0000
0001
0000
1000
0000
,
1010
0000
0100
0010
0000
1000
0100
0000
,
0010
0001
0010
0000
0100
0000
1000
0000
,
0010
0000
0100
0010
0100
0000
0001
0000
,
1001
1010
0101
0110
,
1000
0000
0100
0000
0010
0000
0001
0100
0001
0000
0100
0000
0010
0000
0000
0000
,
1000
0000
0010
0000
0100
0000
0001
0010
0001
0000
0010
0000
0100
0000
0000
0000
,
1000
0100
0010
0100
0010
0001
0100
0010
,
0100
0000
0001
0000
0100
0000
0001
1000
0001
0000
0100
0000
0010
0000
0000
0000
,
1000
0100
1000
0001
1000
0100
0010
0001
,
1000
0000
0001
0000
0010
0000
0100
1000
0100
0000
1000
0000
0001
0000
0000
0000
,
0100
0100
1000
0010
0010
0001
0010
0100
,
1000
0001
1000
0001
0100
0010
1000
0000
,
1002
0100
1000
0100
,
1003
0000
0100
0000
0010
0001
0100
0000
,
0010
0000
1000
0000
1001
0000
1000
0100
,
0010
0001
0010
0001
1000
0100
0010
0001
,
2000
0100
0001
0100
,
3001
0000
0100
0000
0010
1000
0001
0000
,
0100
0000
0110
0000
1000
0100
0010
0100
,
1000
0000
0100
0000
1000
0000
0000
0000
0001
0000
0100
0000
0001
0100
0001
0100
,
0020
0000
1030
0100
0010
0100
0001
1000
,
0010
0100
0010
0001
0100
0010
1000
0000
,
0100
0010
0100
0010
1000
0010
0100
0010
,
0001
0001
0100
0010
1000
0100
0010
0000
,
0120
1000
0100
1000
,
0130
0000
1000
0000
0001
0100
0010
0000
,
1000
1000
0100
0000
0010
0010
0001
0000
,
1000
0100
1000
0100
0010
0001
0010
0001
,
2001
0000
3100
1000
0001
0100
0010
1000
,
0002
0000
0103
0001
1000
0100
0001
0100
,
2000
0000
3001
0010
0100
1000
0001
0100
,
0002
0000
1003
0010
0001
0010
1000
0100
,
0120
0000
0031
0010
0100
0001
0100
0010
,
0002
0000
0103
0010
0001
0010
0100
0001
,
0010
0001
0010
0000
0001
0010
0001
0000
1000
0100
1000
0000
0100
1000
0100
0000
,
0010
0100
0010
0001
1000
0010
1000
0010
0100
0001
0010
0100
,
2000
0000
0000
0000
,
0000
0000
0000
0000
,
0000
0000
0000
0000
,
0000
0000
0000
0000
,
3200
0000
0000
0000
,
0000
0000
0000
0000
,
0020
0000
0000
0330
,
1100
0101
2200
3300
,
1002
0000
0103
0010
1000
0001
0100
0002
0000
0103
0010
0100
0000
0100
0010
2000
,
0000
3001
0100
0000
1100
0100
0010
0002
0000
0013
0100
0020
0000
0031
0100
0000
,
0110
0000
1000
0100
0010
0100
1000
0002
0000
0013
0100
0010
0000
0010
1000
0020
,
0000
0031
1000
0000
0001
0100
0010
2000
0000
3100
0010
0000
0200
0000
0000
0300
,
0110
0000
0001
0100
0010
1000
0010
1000
0001
0010
0001
0010
0100
1000
0020
0000
,
0130
0000
0100
0010
1000
0001
1000
0001
0100
0010
1000
0001
0010
0010
0010
0000
,
1100
0000
1000
0010
0100
0001
0100
0001
1000
0100
1000
0100
0010
0001
0200
0000
,
0310
0000
0010
0100
0001
1000
0001
1000
0100
0010
0001
0000
0220
0000
0330
0000
,
1001
0000
0000
0000
0000
0000
0000
0000
0200
0000
0000
0000
0300
0000
0000
0000
1000
0000
0000
1000
0000
0000
0001
0000
0100
0000
0000
0000
0010
0000
0000
0000
,
0220
0000
0330
0000
1000
0000
1000
0000
0001
0100
0001
0100
0010
0000
1000
0000
,
2200
0000
3300
0000
0010
0000
0010
0000
0001
0100
0001
0000
0010
0000
0100
0000
,
1000
0000
0100
0000
1000
0000
0100
0000
0000
1000
0000
0000
0001
0000
0010
0000
0001
0000
0010
0000
0000
0001
0000
0000
0100
0000
0000
0010
0000
0000
0100
0000
0000
0000
0000
0000
0100
0000
0000
0020
0000
0000
0000
0000
0000
0000
0000
0000
,
0130
0000
0100
0001
0000
0001
0000
0100
0000
0001
0000
1000
0100
0000
0020
0000
,
0130
0000
0100
1000
0000
1000
0000
0100
0000
1000
0000
0001
0100
0000
0000
0000
;

//---------------dance-single - ----------------
#NOTES:
     dance-single:
     :
     Medium:
     12:
     0.492905,0.693615,0.232934,0.181980,0.163782,474.000000,442.000000,32.000000,25.000000,0.000000,0.000000,0.492905,0.693615,0.232934,0.181980,0.163782,474.000000,442.000000,32.000000,25.000000,0.000000,0.000000:
0000
0000
0000
0000
,
0000
0000
0000
0000
,
0000
0000
0000
0000
,
0000
0000
0000
0000
,
0000
0000
0000
0000
,
1100
0000
0001
0100
0010
1000
0000
0001
,
0000
0100
0000
0100
0010
1000
0001
0000
,
0100
0000
0001
0010
0100
1000
0000
0100
,
0000
0100
0000
0001
0100
1000
0100
0000
,
0011
0000
1000
0010
0100
0001
0000
1000
,
0000
0010
0000
0010
0100
0001
1000
0000
,
0010
0000
1000
0100
0010
0001
0000
0010
,
0000
0010
0000
1000
0010
0000
0001
0000
,
1010
0000
0001
0010
0100
1000
0000
0001
,
0000
0010
0000
0010
0100
1000
0001
0000
,
0010
0000
0001
0100
0010
1000
0000
0010
,
0000
0010
0000
0001
0010
1000
0010
0000
,
0101
0000
1000
0100
0010
0001
0000
1000
,
0000
0100
0000
0100
0010
0001
1000
0000
,
0100
0000
1000
0010
0100
0001
0000
0100
,
0010
0100
0010
1000
0100
1000
0001
0000
,
0101
0000
0010
1000
0000
0010
1000
0000
,
0001
0010
0001
0000
1000
0000
0100
0000
,
1001
0000
1000
0010
0000
1000
0010
0000
,
0100
0010
0100
0000
0001
0000
0010
0000
,
0110
0000
1000
0001
0000
1000
0001
0000
,
0010
0100
0010
0000
1000
0000
0010
0000
,
0001
0000
1000
0100
1000
0000
0010
0000
,
0100
0100
0010
0100
,
0011
0000
0100
1000
0000
0100
1000
0000
,
0001
0100
0001
0000
1000
0000
0010
0000
,
1001
0000
1000
0100
0000
1000
0100
0000
,
0010
0100
0010
0000
0001
0000
0100
0000
,
0110
0000
1000
0001
0000
1000
0001
0000
,
0100
0010
0100
0000
1000
0000
0100
0000
,
0001
0000
1000
0010
1000
0000
0100
0000
,
0010
0010
0100
0010
,
1001
0000
0001
0010
0100
1000
0100
0000
,
1001
0000
1000
0010
0100
0001
0100
0000
,
0010
0000
0100
1000
0100
0001
0100
0000
,
0110
0000
0010
0001
0010
1000
0010
0000
,
1000
0000
1000
0100
1000
0100
0010
0001
,
1000
0010
1000
0010
0100
0001
1000
0000
,
0100
0000
0001
0100
0000
0010
0100
0000
,
1000
0100
0000
1000
0010
0000
0100
0000
,
0210
1000
0000
1000
,
0000
0310
0000
0010
,
1000
0000
0010
0000
0110
0000
1000
0001
,
0010
0100
0010
0000
0100
1000
0100
0000
,
0120
1000
0000
1000
,
0000
0130
0000
0100
,
1000
1000
0100
1000
,
0001
0100
0001
0000
0100
0010
0100
0000
,
1001
0000
0010
0100
0000
1000
0000
0100
,
0000
0010
0000
0001
0000
0010
0100
0000
,
1000
0000
0100
0000
0110
0000
1000
0100
,
0010
0001
0010
0000
0100
1000
0100
0000
,
2001
0010
0000
0010
,
3000
0100
0010
0001
,
1000
0010
1000
0000
0001
0100
0001
0000
,
1000
0100
0010
0001
1000
0010
0100
0001
,
2000
0000
3100
0000
0001
0100
1000
0000
,
0002
0000
0013
0000
1000
0010
0001
0000
,
2000
0000
3010
0000
0001
0010
1000
0000
,
0002
0000
0103
0000
1000
0100
0001
0000
,
2000
0000
3010
0000
1000
0100
0010
0000
,
0002
0000
0013
0000
0001
0100
0010
0000
,
1000
1100
0100
0101
,
1000
0100
1000
0000
0001
0100
0001
0000
,
0020
0000
0000
0000
,
0000
0000
0000
0000
,
0000
0000
0000
0000
,
0000
0000
0000
0000
,
2030
0000
0000
0000
,
0000
0000
0000
0000
,
0002
0000
0000
3003
,
0110
0101
1100
0000
,
0110
0000
0100
0000
0001
0000
0100
2000
0000
3100
0000
0001
0000
0100
0000
2000
,
0000
3100
0010
0000
0001
0000
1000
0100
0000
0100
1000
0000
0010
0000
0100
0000
,
0110
0000
0001
0000
0010
0000
1000
0020
0000
0031
0000
0010
0000
1000
0000
0020
,
0000
0031
0010
0000
0100
0000
1000
0001
0000
0001
0100
0000
0020
0000
0000
0030
,
1001
0000
1000
0100
0000
0010
0000
0100
0000
1000
0000
0100
0010
0000
0001
0000
,
1000
0000
0010
0100
0000
0010
0000
1000
0000
0010
0000
0100
0010
0000
1000
0000
,
1001
0000
0001
0010
0000
0100
0000
0010
0000
0001
0000
0010
0100
0000
1000
0000
,
0001
0000
0100
0010
0000
0100
0000
0001
0000
0100
0010
0000
0220
0000
0330
0000
,
1001
0000
0200
0300
1000
0100
1000
0100
,
0202
0303
1000
0000
0010
1000
0010
1000
,
0220
0330
1000
0000
0001
0010
0001
0010
,
0100
0100
1000
1000
0100
0010
0200
0300
,
0100
0000
0000
1000
0000
1000
0000
0100
0000
1000
0000
0100
0010
0000
0001
0000
,
0100
0000
0000
0001
0000
0001
0000
0100
0000
0001
0000
0010
0100
0000
0000
0000
;

//---------------dance-single - ----------------
#NOTES:
     dance-single:
     :
     Easy:
     8:
     0.356680,0.561498,0.211096,0.123746,0.000000,343.000000,314.000000,29.000000,17.000000,0.000000,0.000000,0.356680,0.561498,0.211096,0.123746,0.000000,343.000000,314.000000,29.000000,17.000000,0.000000,0.000000:
0000
0000
0000
0000
,
0000
0000
0000
0000
,
0000
0000
0000
0000
,
0000
0000
0000
0000
,
0000
0000
0000
0000
,
1001
0100
0001
0100
,
0001
1000
0010
0100
,
0001
0010
0001
0010
,
1000
0010
0001
0100
,
0110
1000
0100
1000
,
0001
1000
0100
1000
,
1001
0010
1000
0100
,
1000
0010
0100
0000
,
1001
0010
1000
0010
,
1000
0001
0100
0010
,
1000
0100
1000
0100
,
0001
0100
1000
0010
,
0110
0001
0010
0001
,
1000
0001
0010
0001
,
1001
0100
0001
0010
,
0002
0000
0100
0103
,
0110
0000
0000
0010
0000
0000
0010
0000
,
0100
0100
1000
0100
,
0110
0000
0000
0010
0000
0000
0010
0000
,
0001
0001
0010
0010
,
1010
0000
0000
1000
0000
0000
1000
0000
,
0001
0100
0001
0000
,
1000
0100
1000
0000
,
0100
0100
0010
0100
,
0110
0000
0000
0010
0000
0000
0010
0000
,
0100
0100
0001
0100
,
0110
0000
0000
0010
0000
0000
0010
0000
,
1000
1000
0010
0010
,
0011
0000
0000
0001
0000
0000
0001
0000
,
1000
0100
1000
0000
,
0001
0100
0001
0000
,
0100
0100
0010
0100
,
1001
0100
1000
0010
,
1001
0100
0001
0010
,
0100
0100
0010
0010
,
0100
1000
0010
0000
,
1000
0100
1000
0100
,
0001
0100
0001
0100
,
1000
0000
0000
1000
0000
0000
0001
0000
,
0000
0001
0000
0000
0100
0000
0010
0000
,
1002
0100
0000
0100
,
0000
1000
0000
0103
,
0001
1000
0100
1000
,
0001
0010
0100
1000
,
2001
0010
0000
0010
,
0000
0001
0000
3010
,
1000
0001
0010
0001
,
1000
0100
0010
0001
,
1000
0100
1000
1000
,
0100
0010
0001
0000
,
0001
0010
0001
0001
,
0100
0010
1000
0001
,
2000
0100
0000
0100
,
0000
0001
0000
3100
,
1000
1000
0001
0001
,
1000
0001
0100
0010
,
2010
0000
3001
0010
,
0200
0000
0301
0100
,
0020
0000
0031
0100
,
0020
0000
0031
0010
,
2010
0000
3001
0010
,
0200
0000
0301
0100
,
0010
0010
0100
0100
,
0010
0100
1000
0001
,
2002
0000
0000
0000
,
0000
0000
0000
0000
,
0000
0000
0000
0000
,
0000
0000
0000
3003
,
0200
0000
0000
0000
,
0000
0000
0000
0000
,
0020
0000
0000
0330
,
0110
1001
0110
0000
,
1001
0001
0100
0000
0010
1000
0010
0000
,
1000
0100
1000
0010
1000
0100
0010
0000
,
0110
0000
0010
0000
1000
1000
1000
0000
,
0010
0000
0001
0000
0010
0000
0000
0000
0100
0000
1000
0000
0020
0000
0000
0030
,
0110
0000
0001
0100
0010
0100
0001
0010
,
0100
0000
0100
0001
0100
1000
0100
0010
,
0110
0000
1000
0010
0100
0010
1000
0100
,
0010
0000
0010
1000
0010
0001
2000
3000
,
1001
0000
0020
0000
0031
0010
0001
0000
,
0110
0000
1000
0000
0010
1000
0010
0000
,
1001
0000
0100
0000
1000
0100
1000
0000
,
0100
0100
0001
0001
0100
0010
0100
0000
,
1000
0000
1000
0000
1000
0001
0100
0000
,
0001
0000
0001
0000
0001
1000
0100
0000
;

//---------------dance-single - ----------------
#NOTES:
     dance-single:
     :
     Beginner:
     4:
     0.153903,0.259139,0.072792,0.043675,0.000000,148.000000,138.000000,10.000000,6.000000,0.000000,0.000000,0.153903,0.259139,0.072792,0.043675,0.000000,148.000000,138.000000,10.000000,6.000000,0.000000,0.000000:
0000
0000
0000
0000
,
0000
0000
0000
0000
,
0000
0000
0000
0000
,
0000
0000
0000
0000
,
0000
0000
0000
0000
,
1001
0000
0100
0000
,
0100
0000
0100
0000
,
0001
0000
0100
0000
,
0100
0000
0010
0000
,
0110
0000
1000
0000
,
1000
0000
1000
0000
,
0100
0000
1000
0000
,
1000
0000
0001
0000
,
1001
0000
0010
0000
,
0010
0000
0010
0000
,
1000
0000
0010
0000
,
0010
0000
0100
0000
,
0110
0000
0001
0000
,
0001
0000
0001
0000
,
0010
0000
0001
0000
,
0002
0000
0003
0000
,
0010
0000
0000
0000
,
0100
0000
0000
0000
,
0010
0000
0000
0000
,
0100
0000
0000
0000
,
1000
0000
0000
0000
,
0100
0000
0000
0000
,
1000
0000
0000
0000
,
0010
0010
0010
0000
,
0010
0000
0000
0000
,
0100
0000
0000
0000
,
0010
0000
0000
0000
,
0100
0000
0000
0000
,
0001
0000
0000
0000
,
0100
0000
0000
0000
,
0001
0000
0000
0000
,
0010
0010
0010
0000
,
0010
0000
0010
0000
,
0100
0000
0100
0000
,
1000
0000
1000
0000
,
0010
0000
0000
0000
,
0100
0000
0100
0000
,
0010
0000
0010
0000
,
1000
0000
1000
0000
,
0002
0000
0003
0000
,
2000
0000
0000
0000
,
3000
0000
1000
0000
,
0001
0000
0100
0000
,
0010
0000
1000
0000
,
0002
0000
0000
0000
,
0003
0000
0001
0000
,
1000
0000
0010
0000
,
0100
0000
0001
0000
,
1000
0000
0100
0000
,
1000
0000
0100
0000
,
0010
0000
0001
0000
,
0010
0000
0000
0000
,
0002
0000
0000
0000
,
0003
0000
0001
0000
,
0100
0000
0010
0000
,
1000
1000
1000
0000
,
0001
0000
0001
0000
,
1000
0000
0100
0000
,
1000
0000
1000
0000
,
0001
0000
0010
0000
,
1000
0000
1000
0000
,
0001
0000
0100
0000
,
1000
1000
1000
0000
,
0001
0000
1000
0000
,
1001
0000
0000
0000
,
0000
0000
0000
0000
,
0000
0000
0000
0000
,
0000
0000
0000
0000
,
0000
0000
0000
0000
,
0000
0000
0000
0000
,
0000
0000
0000
0000
,
0100
0100
0100
0000
,
0110
0000
0100
0000
,
0001
0000
1000
0000
,
0010
0000
0001
0000
,
1000
0000
0100
0000
,
1001
0000
0001
0000
,
0010
0000
1000
0000
,
0001
0000
1000
0000
,
0010
0000
0001
0000
,
0110
0000
0010
0000
,
0110
0000
0100
0000
,
1001
0000
0001
0000
,
1000
1000
0001
0002
,
0003
0000
0000
0000
;

//---------------dance-double - ----------------
#NOTES:
     dance-double:
     :
     Hard:
     14:
     0.626010,1.023908,0.254772,0.254772,0.309365,602.000000,567.000000,35.000000,35.000000,0.000000,0.000000,0.626010,1.023908,0.254772,0.254772,0.309365,602.000000,567.000000,35.000000,35.000000,0.000000,0.000000:
// measure 0
00000000
00000000
00000000
00000000
,  // measure 1
00000000
00000000
00000000
00000000
,  // measure 2
00000000
00000000
00000000
00000000
,  // measure 3
00000000
00000000
00000000
00000000
,  // measure 4
00000000
00000000
00000000
00000000
,  // measure 5
00001100
00000000
00001000
00000001
00000100
00000010
00000100
00000010
,  // measure 6
00001000
00000100
00000010
00000001
00001000
00000100
00010000
00001000
,  // measure 7
00010000
00000000
00001000
00100000
00010000
10000000
00100000
10000000
,  // measure 8
00100000
01000000
00100000
10000000
01000000
00100000
00010000
00000000
,  // measure 9
00011000
00000000
00100000
00001000
00010000
00001000
00010000
00000010
,  // measure 10
00001000
00000010
00000100
00000001
00000100
00000010
00001000
00000100
,  // measure 11
00000010
00000000
00000100
00010000
00001000
00010000
00001000
00100000
,  // measure 12
00010000
00100000
10000000
00100000
00010000
00000000
00100000
00000000
,  // measure 13
00110000
00000000
00010000
10000000
00100000
01000000
00100000
01000000
,  // measure 14
00010000
00100000
01000000
10000000
00010000
00100000
00001000
00010000
,  // measure 15
00001000
00000000
00010000
00000100
00001000
00000001
00000100
00000001
,  // measure 16
00000100
00000010
00000100
00000001
00000010
00000100
00001000
00000000
,  // measure 17
00011000
00000000
00000100
00010000
00001000
00010000
00001000
01000000
,  // measure 18
00010000
01000000
00100000
10000000
00100000
01000000
00010000
00100000
,  // measure 19
01000000
00000000
00100000
00001000
00010000
00001000
00010000
00000100
,  // measure 20
00001000
00001000
00010000
00001000
00001000
00000010
00001000
00000000
,  // measure 21
00000110
00000000
00000001
00000100
00000000
00000001
00000100
00000000
,  // measure 22
00000010
00000100
00000010
00000000
00001000
00000000
00000010
00000000
,  // measure 23
00000110
00000000
00000010
00001000
00000000
00000010
00001000
00000000
,  // measure 24
00000100
00010000
00000100
00000000
00010000
00000000
00001000
00000000
,  // measure 25
00011000
00000000
00001000
00010000
00000000
00001000
00010000
00000000
,  // measure 26
00001000
01000000
00010000
00000000
10000000
00000000
01000000
00000000
,  // measure 27
00010000
00000000
01000000
10000000
01000000
00000000
10000000
00000000
,  // measure 28
01010000
01010000
10100000
00110000
,  // measure 29
01100000
00000000
10000000
01000000
00000000
10000000
01000000
00000000
,  // measure 30
00100000
01000000
00100000
00000000
00010000
00000000
00100000
00000000
,  // measure 31
01100000
00000000
00100000
00010000
00000000
00100000
00010000
00000000
,  // measure 32
01000000
00001000
01000000
00000000
00001000
00000000
00010000
00000000
,  // measure 33
00011000
00000000
00010000
00001000
00000000
00010000
00001000
00000000
,  // measure 34
00010000
00000100
00001000
00000000
00000001
00000000
00000100
00000000
,  // measure 35
00001000
00000000
00000100
00000001
00000100
00000000
00000001
00000000
,  // measure 36
00001100
00001100
00000011
00001001
,  // measure 37
00001000
00000000
00000001
00000000
00000100
00000000
00000010
00000100
00000010
00000000
00001000
00000000
00000001
00000000
00000000
00000000
,  // measure 38
00000010
00000000
00000100
00000000
00001000
00000000
00000100
00000010
00000100
00000000
00000010
00000000
00000001
00000000
00000000
00000000
,  // measure 39
00001000
00000100
00010000
00001000
00010000
00001000
00100000
00010000
,  // measure 40
01000000
00000000
00100000
00000000
01000000
00000000
00100000
01000000
00100000
00000000
10000000
00000000
00010000
00000000
00000000
00000000
,  // measure 41
00100000
01000000
10000000
00010000
10000000
00100000
10000000
00010000
,  // measure 42
10000000
00000000
01000000
00000000
00010000
00000000
00001000
00010000
00001000
00000000
01000000
00000000
00001000
00000000
00000000
00000000
,  // measure 43
00010000
00010000
01000000
00010000
00010000
00001000
00010000
00010000
,  // measure 44
00000100
00010000
00010000
00001000
00000100
00000001
00000100
00000000
,  // measure 45
00000020
00001000
00000000
00001000
,  // measure 46
00000000
00000001
00000000
00000031
,  // measure 47
00000010
00000000
00000010
00000000
00001001
00000000
00000001
00000010
,  // measure 48
00001000
00010000
00001000
00010000
01000000
10000000
01000000
00000000
,  // measure 49
00200000
00010000
00000000
00010000
,  // measure 50
00000000
10000000
00000000
10300000
,  // measure 51
00100000
00000000
00100000
00000000
00010000
00100000
00010000
00000000
,  // measure 52
10000000
00000000
00100000
00000000
00010000
00000000
00000000
00000000
00001000
00000000
00010000
00000000
00001000
00010000
00001000
00010000
,  // measure 53
00002000
00000000
00103000
00001000
00010000
00001000
01000000
00001000
,  // measure 54
00010000
00000010
00010000
00001000
00100000
00010000
10000000
00000000
,  // measure 55
01000000
00100000
01000000
00100000
00010000
01000000
00100000
10000000
,  // measure 56
00100000
00010000
00100000
00010000
00001000
00010000
00001000
00000000
,  // measure 57
00200000
01000000
00000000
01000000
,  // measure 58
00300000
00010000
10000000
00100000
,  // measure 59
10000000
10000000
01000000
00000000
00100000
00100000
00010000
00000000
,  // measure 60
00001000
00000100
00001000
00000100
00000010
00000001
00000010
00000001
,  // measure 61
00002001
00000000
00003100
00001000
00000010
00000100
00000001
00000100
,  // measure 62
00000020
00000000
00001030
00000001
00000010
00000100
00001000
00000100
,  // measure 63
00000020
00000000
00000031
00000100
00001000
00000100
00001000
00010000
,  // measure 64
00002000
00000000
01003000
00010000
10000000
01000000
10000000
01000000
,  // measure 65
01200000
00000000
00310000
00100000
01000000
10000000
01000000
00010000
,  // measure 66
00002000
00000000
00013000
00001000
00000100
00000001
00000100
00001000
,  // measure 67
01000000
00001000
01000000
00000000
00001000
00010000
00001000
00000000
00010000
00001000
00010000
00000000
00000100
00001000
00000100
00000000
,  // measure 68
00010000
00001000
00010000
00001000
00100000
00010000
10000000
01000000
00100000
00010000
01000000
00100000
,  // measure 69
20000000
00000000
00000000
00000000
,  // measure 70
00000000
00000000
00000000
00000000
,  // measure 71
00000000
00000000
00000000
00000000
,  // measure 72
00000000
00000000
00000000
00000000
,  // measure 73
30020000
00000000
00000000
00000000
,  // measure 74
00000000
00000000
00000000
00000000
,  // measure 75
00002000
00000000
00000000
00033000
,  // measure 76
00011000
00001001
00022000
00033000
,  // measure 77
00012000
00000000
00103000
00010000
10000000
01000000
00010000
02000000
00000000
13000000
00010000
01000000
00000000
00001000
00010000
00002000
,  // measure 78
00000000
00013000
00000100
00000000
00011000
00010000
00001000
00000200
00000000
00000301
00000010
00001000
00000010
00000001
00001000
00000000
,  // measure 79
00001001
00000000
00000001
00001000
00000010
00000100
00000001
00002000
00000000
00003100
00000010
00000100
00000000
00010000
00000100
00020000
,  // measure 80
00000000
00031000
00010000
00000000
00011000
00001000
00010000
02000000
00000000
13000000
00100000
00000000
02200000
00000000
00000000
03300000
,  // measure 81
10010000
00000000
00010000
00100000
01000000
10000000
01000000
10000000
00010000
00100000
01000000
10000000
01000000
00100000
00020000
00000000
,  // measure 82
01030000
00000000
01000000
00100000
00010000
00001000
00010000
00001000
00000010
00000001
00000010
00000001
00000100
00001000
00000100
00000000
,  // measure 83
00000110
00000000
00000001
00000010
00000100
00001000
00000100
00001000
00000001
00000010
00000100
00001000
00000100
00000010
00000002
00000000
,  // measure 84
00000103
00000000
00000100
00000010
00010000
00001000
00010000
00001000
01000000
00010000
00100000
00000000
02200000
00000000
03300000
00000000
,  // measure 85
11000000
00000000
00000000
00000000
00000000
00000000
00000000
00000000
02000000
00000000
00000000
00000000
03000000
00000000
00000000
00000000
00100000
00000000
00000000
00100000
00000000
00000000
00010000
00000000
01000000
00000000
00000000
00000000
00100000
00000000
00000000
00000000
,  // measure 86
20200000
00000000
30300000
00000000
00100000
00000000
00100000
00000000
01000000
00001000
01000000
00001000
00010000
00000000
00001000
00000000
,  // measure 87
00022000
00000000
00033000
00000000
00010000
00000000
00010000
00000000
00000100
00001000
00000100
00000000
00001000
00000000
00000010
00000000
,  // measure 88
00000100
00000000
00000001
00000000
00000100
00000000
00000001
00000000
00000000
00000000
00000000
00000000
00001000
00000000
00000100
00000000
00001000
00000000
00000100
00000000
00000000
00000000
00000000
00000000
00010000
00000000
00000000
00001000
00000000
00000000
00010000
00000000
00000000
00000000
00000000
00000000
00010000
00000000
00000000
00002000
00000000
00000000
00000000
00000000
00000000
00000000
00000000
00000000
,  // measure 89
00013000
00000000
00000100
00010000
00000000
00010000
00000000
00001000
00000000
00001000
00000000
01000000
00100000
00000000
00020000
00000000
,  // measure 90
00031000
00000000
01000000
00001000
00000000
00001000
00000000
00010000
00000000
00010000
00000000
00000100
00000010
00000000
00000000
00000000
;

//---------------dance-double - ----------------
#NOTES:
     dance-double:
     :
     Medium:
     11:
     0.474187,0.693615,0.291167,0.189259,0.156502,456.000000,416.000000,40.000000,26.000000,0.000000,0.000000,0.474187,0.693615,0.291167,0.189259,0.156502,456.000000,416.000000,40.000000,26.000000,0.000000,0.000000:
00000000
00000000
00000000
00000000
,
00000000
00000000
00000000
00000000
,
00000000
00000000
00000000
00000000
,
00000000
00000000
00000000
00000000
,
00000000
00000000
00000000
00000000
,
00000110
00000000
00000001
00000100
00000000
00000010
00000000
00001000
,
00000000
00000001
00000000
00000100
00000010
00000000
00010000
00000000
,
00101000
00000000
00010000
10000000
00000000
01000000
00000000
00100000
,
00000000
00010000
00000000
10000000
01000000
00000000
10000000
00000000
,
10010000
00000000
00010000
01000000
00000000
00100000
00000000
10000000
,
00000000
00010000
00000000
01000000
00100000
00000000
00010000
00000000
,
00011000
00000000
00001000
00100000
00000000
01000000
00000000
00010000
,
00000000
00000100
00000000
00010000
00001000
00000000
00000100
00000000
,
00000110
00000000
00000001
00000010
00000000
00000100
00000000
00001000
,
00000000
00000001
00000000
00000010
00000100
00000000
00010000
00000000
,
01001000
00000000
00010000
10000000
00000000
00100000
00000000
01000000
,
00000000
00010000
00000000
10000000
00100000
00000000
10000000
00000000
,
10010000
00000000
00010000
00100000
00000000
01000000
00000000
10000000
,
00000000
00010000
00000000
00100000
01000000
00000000
00010000
00000000
,
00011000
00000000
00001000
01000000
00000000
00100000
00000000
00010000
,
00100000
00000000
01000000
00100000
00000000
10000000
01000000
00000000
,
01100000
00000000
01000000
10000000
00000000
01000000
10000000
00000000
,
00010000
01000000
00010000
00000000
01000000
00000000
00001000
00000000
,
00011000
00000000
00001000
00100000
00000000
00001000
00100000
00000000
,
00001000
00010000
00001000
00000000
00010000
00000000
00000100
00000000
,
00001001
00000000
00000100
00000001
00000000
00000100
00000001
00000000
,
00001000
00000010
00001000
00000000
00000001
00000000
00000010
00000000
,
00001000
00000000
00010000
00001000
00010000
00000000
00001000
00000000
,
00100000
00100000
00010000
01000000
,
01100000
00000000
00100000
10000000
00000000
00100000
10000000
00000000
,
00010000
00100000
00010000
00000000
00100000
00000000
00001000
00000000
,
00011000
00000000
00001000
01000000
00000000
00001000
01000000
00000000
,
00001000
00010000
00001000
00000000
00010000
00000000
00000010
00000000
,
00001001
00000000
00000010
00000001
00000000
00000010
00000001
00000000
,
00001000
00000100
00001000
00000000
00000001
00000000
00000100
00000000
,
00001000
00000000
00010000
00001000
00010000
00000000
00001000
00000000
,
01000000
01000000
00010000
00100000
,
01100000
00000000
10000000
01000000
00100000
00000000
00010000
00000000
,
01100000
00000000
00010000
01000000
00100000
00000000
10000000
00000000
,
00010000
00000000
01000000
00100000
01000000
00000000
00001000
00000000
,
00010000
00000000
00000100
00000010
00000100
00000000
00000010
00000000
,
00000001
00000000
00001000
00000100
00001000
00000001
00000100
00000000
,
00000010
00000000
00000100
00001000
00000100
00000001
00000010
00000000
,
00001000
00000000
00001000
00010000
00000000
00010000
01000000
00000000
,
01000000
10000000
00000000
10000000
00100000
00000000
01000000
00000000
,
02100000
10000000
00000000
10000000
,
00000000
03010000
00000000
00010000
,
10000000
00000000
00100000
00000000
01100000
00000000
10000000
01000000
,
00100000
00010000
00100000
00000000
00001000
00010000
00001000
00000000
,
00021000
00000100
00000000
00000100
,
00000000
00031000
00000000
00001000
,
00010000
00010000
00000100
00001000
,
00000010
00001000
00000010
00000000
00000100
00000001
00000100
00000000
,
00001001
00000000
00000001
00000010
00000000
00000100
00000000
00001000
,
00000000
00010000
00000000
00001000
00000000
00000100
00000010
00000000
,
00000001
00000000
00001000
00000000
00001010
00000000
00000100
00001000
,
00010000
00001000
00010000
00000000
00001000
00010000
01000000
00000000
,
01200000
10000000
00000000
10000000
,
00000000
00310000
00100000
00010000
,
10000000
00100000
10000000
00000000
00010000
01000000
00010000
00000000
,
00100000
01000000
00100000
00000000
00001000
00010000
00001000
00000000
,
00021000
00000000
00030100
00000000
00001000
00000010
00000100
00000000
,
00000002
00000000
00000013
00000000
00001000
00000010
00000001
00000000
,
00002000
00000000
00003100
00000000
00010000
00001000
01000000
00000000
,
00020000
00000000
00130000
00000000
10000000
00100000
00010000
00000000
,
20010000
00000000
31000000
00000000
00100000
00010000
01000000
00000000
,
00200000
00000000
00310000
00000000
00001000
00100000
00010000
00000000
,
10000000
11000000
01000000
01010000
,
00010000
00001000
00010000
00000000
00000100
00001000
00000010
00000000
,
00000200
00000000
00000000
00000000
,
00000000
00000000
00000000
00000000
,
00000000
00000000
00000000
00000000
,
00000000
00000000
00000000
00000000
,
00000302
00000000
00000000
00000000
,
00000000
00000000
00000000
00000000
,
00002000
00000000
00000000
00003003
,
00010100
00011000
01001000
00000000
,
10010000
00000000
01000000
00000000
00010000
00000000
01000000
20000000
00000000
31000000
00000000
00010000
00000000
01000000
00000000
20000000
,
00000000
00000000
31000000
00000000
00110000
00000000
10000000
01000000
00000000
01000000
10000000
00000000
00100000
00000000
01000000
00000000
,
01100000
00000000
00001000
00000000
00010000
00000000
01000000
00020000
00000000
00031000
00000000
00010000
00000000
01000000
00000000
00020000
,
00000000
00000000
00031000
00000000
00011000
00000000
00000010
00000100
00000000
00000100
00000010
00000000
00000220
00000000
00000000
00000330
,
00001001
00000000
00000001
00001000
00000000
00000100
00000000
00000010
00000000
00000100
00000000
00001000
00000100
00000000
00000010
00000000
,
00000001
00000000
00000100
00000010
00000000
00001000
00000000
00000010
00000000
00000100
00000000
00000010
00010000
00000000
00001000
00000000
,
00011000
00000000
00001000
00100000
00000000
01000000
00000000
00100000
00000000
00010000
00000000
00100000
01000000
00000000
10000000
00000000
,
00100000
00000000
01000000
00010000
00000000
01000000
00000000
00100000
00000000
10000000
00010000
00000000
02200000
00000000
03300000
00000000
,
10010000
00000000
00200000
00300000
10000000
01000000
10000000
01000000
,
00220000
00330000
00001000
00000000
00010000
00001000
00010000
00001000
,
00002020
00003030
00000100
00000000
00000001
00000010
00000001
00000010
,
00001000
00001000
00010000
00010000
01000000
00010000
00002000
00003000
,
00100000
00000000
00000000
00010000
00000000
00010000
00000000
10000000
00000000
10000000
00000000
01000000
00010000
00000000
00001000
00000000
,
00000100
00000000
00000000
00000001
00000000
00000001
00000000
00001000
00000000
00001000
00000000
00000100
00000010
00000000
00000000
00000000
;

//---------------dance-double - ----------------
#NOTES:
     dance-double:
     :
     Easy:
     8:
     0.342122,0.561498,0.189259,0.152863,0.000000,329.000000,303.000000,26.000000,21.000000,0.000000,0.000000,0.342122,0.561498,0.189259,0.152863,0.000000,329.000000,303.000000,26.000000,21.000000,0.000000,0.000000:
00000000
00000000
00000000
00000000
,
00000000
00000000
00000000
00000000
,
00000000
00000000
00000000
00000000
,
00000000
00000000
00000000
00000000
,
00000000
00000000
00000000
00000000
,
00110000
00100000
00001000
00100000
,
00001000
00010000
00000100
00001000
,
00000010
00000100
00000010
00000100
,
00001000
00000100
00000001
00000010
,
00000110
00001000
00000010
00001000
,
00000010
00010000
00001000
00100000
,
01000000
00100000
01000000
00010000
,
01000000
10000000
00100000
00000000
,
01010000
01000000
00001000
01000000
,
00001000
00010000
00000010
00001000
,
00000100
00000010
00000100
00000010
,
00001000
00000010
00000001
00000100
,
00000110
00001000
00000100
00001000
,
00000100
00010000
00001000
01000000
,
00100000
01000000
00100000
00010000
,
00200000
00000000
00000000
00300000
,
01100000
00000000
10000000
00000000
,
00010000
00010000
10000000
01000000
,
00110000
00000000
00001000
00000000
,
00010000
00010000
00000100
00010000
,
00011000
00000000
00000010
00000000
,
00001000
00000100
00001000
00000000
,
00000001
00000100
00000001
00000000
,
00000010
00000010
00000100
00000010
,
00000110
00000000
00000001
00000000
,
00001000
00001000
00000001
00000100
,
00001010
00000000
00010000
00000000
,
00001000
00001000
01000000
00001000
,
00011000
00000000
00100000
00000000
,
00010000
01000000
00010000
00000000
,
10000000
01000000
10000000
00000000
,
00100000
00100000
01000000
00100000
,
11000000
01000000
10000000
01000000
,
01010000
01000000
00010000
01000000
,
00001000
00001000
00010000
00010000
,
00000100
00001000
00000010
00000000
,
00000100
00000100
00000001
00000001
,
00000010
00000100
00000010
00000000
,
00001000
00000000
00000000
00001000
00000000
00000000
00010000
00000000
,
00000000
00010000
00000000
00000000
00001000
00000000
00010000
00000000
,
00021000
00000100
00000000
00000100
,
00000000
00001000
00000000
00030100
,
00010000
00001000
00011000
00010000
,
00001000
01000000
00100000
00010000
,
00002000
01000000
00000000
01000000
,
00000000
00010000
00000000
01003000
,
00001000
00010000
00001000
00001000
,
00010000
00000100
00000010
00001000
,
00022000
00033000
00001000
00001000
,
00100000
01000000
10000000
10000000
,
00010000
01000000
00100000
00010000
,
00100000
01000000
00100000
10000000
,
00020000
01000000
00000000
01000000
,
00000000
10000000
00000000
01030000
,
00100000
00100000
10000000
10000000
,
01000000
00010000
01000000
00010000
,
00021000
00000000
00030100
00010000
,
00002000
00000000
01003000
00001000
,
00020000
00000000
01030000
00100000
,
00020000
00000000
01030000
00100000
,
00120000
00000000
00031000
00000100
,
00000020
00000000
00001030
00000100
,
00000010
00000010
00000001
00000001
,
00000100
00000010
00001000
00000010
,
00022000
00000000
00000000
00000000
,
00000000
00000000
00000000
00000000
,
00000000
00000000
00000000
00000000
,
00000000
00000000
00000000
00033000
,
00020000
00000000
00000000
00000000
,
00000000
00000000
00000000
00000000
,
00002000
00000000
00000000
00033000
,
00100000
00100000
00100000
00000000
,
10010000
00000000
01000000
00000000
10000000
00010000
10000000
00000000
,
00100000
10000000
00100000
00000000
01000000
00001000
00010000
00000000
,
00011000
00000000
00001000
00000000
00010000
00010000
00010000
00000000
,
00000100
00000000
00001000
00000000
00000100
00000000
00000000
00000000
00001000
00000000
00000010
00000000
00000200
00000000
00000000
00000300
,
00000110
00000000
00000001
00000001
00000100
00000001
00001000
00000100
,
00000010
00000000
00000100
00000100
00000010
00001000
00010000
00001000
,
00011000
00000000
00001000
00001000
00010000
00001000
00100000
01000000
,
00010000
00000000
01000000
01000000
10000000
01000000
02200000
03300000
,
10010000
00000000
00200000
00000000
10300000
10000000
01000000
00000000
,
01010000
00000000
00001000
00000000
00010000
00010000
00001000
00000000
,
00001100
00000000
00000001
00000000
00000100
00000001
00000100
00000000
,
00000010
00000010
00000100
00000100
00001000
00010000
00002000
00000000
,
01003000
00000000
01000000
00000000
01000000
00001000
00010000
00000000
,
00000100
00000000
00000100
00000000
00000100
00010000
00001000
00000000
;
