#TITLE:KOOKSEVERYWHERE!!!;
#SUBTITLE:;
#ARTIST:AWOLNATION;
#TITLETRANSLIT:;
#SUBTITLETRANSLIT:;
#ARTISTTRANSLIT:;
#GENRE:Popular Songs;
#CREDIT:;
#BANNER:KOOKSEVERYWHERE!!!.png;
#BACKGROUND:KOOKSEVERYWHERE!!!-bg.png;
#LYRICSPATH:;
#CDTITLE:../cdtitle.png;
#MUSIC:KOOKSEVERYWHERE!!!.ogg;
#OFFSET:0.843000;
#SAMPLESTART:13.307000;
#SAMPLELENGTH:15.000000;
#SELECTABLE:YES;
#BPMS:0.000000=284.000000
,196.000000=142.000000
,260.000000=71.000000
,276.000000=142.000000
,340.000000=71.000000
;
#STOPS:
;
#BGCHANGES:-99.000=../bg.avi=1.000=0=0=1=====,
99999=-nosongbg-=1.000=0=0=0 // don't automatically add -songbackground-
;
#KEYSOUNDS:;
#ATTACKS:;

//---------------dance-single - ----------------
#NOTES:
     dance-single:
     :
     Beginner:
     3:
     0.132027,0.211010,0.000000,0.089966,0.000000,113.000000,113.000000,0.000000,11.000000,0.000000,0.000000,0.132027,0.211010,0.000000,0.089966,0.000000,113.000000,113.000000,0.000000,11.000000,0.000000,0.000000:
0000
0000
0000
0000
,
0000
0000
0000
0000
,
0000
0000
0000
0000
,
0000
0000
0000
0000
,
0000
0000
0000
0000
,
0000
0000
0000
0000
,
0000
0000
0000
0000
,
0000
0000
0000
0000
,
0000
0000
0000
0000
,
0001
0000
0000
0000
,
0001
0000
0000
0000
,
0100
0000
0000
0000
,
0100
0000
0000
0000
,
1000
0000
0000
0000
,
1000
0000
0000
0000
,
0010
0000
0000
0000
,
0010
0000
0000
0000
,
0001
0000
0001
0000
,
0001
0000
0000
0000
,
0010
0000
0010
0000
,
0010
0000
0000
0000
,
0200
0000
0000
0000
,
0300
0000
0000
0000
,
2000
0000
0000
0000
,
3000
0000
0000
0000
,
1000
0000
1000
0000
,
1000
0000
0000
0000
,
0010
0000
0010
0000
,
0010
0000
0000
0000
,
0200
0000
0000
0000
,
0300
0000
0000
0000
,
0002
0000
0000
0000
,
0003
0000
0000
0000
,
1000
0000
1000
0000
,
1000
0000
0000
0000
,
0100
0000
0100
0000
,
0100
0000
0000
0000
,
0020
0000
0000
0000
,
0030
0000
0000
0000
,
0002
0000
0000
0000
,
0003
0000
0000
0000
,
0001
0000
0001
0000
,
0001
0000
0000
0000
,
0100
0000
0100
0000
,
0100
0000
0000
0000
,
0020
0000
0000
0000
,
0030
0000
0000
0000
,
2000
0000
0000
0000
,
3000
0000
0000
0000
,
1000
0000
0000
0000
,
1000
0000
0000
0000
,
1000
0000
0000
0000
,
1000
0000
0000
0000
,
0001
0000
0000
0000
,
0001
0000
0000
0000
,
0001
0000
0000
0000
,
0001
0000
0000
0000
,
0100
0000
0010
0000
,
1000
1000
1000
0000
,
0010
0000
0100
0000
,
0001
0001
0001
0000
,
1000
0000
0100
0000
,
0010
0010
0010
0000
,
0001
0000
0010
0000
,
0100
0100
0100
0000
,
0020
0000
0030
0000
,
0002
0000
0003
0000
,
2000
0000
3000
0000
,
0000
0000
0000
0000
,
1000
0000
0001
0000
,
1000
1000
1000
0000
,
0001
0000
1000
0000
,
0001
0001
0001
0000
,
1000
0000
0001
0000
,
0010
0010
0010
0000
,
0001
0000
1000
0000
,
0100
0100
0100
0000
,
1000
0000
0001
0000
,
0100
0100
0100
0000
,
0001
0000
1000
0000
,
0010
0010
0010
0000
,
0100
0000
0001
0000
,
1000
1000
1000
0000
,
0100
0000
1000
0000
,
0001
0001
0001
0000
,
0100
0000
0000
0000
,
0010
0000
0000
0000
;

//---------------dance-single - ----------------
#NOTES:
     dance-single:
     :
     Easy:
     7:
     0.302611,0.532126,0.261718,0.163574,0.000000,259.000000,227.000000,32.000000,20.000000,0.000000,0.000000,0.302611,0.532126,0.261718,0.163574,0.000000,259.000000,227.000000,32.000000,20.000000,0.000000,0.000000:
0000
0000
0000
0000
,
0000
0000
0000
0000
,
0000
0000
0000
0000
,
0000
0000
0000
0000
,
0000
0000
0000
0000
,
0000
0000
0000
0000
,
0000
0000
0000
0000
,
0000
0000
0000
0000
,
0000
0000
0000
0000
,
1000
0000
0100
0000
,
0001
0000
0100
0000
,
1000
0000
0100
0000
,
0001
0000
0100
0000
,
1000
0000
0010
0000
,
0001
0000
0010
0000
,
1000
0000
0010
0000
,
0001
0000
0010
0000
,
1000
0000
0100
0000
,
0010
0000
0010
0000
,
0001
0000
0010
0000
,
0100
0000
0100
0000
,
1000
0000
1000
0000
,
0001
0100
0001
0000
,
1000
0000
0001
0000
,
1000
0100
1000
0000
,
0001
0000
0100
0000
,
0010
0000
0010
0000
,
1000
0000
0010
0000
,
0100
0000
0100
0000
,
0001
0000
0001
0000
,
1000
0100
1000
0000
,
0001
0000
1000
0000
,
0001
0100
0001
0000
,
1000
0000
0100
0000
,
0010
0000
0001
0000
,
0100
0000
0010
0000
,
1000
0000
0001
0000
,
0010
0000
0010
0000
,
0100
1000
0100
0000
,
1000
0000
1000
0000
,
0001
0100
0010
0000
,
1000
0000
0010
0000
,
0100
0000
0001
0000
,
0010
0000
0100
0000
,
1000
0000
0001
0000
,
0100
0000
0100
0000
,
0010
1000
0010
0000
,
1000
0000
1000
0000
,
0001
0010
0100
0000
,
2000
3000
0011
0000
,
0200
0300
1010
0000
,
0002
0003
1100
0000
,
0020
0030
0101
0000
,
2000
3000
1100
0000
,
0020
0030
0110
0000
,
0002
0003
0011
0000
,
0100
0000
0010
0010
,
0010
0100
1001
1000
,
0001
0100
0001
0000
1000
0000
0000
0000
,
1000
0001
0110
0100
,
0010
0001
0010
0000
0100
0000
0000
0000
,
0100
0010
1001
0001
,
0010
1000
0010
0000
0001
0000
0000
0000
,
1000
0001
0110
0100
,
0001
0010
0001
0000
0100
0000
0010
0000
,
2000
0100
0100
0000
0000
0001
3001
0000
,
0002
0100
0100
0000
0000
1000
1003
0000
,
2000
0100
0100
0000
0000
0010
3010
0000
,
0000
0100
0100
0000
0100
0100
0100
0000
,
1001
0010
0110
0100
,
1001
1001
0110
0000
,
1010
0100
0101
0001
,
1100
1100
0011
0000
,
1001
0100
0110
0010
,
1001
1001
0110
0000
,
0011
0100
1100
1000
,
0101
0101
1010
1010
,
2000
0001
3002
0010
,
0023
0100
0130
0000
,
2000
0001
3002
0100
,
0203
0010
0310
0000
,
2000
0001
3002
0010
,
0013
1000
0010
0001
,
2000
0001
3002
0100
,
0103
1000
0100
0001
,
1000
0000
1000
0000
0100
0100
0100
0000
,
0001
0000
0001
0000
0010
0010
0010
0000
;

//---------------dance-single - ----------------
#NOTES:
     dance-single:
     :
     Medium:
     11:
     0.419450,0.744976,0.171752,0.089966,0.032715,359.000000,338.000000,21.000000,11.000000,0.000000,0.000000,0.419450,0.744976,0.171752,0.089966,0.032715,359.000000,338.000000,21.000000,11.000000,0.000000,0.000000:
0000
0000
0000
0000
,
0000
0000
0000
0000
,
0000
0000
0000
0000
,
0000
0000
0000
0000
,
0000
0000
0000
0000
,
0000
0000
0000
0000
,
0000
0000
0000
0000
,
0000
0000
0000
0000
,
0000
0000
0000
0000
,
1000
0100
1000
0100
,
0010
0001
0010
0001
,
1000
0010
1000
0010
,
0100
0001
0100
0100
,
0001
0010
0001
0010
,
0100
1000
0100
1000
,
0001
0100
0001
0100
,
0010
1000
0010
1000
,
0001
0000
1000
0000
,
0100
0010
0001
1000
,
0000
1000
0001
0100
,
0010
1000
0001
0000
,
1000
0000
1000
0000
,
0001
0010
0100
0010
,
0001
0000
0001
0000
,
1000
0010
0100
0010
,
1000
0000
0001
0000
,
0010
0100
1000
0001
,
0000
0001
1000
0010
,
0100
0001
1000
0000
,
0001
0000
0001
0000
,
1000
0100
0010
0100
,
1000
0000
1000
0000
,
0001
0100
0010
0100
,
0001
0100
0001
0000
,
1000
0100
1000
0001
,
0000
0001
0100
0010
,
1000
0000
0001
0000
,
0010
0000
0010
0000
,
0100
1000
0001
1000
,
0100
0000
0100
0000
,
0010
0001
1000
0100
,
1000
0010
1000
0001
,
0000
0001
0010
0001
,
1000
0010
0100
0001
,
0000
1000
0000
1000
,
0100
0000
0100
0000
,
0010
0001
1000
0001
,
0010
0000
0010
0000
,
0100
1000
0001
0010
,
0200
1300
2100
3001
,
0002
0103
2010
3100
,
0020
0031
0012
1003
,
2000
3010
0102
0013
,
0100
0100
2001
3010
,
0100
0100
1002
0013
,
0100
0100
2100
3001
,
0100
0010
0010
0000
1000
0000
0001
0000
,
1000
0000
1000
0000
1100
0000
1000
0001
,
0100
0010
0100
0010
1000
0000
0000
0000
,
0001
0000
0001
0000
0011
0000
0001
1000
,
0010
0100
0010
0100
0001
0000
0000
0000
,
0001
0000
1000
0000
0110
0000
1000
0001
,
0010
1000
0010
0001
1000
0000
0000
0000
,
0001
0000
1000
0000
0110
0000
1000
0001
,
0100
1000
0100
0001
1000
0001
0010
0100
,
1000
0000
0001
0000
0001
0010
0001
0000
0000
0000
1000
0000
1000
0100
1000
0000
,
1000
0000
0001
0000
0001
0100
0001
0000
0000
0000
1000
0000
1000
0010
1000
0000
,
1000
0000
0001
0000
0001
0010
0001
0000
0000
0000
1000
0000
1000
0100
1000
0000
,
0000
0000
0010
0000
0010
0100
0010
0000
0100
0010
0100
0000
1001
0000
0000
0000
,
0110
0000
0100
0000
0001
0010
0100
0000
,
1000
0100
0010
0001
1000
0000
0100
0000
,
0100
0000
0010
0000
0001
0100
0010
0000
,
1000
0010
0100
0001
1000
0000
0010
0000
,
0010
0000
0100
0000
0001
0100
0010
0000
,
1000
0100
0001
0100
1000
0000
0100
0000
,
0100
0000
0010
0000
0001
0010
0100
0000
,
1000
0001
0010
0001
1000
0010
0100
0010
,
1000
1000
0101
0001
,
1000
0100
1000
0100
0010
0000
0000
0000
,
0001
0001
1010
1000
,
0001
0010
0001
0010
0100
0000
0000
0000
,
1000
0001
0110
1000
,
0001
0100
1000
0100
0001
0000
0100
0000
,
0001
1000
0110
0001
,
1000
0100
1000
0000
0001
0010
0001
0000
,
1000
1000
1010
0100
0001
0001
0110
0000
,
0001
0001
0011
0100
1000
1000
0110
0000
;

//---------------dance-single - ----------------
#NOTES:
     dance-single:
     :
     Hard:
     14:
     0.601718,1.064252,0.253539,0.000000,0.098144,515.000000,484.000000,31.000000,0.000000,0.000000,0.000000,0.601718,1.064252,0.253539,0.000000,0.098144,515.000000,484.000000,31.000000,0.000000,0.000000,0.000000:
// measure 0
0000
0000
0000
0000
,  // measure 1
0000
0000
0000
0000
,  // measure 2
0000
0000
0000
0000
,  // measure 3
0000
0000
0000
0000
,  // measure 4
0000
0000
0000
0000
,  // measure 5
0000
0000
0000
0000
,  // measure 6
0000
0000
0000
0000
,  // measure 7
0000
0000
0000
0000
,  // measure 8
0000
0000
0000
0000
,  // measure 9
1000
0100
0001
0100
,  // measure 10
1000
0100
1000
0000
0001
0010
0001
0000
,  // measure 11
1000
0010
0001
0010
,  // measure 12
1000
0001
1000
0000
0001
1000
0001
0000
,  // measure 13
1000
0100
1000
0100
,  // measure 14
0010
0001
0010
0000
0100
1000
0100
0000
,  // measure 15
1000
0000
0010
0000
0100
0001
0100
0000
,  // measure 16
0010
1000
0010
0000
1000
0000
0001
0000
,  // measure 17
1000
0100
1000
0001
,  // measure 18
1000
0100
0010
0100
,  // measure 19
1000
0001
0010
0001
,  // measure 20
1000
0010
0100
0010
,  // measure 21
1000
0001
0010
0100
,  // measure 22
1000
0001
1000
0000
0001
0100
0001
0000
,  // measure 23
1000
0001
1000
0100
,  // measure 24
0010
0001
0010
0000
0100
0000
1000
0000
,  // measure 25
0001
0100
0001
1000
,  // measure 26
0001
0100
0010
0100
,  // measure 27
0001
1000
0010
1000
,  // measure 28
0001
0010
0100
0010
,  // measure 29
0001
1000
0010
0100
,  // measure 30
0001
1000
0001
0000
1000
0100
1000
0000
,  // measure 31
0001
1000
0001
0100
,  // measure 32
0010
1000
0010
0000
0100
0000
0001
0000
,  // measure 33
1000
0010
0001
0010
,  // measure 34
0100
0001
0100
0010
,  // measure 35
1000
0001
1000
0100
,  // measure 36
0001
0100
0010
0100
,  // measure 37
1000
0001
1000
0010
,  // measure 38
0100
0001
0100
0000
0001
1000
0001
0000
,  // measure 39
1000
0100
1000
0001
,  // measure 40
0100
0010
0100
0000
0010
0000
1000
0000
,  // measure 41
0001
0010
1000
0010
,  // measure 42
0100
1000
0100
0010
,  // measure 43
0001
1000
0001
0100
,  // measure 44
1000
0100
0010
0100
,  // measure 45
0001
1000
0001
0010
,  // measure 46
0100
1000
0100
0000
1000
0001
1000
0000
,  // measure 47
0001
0100
0001
1000
,  // measure 48
0100
0010
0100
1000
0001
0010
0100
1000
,  // measure 49
0001
0010
0001
0010
0011
0100
1000
0001
,  // measure 50
1000
0010
1000
0010
1010
0100
0001
0000
,  // measure 51
1000
0100
1000
0100
1100
0010
0001
1000
,  // measure 52
0001
0100
0001
0100
0101
0010
1000
0000
,  // measure 53
0001
0010
0100
1000
1100
0100
0010
0001
,  // measure 54
1000
0100
1000
0001
0101
0100
0010
0000
,  // measure 55
1000
0100
0010
0001
0011
0010
0100
1000
,  // measure 56
0001
0000
0010
0000
0001
0000
1000
0000
0100
1000
0100
0000
1000
0001
1000
0000
,  // measure 57
0001
0100
1000
0000
0101
0000
1000
0100
,  // measure 58
0001
0100
0001
0100
1100
0000
0001
0000
,  // measure 59
1000
0010
0001
0000
1010
0000
0001
0010
,  // measure 60
1000
0010
1000
0010
0011
0000
1000
0000
,  // measure 61
0001
1000
0100
0000
0110
0000
0001
1000
,  // measure 62
0010
0001
0010
0100
0101
0000
0001
0000
,  // measure 63
1000
0001
0010
0000
0110
0000
1000
0001
,  // measure 64
0100
1000
0100
0010
1000
0001
0010
0100
,  // measure 65
1000
0000
1000
0100
0010
0100
1000
0000
0001
0000
0001
0100
0010
0100
0001
0000
,  // measure 66
1000
0000
1000
0010
0100
0010
1000
0000
0001
0000
0001
0010
0100
0010
0001
0000
,  // measure 67
1000
0000
1000
0000
0100
0010
0100
0000
0000
0000
0001
0000
0100
0010
0100
0000
,  // measure 68
0000
0000
1100
0000
0011
0001
0100
0000
1010
1000
0100
0000
0110
0000
0000
0000
,  // measure 69
1001
0001
0100
0100
0010
1000
0001
0001
,  // measure 70
0010
0100
1000
0100
0110
0000
1000
0001
,  // measure 71
1000
0010
0100
0100
0001
0010
0100
0100
,  // measure 72
0010
0001
1000
0010
1010
0000
0010
0100
,  // measure 73
0001
1000
0010
0010
0100
0001
1000
1000
,  // measure 74
0100
0010
0001
0010
0110
0000
0001
1000
,  // measure 75
0001
0100
0010
0010
1000
0100
0010
0010
,  // measure 76
0100
1000
0100
0000
1000
0000
0001
0000
1000
0000
0010
0000
0100
0000
0010
0000
,  // measure 77
1000
0100
1000
0100
0001
0100
0001
0100
,  // measure 78
1000
0001
1000
0010
1010
0000
0001
1000
,  // measure 79
0001
0010
0001
0010
1000
0010
1000
0010
,  // measure 80
0001
1000
0001
0100
0101
0000
1000
0001
,  // measure 81
1000
0100
0001
1000
0010
0001
1000
0010
,  // measure 82
0001
1000
0100
0010
0110
0100
0001
1000
,  // measure 83
0001
0010
1000
0001
0100
1000
0001
0100
,  // measure 84
0010
1000
0010
0000
1000
0000
0100
0000
0010
0000
0010
0000
0001
0000
0100
0000
,  // measure 85
0101
0000
0100
0100
1100
0000
1000
0001
0100
0010
1000
0010
0110
0000
0000
0000
,  // measure 86
1100
0000
0100
0100
0101
0000
0001
1000
0100
0010
0001
0010
0110
0000
0000
0000
;
