#TITLE:KING;
#SUBTITLE:;
#ARTIST:Kanaria;
#TITLETRANSLIT:;
#SUBTITLETRANSLIT:;
#ARTISTTRANSLIT:;
#GENRE:J-Music;
#CREDIT:;
#BANNER:KING.png;
#BACKGROUND:KING-bg.png;
#LYRICSPATH:;
#CDTITLE:../cdtitle.png;
#MUSIC:KING.ogg;
#OFFSET:0.969000;
#SAMPLESTART:52.525002;
#SAMPLELENGTH:15.000000;
#SELECTABLE:YES;
#BPMS:0.000000=166.000000
;
#STOPS:
;
#BGCHANGES:2.875=KING.avi=1.000=0=0=0=StretchNoLoop====,
99999=-nosongbg-=1.000=0=0=0 // don't automatically add -songbackground-
;
#KEYSOUNDS:;
#ATTACKS:;

//---------------dance-single - ----------------
#NOTES:
     dance-single:
     :
     Challenge:
     13:
     0.650143,0.644527,0.591703,0.204539,0.084007,623.000000,542.000000,81.000000,28.000000,0.000000,0.000000,0.650143,0.644527,0.591703,0.204539,0.084007,623.000000,542.000000,81.000000,28.000000,0.000000,0.000000:
// measure 0
0000
0000
0000
0000
,  // measure 1
0000
0000
0000
0000
,  // measure 2
0000
0000
0000
0000
,  // measure 3
0011
0000
1000
0001
0100
0010
1000
0001
,  // measure 4
0010
0100
1000
0100
0020
0000
0031
0000
,  // measure 5
1010
0000
0001
1000
0010
0100
0001
1000
,  // measure 6
0100
0010
0100
0010
0200
0000
0310
0000
,  // measure 7
1100
0000
0001
1000
0010
0100
0001
1000
,  // measure 8
0100
0010
0001
0010
0200
0000
1300
0000
,  // measure 9
0101
0000
1000
0001
0100
0010
1000
0001
,  // measure 10
0010
0100
0010
0100
0020
0000
0130
0000
,  // measure 11
0102
0103
2100
3100
,  // measure 12
0100
0010
0100
0000
1001
0000
0010
0000
,  // measure 13
0001
0000
1000
0100
0001
0000
0001
0100
,  // measure 14
1000
0100
0001
0000
1001
0000
0010
0000
,  // measure 15
0012
0103
2010
3100
,  // measure 16
0010
0100
0010
0000
1001
0000
0100
0000
,  // measure 17
0001
0000
1000
0010
0001
0000
0001
0010
,  // measure 18
1000
0010
0001
0000
1001
0000
0100
0000
,  // measure 19
0001
0100
0001
0100
0010
1000
0010
0100
,  // measure 20
1000
0000
0100
0000
0010
0000
1000
0000
0001
0000
0000
0001
0000
0000
0010
0000
,  // measure 21
0100
0010
0100
1000
0001
0010
1000
0010
,  // measure 22
0001
0000
0010
0000
0100
0000
1000
0000
0100
0000
0000
1100
0000
0000
1001
0000
,  // measure 23
1000
0010
1000
0010
0100
0001
0100
0010
,  // measure 24
0001
0000
0010
0000
0100
0000
0001
0000
1000
0000
0000
1000
0000
0000
0100
0000
,  // measure 25
0010
0100
0010
0001
1000
0100
0001
0100
,  // measure 26
1000
1010
0010
0011
,  // measure 27
0100
0000
0000
0000
,  // measure 28
0110
0110
1001
0000
,  // measure 29
0100
0000
0000
0000
0100
0000
0000
0000
1100
0000
0000
0101
0000
0000
1100
0000
,  // measure 30
0010
0000
0000
0000
0010
0000
0000
0000
0011
0000
0000
1010
0000
0000
0011
0000
,  // measure 31
1000
0000
0000
0000
1000
0000
0000
0000
1100
0000
0000
0110
0000
0000
1100
0000
,  // measure 32
0001
0100
0010
0100
1000
0001
0010
0100
,  // measure 33
0010
0000
0000
0000
0010
0000
0000
0000
0011
0000
0000
1010
0000
0000
0011
0000
,  // measure 34
0100
0000
0000
0000
0100
0000
0000
0000
1100
0000
0000
0101
0000
0000
1100
0000
,  // measure 35
0001
0000
0000
0000
0001
0000
0000
0000
0011
0000
0000
0110
0000
0000
0011
0000
,  // measure 36
2000
3200
0302
0023
,  // measure 37
1030
1100
0001
0101
,  // measure 38
1000
0100
1000
0001
1000
0010
0001
0010
,  // measure 39
1000
0000
0001
0010
0100
0001
0100
0010
,  // measure 40
0100
1000
0100
1000
0001
0100
0010
0000
,  // measure 41
1000
1010
0001
0011
,  // measure 42
1000
0010
1000
0001
1000
0100
0001
0100
,  // measure 43
1000
0000
0001
0100
0010
0001
0010
0100
,  // measure 44
0010
1000
1000
0000
0002
0000
0013
0000
,  // measure 45
0110
0000
0000
0000
,  // measure 46
0110
0110
0011
1010
0000
0000
0000
0000
,  // measure 47
0011
0000
1000
0001
0100
0010
1000
0001
,  // measure 48
0010
0100
1000
0100
0020
0000
0031
0000
,  // measure 49
1010
0000
0001
1000
0010
0100
0001
1000
,  // measure 50
0100
0010
0100
0010
0200
0000
0310
0000
,  // measure 51
1100
0000
0001
1000
0010
0100
0001
1000
,  // measure 52
0100
0010
0001
0010
0200
0000
1300
0000
,  // measure 53
0101
0000
1000
0001
0100
0010
1000
0001
,  // measure 54
0010
0100
0010
0100
0020
0000
0130
0000
,  // measure 55
1000
0100
0010
0100
1000
1000
1000
0000
,  // measure 56
0001
0100
0000
0001
0100
0000
0010
0000
1000
0000
0001
0000
0100
0000
0001
0000
,  // measure 57
0010
0010
0010
0100
1000
1000
1000
0000
,  // measure 58
0100
0010
0000
0100
0010
0000
0001
0000
1000
0000
0100
0000
0010
0000
0000
0000
,  // measure 59
0001
0100
0010
0100
0001
0001
0001
0000
,  // measure 60
1000
0100
0000
1000
0100
0000
0010
0000
0001
0000
1000
0000
0100
0000
1000
0000
,  // measure 61
0010
0010
0010
0100
0001
0001
0001
0000
,  // measure 62
0100
0010
0000
0100
0010
0000
1000
0000
0001
0000
0100
0000
0010
0000
1000
0000
,  // measure 63
0100
0000
0000
0000
0100
0000
0000
0000
1100
0000
0000
0101
0000
0000
1100
0000
,  // measure 64
0010
0000
0000
0000
0010
0000
0000
0000
0011
0000
0000
1010
0000
0000
0011
0000
,  // measure 65
1000
0000
0000
0000
1000
0000
0000
0000
1100
0000
0000
0110
0000
0000
1100
0000
,  // measure 66
0001
0100
0010
0100
1000
0001
0010
0100
,  // measure 67
0010
0000
0000
0000
0010
0000
0000
0000
0011
0000
0000
1010
0000
0000
0011
0000
,  // measure 68
0100
0000
0000
0000
0100
0000
0000
0000
1100
0000
0000
0101
0000
0000
1100
0000
,  // measure 69
0001
0000
0000
0000
0001
0000
0000
0000
0011
0000
0000
0110
0000
0000
0011
0000
,  // measure 70
2000
3200
0302
0023
,  // measure 71
1030
1100
0001
0101
,  // measure 72
1000
0100
1000
0001
1000
0010
0001
0010
,  // measure 73
1000
0000
0001
0010
0100
0001
0100
0010
,  // measure 74
0100
1000
0100
1000
0001
0100
0010
0000
,  // measure 75
1000
1010
0001
0011
,  // measure 76
1000
0010
1000
0001
1000
0100
0001
0100
,  // measure 77
1000
0000
0001
0100
0010
0001
0010
0100
,  // measure 78
0010
1000
1000
0000
0002
0000
0013
0000
,  // measure 79
0110
0000
0000
0000
,  // measure 80
1100
1100
0101
0110
0000
0000
0000
0000
,  // measure 81
1010
0000
0001
1000
0100
0010
0001
1000
,  // measure 82
0010
0100
0001
0100
0020
0000
1030
0000
,  // measure 83
0011
0000
1000
0001
0010
0100
1000
0001
,  // measure 84
0100
0010
0100
0010
0200
0000
0310
0000
,  // measure 85
0101
0000
1000
0001
0010
0100
1000
0001
,  // measure 86
0100
0010
1000
0010
0200
0000
0301
0000
,  // measure 87
1100
0000
0001
1000
0100
0010
0001
1000
,  // measure 88
0010
0100
0010
0100
0001
0100
0010
1000
,  // measure 89
0002
0000
0013
0100
0010
1000
0010
0001
,  // measure 90
2000
0000
3100
0010
0100
0001
0100
1000
,  // measure 91
0020
0000
1030
0001
1000
0100
1000
0010
,  // measure 92
0100
0001
0000
0010
0000
0001
0000
1000
;

//---------------dance-single - ----------------
#NOTES:
     dance-single:
     :
     Hard:
     12:
     0.592747,0.576682,0.365249,0.153404,0.084007,568.000000,518.000000,50.000000,21.000000,0.000000,0.000000,0.592747,0.576682,0.365249,0.153404,0.084007,568.000000,518.000000,50.000000,21.000000,0.000000,0.000000:
0000
0000
0000
0000
,
0000
0000
0000
0000
,
0000
0000
0000
0000
,
1001
0000
0001
0100
0010
1000
0010
0100
,
0001
1000
0100
0010
0001
0000
0010
0000
,
0110
0000
0001
1000
0100
0010
0001
0100
,
0010
0100
0010
0100
0020
0000
0030
0000
,
1001
0000
1000
0100
0010
0001
0010
0100
,
1000
0001
0100
0010
1000
0000
0010
0000
,
0110
0000
1000
0001
0100
0010
1000
0100
,
0010
0100
0010
0100
0020
0000
0130
0000
,
2100
0100
3010
0010
,
1000
0100
1000
0000
0001
0000
0001
0000
,
1000
0000
0100
0010
0001
0000
0100
0010
,
1000
0010
1000
0000
0001
0000
0100
0000
,
0002
0010
2003
0100
,
3001
0010
0001
0000
1000
0000
1000
0000
,
0001
0000
0010
0100
1000
0000
0010
0100
,
0001
0100
0001
0000
1000
0000
0110
0000
,
1000
0100
1000
0100
0001
0100
0001
0100
,
1000
0000
0100
0000
0001
0000
0100
0000
1000
0000
0000
1000
0000
0000
0010
0000
,
0000
0100
0001
0100
0010
0100
0010
0100
,
0010
0000
1000
0000
0100
0000
0010
0000
0001
0000
0000
0100
0000
0000
1010
0000
,
0000
0010
1000
0010
0001
0010
0001
0010
,
1000
0000
0010
0000
0001
0000
0010
0000
1000
0000
0000
1000
0000
0000
0100
0000
,
0000
0010
0001
0010
0100
0010
0100
1000
,
0010
0101
0010
1100
,
0001
0000
0000
0000
,
0100
0100
0110
0000
,
0010
0000
0000
0000
0010
0000
0000
0000
0100
0000
0000
1000
0000
0000
1100
0000
,
0001
0000
0000
0000
0001
0000
0000
0000
1000
0000
0000
0010
0000
0000
1010
0000
,
0100
0000
0000
0000
0100
0000
0000
0000
0010
0000
0000
0100
0000
0000
0101
0000
,
0001
0100
0001
0000
1000
0100
0001
0100
,
1000
0000
0000
0000
1000
0000
0000
0000
0001
0000
0000
0100
0000
0000
0101
0000
,
0010
0000
0000
0000
0010
0000
0000
0000
0100
0000
0000
1000
0000
0000
1100
0000
,
0001
0000
0000
0000
0001
0000
0000
0000
1000
0000
0000
0001
0000
0000
0011
0000
,
2000
3020
0230
0302
,
1003
1100
0001
0101
,
1000
0100
1000
0001
0100
0010
1000
0001
,
0010
0000
0100
0010
0000
0101
0000
1100
,
0000
1000
0100
0010
0001
0010
0100
0000
,
1000
1010
0001
0011
,
1000
0010
1000
0001
0010
0100
1000
0100
,
0010
0000
0001
0100
0000
0011
0000
1010
,
0000
0001
0001
0000
0020
0000
0130
0000
,
1001
0000
0000
0000
,
0010
0010
0100
0010
0000
0000
0000
0000
,
1001
0000
0001
0100
0010
1000
0010
0100
,
0001
1000
0100
0010
0001
0000
0010
0000
,
0110
0000
0001
1000
0100
0010
0001
0100
,
0010
0100
0010
0100
0020
0000
0030
0000
,
1001
0000
1000
0100
0010
0001
0010
0100
,
1000
0001
0100
0010
1000
0000
0010
0000
,
0110
0000
1000
0001
0100
0010
1000
0100
,
0010
0100
0010
0100
0020
0000
0030
0000
,
0100
1000
0100
1000
0001
0100
0001
0000
,
0100
0010
0000
0100
0010
0000
1000
0000
0100
0000
0000
0000
0110
0000
0000
0000
,
1000
0100
1000
0001
0100
0001
0100
0000
,
0001
1000
0000
0001
1000
0000
0100
0000
0010
0000
0001
0000
0100
0000
0000
0000
,
0010
1000
0010
1000
0001
0010
0001
0000
,
0010
0100
0000
0010
0100
0000
1000
0000
0010
0000
0000
0000
0110
0000
0000
0000
,
1000
0010
1000
0001
0010
0001
0010
0000
,
0001
1000
0000
0001
1000
0000
0010
0000
0100
0000
0001
0000
0010
0000
1000
0000
,
0010
0000
0000
0000
0010
0000
0000
0000
0100
0000
0000
1000
0000
0000
1100
0000
,
0001
0000
0000
0000
0001
0000
0000
0000
1000
0000
0000
0010
0000
0000
1010
0000
,
0100
0000
0000
0000
0100
0000
0000
0000
0010
0000
0000
0100
0000
0000
0101
0000
,
0001
0100
0001
0000
1000
0100
0001
0100
,
1000
0000
0000
0000
1000
0000
0000
0000
0001
0000
0000
0100
0000
0000
0101
0000
,
0010
0000
0000
0000
0010
0000
0000
0000
0100
0000
0000
1000
0000
0000
1100
0000
,
0001
0000
0000
0000
0001
0000
0000
0000
1000
0000
0000
0001
0000
0000
0011
0000
,
2000
3020
0230
0302
,
1003
1100
0001
0101
,
1000
0100
1000
0001
0100
0010
1000
0001
,
0010
0000
0100
0010
0000
0101
0000
1100
,
0000
1000
0100
0010
0001
0010
0100
0000
,
1000
1010
0001
0011
,
1000
0010
1000
0001
0010
0100
1000
0100
,
0010
0000
0001
0100
0000
0011
0000
1010
,
0000
0001
0001
0000
0020
0000
0130
0000
,
1001
0000
0000
0000
,
0100
0100
1000
0010
0000
0000
0000
0000
,
1001
0000
1000
0100
0010
0001
0010
0100
,
1000
0001
0100
0010
1000
0000
0010
0000
,
0110
0000
1000
0001
0100
0010
1000
0100
,
0010
0100
0010
0100
0020
0000
0130
0000
,
1001
0000
0001
0100
0010
1000
0010
0100
,
0001
1000
0100
0010
0001
0000
0010
0000
,
0110
0000
0001
1000
0100
0010
0001
0100
,
0010
0100
0010
0100
0001
0100
0010
1000
,
0002
0000
0013
0100
0010
0100
0010
0100
,
2000
0000
3100
0010
0100
0010
0100
0010
,
0002
0000
0103
0010
0100
0010
0100
0010
,
1000
0001
0000
0010
0000
1000
0000
0001
;

//---------------dance-single - ----------------
#NOTES:
     dance-single:
     :
     Medium:
     9:
     0.442473,0.440992,0.226454,0.160709,0.054787,424.000000,393.000000,31.000000,22.000000,0.000000,0.000000,0.442473,0.440992,0.226454,0.160709,0.054787,424.000000,393.000000,31.000000,22.000000,0.000000,0.000000:
0000
0000
0000
0000
,
0000
0000
0000
0000
,
0000
0000
0000
0000
,
1001
0000
0100
0000
0001
0100
0001
0000
,
1000
0100
0010
0110
,
0001
0000
1000
0000
0001
0010
0100
0000
,
1000
0001
1000
0000
0002
0000
0003
0000
,
1001
0000
0010
0000
1000
0010
1000
0000
,
0001
0010
0100
0110
,
1000
0000
0001
0000
1000
0100
0010
0000
,
0001
1000
0001
0000
2000
0000
3000
0000
,
0002
0003
2000
3000
,
0001
0100
0110
0000
,
0001
0000
0001
0010
1000
0000
1000
0010
,
0001
1000
1001
0000
,
2000
3000
0002
0003
,
1000
0010
0110
0000
,
1000
0000
1000
0100
0001
0000
0001
0100
,
1000
0001
1001
0000
,
1000
0100
1000
0000
0001
0100
0001
0000
,
0100
0000
0010
0000
0100
0000
0000
0000
0001
0000
0000
0001
0000
0000
0001
0000
,
0000
1000
0001
0000
0010
0100
1000
0000
,
0100
0000
0010
0000
0001
0000
0000
0000
1000
0000
0000
1000
0000
0000
1000
0000
,
0000
0010
1000
0000
0001
0010
0001
0000
,
0010
0000
0100
0000
0010
0000
0000
0000
0001
0000
0000
0001
0000
0000
0001
0000
,
0000
1000
0001
0000
0100
0010
1000
0000
,
0100
0100
0010
0100
,
1001
0000
0000
0000
,
0010
0010
0010
0000
,
1000
0000
0000
0000
1000
0000
0000
0000
0010
0000
0000
0010
0000
0000
0100
0000
,
0010
0000
0000
0000
0010
0000
0000
0000
0001
0000
0000
1000
0000
0000
0100
0000
,
0000
0000
0000
0000
0001
0000
0000
0000
0100
0000
0000
0100
0000
0000
0010
0000
,
0100
0001
0100
0000
0010
1000
0010
0000
,
0000
0000
0000
0000
1000
0000
0000
0000
0100
0000
0000
0100
0000
0000
0010
0000
,
0100
0000
0000
0000
0100
0000
0000
0000
0001
0000
0000
1000
0000
0000
0010
0000
,
0000
0000
0000
0000
0001
0000
0000
0000
0010
0000
0000
0010
0000
0000
0100
0000
,
2000
3020
0230
0302
,
1003
1100
0001
0101
,
0000
0000
1000
0000
0100
0010
0001
0000
,
1001
0000
0010
0010
,
1000
0001
0010
0000
0100
0010
0100
0000
,
1000
1010
0001
0011
,
0000
0000
1000
0000
0010
0100
0001
0000
,
1001
0000
0100
0100
,
1000
0001
0100
0000
0020
0000
0130
0000
,
1001
0000
0000
0000
,
0010
0100
0010
0100
0000
0000
0000
0000
,
1001
0000
0100
0000
0001
0100
0001
0000
,
1000
0100
0010
0110
,
0001
0000
1000
0000
0001
0010
0100
0000
,
1000
0001
1000
0000
0002
0000
0003
0000
,
1001
0000
0010
0000
1000
0010
1000
0000
,
0001
0010
0100
0110
,
1000
0000
0001
0000
1000
0100
0010
0000
,
0001
1000
0001
0000
2000
0000
3000
0000
,
0001
0100
0001
0000
0100
0000
0100
0000
,
1000
0000
1000
0000
0010
1000
0010
0000
,
0001
1000
0001
0000
1000
0100
1000
0000
,
0001
0000
0001
0000
0100
0010
1000
0000
,
0001
0010
0001
0000
0010
0000
0010
0000
,
1000
0000
1000
0000
0100
1000
0100
0000
,
0001
1000
0001
0000
1000
0010
1000
0000
,
0001
0000
0001
0000
0010
0100
1000
0001
,
1000
0000
0000
0000
1000
0000
0000
0000
0010
0000
0000
0010
0000
0000
0100
0000
,
0010
0000
0000
0000
0010
0000
0000
0000
0001
0000
0000
1000
0000
0000
0100
0000
,
0000
0000
0000
0000
0001
0000
0000
0000
0100
0000
0000
0100
0000
0000
0010
0000
,
0100
0001
0100
0000
0010
1000
0010
0000
,
0000
0000
0000
0000
1000
0000
0000
0000
0100
0000
0000
0100
0000
0000
0010
0000
,
0100
0000
0000
0000
0100
0000
0000
0000
0001
0000
0000
1000
0000
0000
0010
0000
,
0000
0000
0000
0000
0001
0000
0000
0000
0010
0000
0000
0010
0000
0000
0100
0000
,
2000
3020
0230
0302
,
1003
1100
0001
0101
,
0000
0000
1000
0000
0100
0010
0001
0000
,
1001
0000
0010
0010
,
1000
0001
0010
0000
0100
0010
0100
0000
,
1000
1010
0001
0011
,
0000
0000
1000
0000
0010
0100
0001
0000
,
1001
0000
0100
0100
,
1000
0001
0100
0000
0020
0000
0130
0000
,
1001
0000
0000
0000
,
0010
0100
1000
0001
0000
0000
0000
0000
,
1001
0000
0010
0000
0001
0010
0001
0000
,
1000
0010
0100
0110
,
0001
0000
1000
0000
0001
0100
0010
0000
,
1000
0001
1000
0000
0002
0000
1003
0000
,
1001
0000
0100
0000
1000
0100
1000
0000
,
0001
0100
0010
0110
,
1000
0000
0001
0000
1000
0010
0100
0000
,
0001
1000
0001
0000
1000
0100
0010
0000
,
0002
0003
0001
0001
,
2000
3000
1000
1000
,
0020
0030
0010
0010
,
0100
0001
0000
0001
0000
1000
0000
0001
;

//---------------dance-single - ----------------
#NOTES:
     dance-single:
     :
     Easy:
     7:
     0.332898,0.373147,0.124185,0.087660,0.000000,319.000000,302.000000,17.000000,12.000000,0.000000,0.000000,0.332898,0.373147,0.124185,0.087660,0.000000,319.000000,302.000000,17.000000,12.000000,0.000000,0.000000:
0000
0000
0000
0000
,
0000
0000
0000
0000
,
0000
0000
0000
0000
,
1001
0001
0100
0010
,
1000
0100
1000
1001
,
0001
0010
0100
1000
,
0010
0010
0020
0030
,
1001
1000
0010
0100
,
0001
0010
0001
1001
,
1000
0100
0010
0001
,
0100
0100
0200
0310
,
2000
3000
0002
0003
,
0100
0100
0100
0000
,
0001
0010
1000
0100
,
0001
0001
0001
0000
,
0002
0003
2000
3000
,
0010
0010
0010
0000
,
1000
0100
0001
0010
,
1000
1000
1000
0000
,
0001
1000
0100
0010
,
0001
0001
0100
0000
,
0001
0010
1000
0010
,
0001
0001
1001
0000
,
1000
0001
0010
0100
,
1000
1000
0010
0000
,
1000
0100
0001
0100
,
1000
1000
0001
0001
,
1000
0000
0000
0000
,
0100
0100
0100
0000
,
1000
1000
1000
0000
,
0001
0001
0001
0000
,
0010
0010
0010
0000
,
0100
1000
0010
0010
,
0001
0001
0001
0000
,
1000
1000
1000
0000
,
0100
0100
0100
0000
,
0010
0001
0100
0100
,
1000
1000
0001
0001
,
0000
0001
0100
0010
,
1000
0000
0010
0010
,
0001
0010
0110
0000
,
1000
1000
0001
0001
,
0000
0001
0010
0100
,
1000
0000
0100
0100
,
0001
0100
0010
0010
,
0110
0000
0000
0000
,
0100
0010
0000
0000
,
1001
0001
0100
0010
,
1000
0100
1000
1001
,
0001
0010
0100
1000
,
0010
0010
0020
0030
,
1001
1000
0010
0100
,
0001
0010
0001
1001
,
1000
0100
0010
0001
,
0100
0100
0200
0300
,
0001
0001
0001
0000
,
1000
0100
0001
0001
,
1000
1000
1000
0000
,
0010
0010
0001
0000
,
1000
1000
1000
0000
,
0001
0010
1000
1000
,
0001
0001
0001
0000
,
0100
0100
1000
0001
,
1000
1000
1000
0000
,
0001
0001
0001
0000
,
0010
0010
0010
0000
,
0100
1000
0010
0010
,
0001
0001
0001
0000
,
1000
1000
1000
0000
,
0100
0100
0100
0000
,
0010
0001
0100
0100
,
1000
1000
0001
0001
,
0000
0001
0100
0010
,
1000
0000
0010
0010
,
0001
0010
0110
0000
,
1000
1000
0001
0001
,
0000
0001
0010
0100
,
1000
0000
0100
0100
,
0001
0100
0010
0010
,
0110
0000
0000
0000
,
0010
0100
0000
0000
,
1001
0001
0010
0100
,
1000
0010
1000
1001
,
0001
0100
0010
1000
,
0100
0100
0200
0310
,
1001
1000
0100
0010
,
0001
0100
0001
1001
,
1000
0010
0100
0001
,
0010
0010
0100
0010
,
0002
0003
0001
0001
,
0020
0030
0010
0010
,
2000
3000
1000
1000
,
0100
0000
0000
0001
0000
0001
0000
0001
;

//---------------dance-single - ----------------
#NOTES:
     dance-single:
     :
     Beginner:
     3:
     0.159666,0.235220,0.102270,0.014610,0.000000,153.000000,139.000000,14.000000,2.000000,0.000000,0.000000,0.159666,0.235220,0.102270,0.014610,0.000000,153.000000,139.000000,14.000000,2.000000,0.000000,0.000000:
0000
0000
0000
0000
,
0000
0000
0000
0000
,
0000
0000
0000
0000
,
0001
0000
1000
0000
,
0001
0000
0000
0000
,
0001
0000
0100
0000
,
0010
0000
0000
0000
,
1000
0000
0001
0000
,
1000
0000
0000
0000
,
1000
0000
0010
0000
,
0100
0000
0000
0000
,
0002
0000
0003
0000
,
0001
0000
0000
0000
,
0010
0000
0010
0000
,
0010
0000
0000
0000
,
2000
0000
3000
0000
,
1000
0000
0000
0000
,
0100
0000
0100
0000
,
0100
0000
0000
0000
,
0001
0000
0000
0000
,
0001
0000
0000
0000
,
1000
0000
0000
0000
,
1000
0000
0000
0000
,
0100
0000
0000
0000
,
0100
0000
0000
0000
,
0001
0000
0000
0000
,
0010
0000
0010
0000
,
0100
0000
0000
0000
,
0000
0000
0000
0000
,
1001
0000
0000
0000
,
1001
0000
0000
0000
,
0110
0000
0000
0000
,
0010
0000
0010
0000
,
0110
0000
0000
0000
,
0110
0000
0000
0000
,
1001
0000
0000
0000
,
0100
0000
0100
0000
,
1000
0000
0001
0000
,
0000
0010
0010
0000
,
0100
0000
0100
0000
,
0100
0100
0100
0000
,
1000
0000
0001
0000
,
0000
0010
0010
0000
,
0100
0000
0100
0000
,
0100
0100
0100
0000
,
0110
0000
0000
0000
,
0000
0000
0000
0000
,
0001
0000
1000
0000
,
0001
0000
0000
0000
,
0001
0000
0100
0000
,
0010
0000
0000
0000
,
1000
0000
0001
0000
,
1000
0000
0000
0000
,
1000
0000
0010
0000
,
0100
0000
0000
0000
,
0001
0000
0001
0000
,
0001
0001
0001
0000
,
0010
0000
0010
0000
,
1000
1000
1000
0000
,
0001
0000
0001
0000
,
0001
0001
0001
0000
,
0100
0000
0100
0000
,
1000
0000
1000
1000
,
1001
0000
0000
0000
,
1001
0000
0000
0000
,
0110
0000
0000
0000
,
0010
0000
0010
0000
,
0110
0000
0000
0000
,
0110
0000
0000
0000
,
1001
0000
0000
0000
,
0100
0000
0100
0000
,
1000
0000
0001
0000
,
0000
0010
0010
0000
,
0100
0000
0100
0000
,
0100
0100
0100
0000
,
1000
0000
0001
0000
,
0000
0010
0010
0000
,
0100
0000
0100
0000
,
0100
0100
0100
0000
,
0110
0000
0000
0000
,
0000
0000
0000
0000
,
0001
0000
1000
0000
,
0001
0000
0000
0000
,
0001
0000
0010
0000
,
0100
0000
0000
0000
,
1000
0000
0001
0000
,
1000
0000
0000
0000
,
1000
0000
0100
0000
,
0010
0000
0001
0000
,
1000
0000
0000
0000
,
1000
0000
0000
0000
,
0001
0000
0000
0000
,
0001
0000
0000
0000
;

//---------------dance-double - ----------------
#NOTES:
     dance-double:
     :
     Challenge:
     13:
     0.629271,0.610605,0.445603,0.204539,0.084007,603.000000,542.000000,61.000000,28.000000,0.000000,0.000000,0.629271,0.610605,0.445603,0.204539,0.084007,603.000000,542.000000,61.000000,28.000000,0.000000,0.000000:
00000000
00000000
00000000
00000000
,
00000000
00000000
00000000
00000000
,
00000000
00000000
00000000
00000000
,
00011000
00000000
00010000
01000000
10000000
00100000
10000000
00010000
,
00100000
01000000
10000000
01000000
00020000
00000000
00031000
00000000
,
00001010
00000000
00000001
00001000
00000010
00000100
00000001
00000010
,
00000100
00001000
00000100
00001000
00000200
00000000
00010300
00000000
,
00011000
00000000
00001000
00000010
00000001
00000100
00000001
00001000
,
00000100
00000010
00000001
00000010
00002000
00000000
00013000
00000000
,
01010000
00000000
10000000
00010000
01000000
00100000
10000000
01000000
,
00100000
00010000
00100000
00010000
00200000
00000000
00301000
00000000
,
00002000
00013000
00020000
00030100
,
00010000
00001000
00010000
00000000
00011000
00000000
00000010
00000000
,
00001000
00000000
00000001
00000010
00001000
00000000
00000010
00001000
,
00010000
00001000
00010000
00000000
00110000
00000000
00001000
00000000
,
00020000
00031000
00002000
00103000
,
00001000
00010000
00001000
00000000
00011000
00000000
01000000
00000000
,
00010000
00000000
10000000
01000000
00010000
00000000
01000000
00010000
,
00001000
00010000
00001000
00000000
00001100
00000000
00010000
00000000
,
00000010
00001000
00000001
00001000
00000010
00000100
00000001
00001000
,
00000001
00000000
00000010
00000000
00000100
00000000
00000010
00000000
00001000
00000000
00000000
00001000
00000000
00000000
00010000
00000000
,
00000100
00001000
00000100
00001000
00000010
00000100
00000001
00001000
,
00000001
00000000
00000100
00000000
00001000
00000000
00010000
00000000
00001000
00000000
00000000
00101000
00000000
00000000
00011000
00000000
,
01000000
00010000
10000000
00010000
01000000
00100000
10000000
00010000
,
10000000
00000000
01000000
00000000
00100000
00000000
01000000
00000000
00010000
00000000
00000000
00010000
00000000
00000000
00001000
00000000
,
00100000
00010000
00100000
00010000
01000000
00100000
10000000
00010000
,
10000000
11000000
01000000
01010000
,
00001000
00000000
00000000
00000000
,
00011000
00011000
00011000
00000000
,
00001000
00000000
00000000
00000000
00001000
00000000
00000000
00000000
00000100
00000000
00000000
00000101
00000000
00000000
00000101
00000000
,
00000010
00000000
00000000
00000000
00000010
00000000
00000000
00000000
00001000
00000000
00000000
00001100
00000000
00000000
00001100
00000000
,
00010000
00000000
00000000
00000000
00010000
00000000
00000000
00000000
00001000
00000000
00000000
00011000
00000000
00000000
00011000
00000000
,
00001000
00010000
00001000
01000000
00001000
00010000
01000000
10000000
,
00010000
00000000
00000000
00000000
00010000
00000000
00000000
00000000
00100000
00000000
00000000
10100000
00000000
00000000
10100000
00000000
,
01000000
00000000
00000000
00000000
01000000
00000000
00000000
00000000
00010000
00000000
00000000
00110000
00000000
00000000
00110000
00000000
,
00001000
00000000
00000000
00000000
00001000
00000000
00000000
00000000
00010000
00000000
00000000
00011000
00000000
00000000
00011000
00000000
,
00020000
00032000
00003020
00000032
,
00001003
00001100
00000001
00000101
,
00001000
00000010
00001000
00000001
00000010
00001000
00010000
01000000
,
10000000
00000000
01000000
00100000
00010000
00100000
00010000
10000000
,
01000000
10000000
00100000
00010000
00001000
00010000
00100000
00000000
,
10000000
10100000
00010000
00110000
,
10000000
01000000
10000000
00100000
00010000
00001000
00000100
00000001
,
00001000
00000000
00000001
00000010
00000100
00001000
00000100
00001000
,
00000001
00000100
00000001
00000000
00000200
00000000
00001300
00000000
,
00011000
00000000
00000000
00000000
,
00010000
00001000
00011000
00011000
00000000
00000000
00000000
00000000
,
00011000
00000000
00010000
01000000
10000000
00100000
10000000
00010000
,
00100000
01000000
10000000
01000000
00020000
00000000
00031000
00000000
,
00001010
00000000
00000001
00001000
00000010
00000100
00000001
00000010
,
00000100
00001000
00000100
00001000
00000200
00000000
00010300
00000000
,
00011000
00000000
00001000
00000010
00000001
00000100
00000001
00001000
,
00000100
00000010
00000001
00000010
00002000
00000000
00013000
00000000
,
01010000
00000000
10000000
00010000
01000000
00100000
10000000
01000000
,
00100000
00010000
00100000
00010000
00200000
00000000
00301000
00000000
,
00001000
00010000
01000000
00010000
00001000
00010000
00001000
00000000
,
00000010
00000100
00000000
00000010
00000100
00000000
00001000
00000000
00000100
00000000
00000010
00000000
00000001
00000000
00000010
00000000
,
00000100
00001000
00000100
00010000
00001000
00010000
00000100
00000000
,
00010000
00001000
00000000
00010000
00001000
00000000
00100000
00000000
00010000
00000000
10000000
00000000
00100000
00000000
00000000
00000000
,
00010000
00001000
00000010
00001000
00010000
00001000
00010000
00000000
,
01000000
00100000
00000000
01000000
00100000
00000000
00010000
00000000
00100000
00000000
01000000
00000000
10000000
00000000
01000000
00000000
,
00100000
00010000
00100000
00001000
00010000
00001000
00100000
00000000
,
00001000
00010000
00000000
00001000
00010000
00000000
00000100
00000000
00001000
00000000
00000001
00000000
00000100
00000000
00000010
00000000
,
00001000
00000000
00000000
00000000
00001000
00000000
00000000
00000000
00000100
00000000
00000000
00000101
00000000
00000000
00000101
00000000
,
00000010
00000000
00000000
00000000
00000010
00000000
00000000
00000000
00001000
00000000
00000000
00001100
00000000
00000000
00001100
00000000
,
00010000
00000000
00000000
00000000
00010000
00000000
00000000
00000000
00001000
00000000
00000000
00011000
00000000
00000000
00011000
00000000
,
00001000
00010000
00001000
01000000
00001000
00010000
01000000
10000000
,
00010000
00000000
00000000
00000000
00010000
00000000
00000000
00000000
00100000
00000000
00000000
10100000
00000000
00000000
10100000
00000000
,
01000000
00000000
00000000
00000000
01000000
00000000
00000000
00000000
00010000
00000000
00000000
00110000
00000000
00000000
00110000
00000000
,
00001000
00000000
00000000
00000000
00001000
00000000
00000000
00000000
00010000
00000000
00000000
00011000
00000000
00000000
00011000
00000000
,
00020000
00032000
00003020
00000032
,
00001003
00001100
00000001
00000101
,
00001000
00000010
00001000
00000001
00000010
00001000
00010000
01000000
,
10000000
00000000
01000000
00100000
00010000
00100000
00010000
10000000
,
01000000
10000000
00100000
00010000
00001000
00010000
00100000
00000000
,
10000000
10100000
00010000
00110000
,
10000000
01000000
10000000
00100000
00010000
00001000
00000100
00000001
,
00001000
00000000
00000001
00000010
00000100
00001000
00000100
00001000
,
00000001
00000100
00000001
00000000
00000200
00000000
00001300
00000000
,
00011000
00000000
00000000
00000000
,
00010000
00001000
00011000
00110000
00000000
00000000
00000000
00000000
,
00011000
00000000
00001000
00000010
00000001
00000100
00000001
00001000
,
00000100
00000010
00000001
00000010
00002000
00000000
00013000
00000000
,
01010000
00000000
10000000
00010000
01000000
00100000
10000000
01000000
,
00100000
00010000
00100000
00010000
00200000
00000000
00301000
00000000
,
00011000
00000000
00010000
01000000
10000000
00100000
10000000
00010000
,
00100000
01000000
10000000
01000000
00020000
00000000
00031000
00000000
,
00001010
00000000
00000001
00001000
00000010
00000100
00000001
00000010
,
00000100
00001000
00000100
00001000
00000010
00000100
00001000
00010000
,
00002000
00000000
00013000
01000000
00100000
01000000
00100000
01000000
,
20000000
00000000
31000000
00100000
00010000
00100000
00010000
00100000
,
00002000
00000000
00013000
00100000
01000000
00100000
01000000
00100000
,
10000000
01000000
00000000
00010000
00000000
00001000
00000000
00000100
;

//---------------dance-double - ----------------
#NOTES:
     dance-double:
     :
     Hard:
     12:
     0.569788,0.576682,0.233759,0.160709,0.084007,546.000000,514.000000,32.000000,22.000000,0.000000,0.000000,0.569788,0.576682,0.233759,0.160709,0.084007,546.000000,514.000000,32.000000,22.000000,0.000000,0.000000:
00000000
00000000
00000000
00000000
,
00000000
00000000
00000000
00000000
,
00000000
00000000
00000000
00000000
,
00011000
00000000
00001000
00010000
00000100
00001000
00000010
00001000
,
00000001
00000100
00000010
00001000
00000100
00000000
00010000
00000000
,
00011000
00000000
00001000
00100000
00010000
01000000
00100000
00010000
,
00001000
00010000
00001000
00010000
00002000
00000000
00003000
00000000
,
00011000
00000000
00010000
00001000
00100000
00010000
01000000
00010000
,
10000000
00100000
01000000
00010000
00100000
00000000
00001000
00000000
,
00011000
00000000
00010000
00000100
00001000
00000010
00000100
00001000
,
00010000
00001000
00010000
00001000
00020000
00000000
00031000
00000000
,
00200000
00010000
00302000
00010000
,
01003000
00100000
01000000
00000000
00010000
00000000
00010000
00000000
,
00100000
00000000
10000000
00100000
10000000
00000000
00100000
00010000
,
00100000
00001000
00010000
00000000
00011000
00000000
00010000
00000000
,
00000200
00001000
00020300
00001000
,
00030010
00000100
00000010
00000000
00001000
00000000
00001000
00000000
,
00000100
00000000
00000001
00000100
00000001
00000000
00000100
00001000
,
00000100
00010000
00001000
00000000
00011000
00000000
00001000
00000000
,
00100000
00010000
00100000
00010000
10000000
00100000
10000000
00100000
,
01000000
00000000
00010000
00000000
10000000
00000000
01000000
00000000
00100000
00000000
00000000
00100000
00000000
00000000
00010000
00000000
,
00000000
00100000
00001000
00010000
00000010
00001000
00000010
00001000
,
00000001
00000000
00000100
00000000
00000010
00000000
00001000
00000000
00000001
00000000
00000000
00000001
00000000
00000000
00000011
00000000
,
00000000
00001000
00000100
00001000
00000001
00000100
00000001
00000100
,
00000010
00000000
00001000
00000000
00000001
00000000
00000010
00000000
00000100
00000000
00000000
00000100
00000000
00000000
00001000
00000000
,
00000000
00000100
00010000
00001000
00100000
00010000
01000000
00010000
,
10000000
01100000
00010000
00011000
,
00000100
00000000
00000000
00000000
,
00010000
00010000
00011000
00000000
,
00001000
00000000
00000000
00000000
00001000
00000000
00000000
00000000
00010000
00000000
00000000
01000000
00000000
00000000
10000000
00000000
,
00100000
00000000
00000000
00000000
00100000
00000000
00000000
00000000
10000000
00000000
00000000
01000000
00000000
00000000
00100000
00000000
,
00010000
00000000
00000000
00000000
00010000
00000000
00000000
00000000
00100000
00000000
00000000
00001000
00000000
00000000
00010000
00000000
,
00001000
00010000
00001000
00000000
01000000
00010000
00100000
00001000
,
00010000
00000000
00000000
00000000
00010000
00000000
00000000
00000000
00001000
00000000
00000000
00000010
00000000
00000000
00000001
00000000
,
00000100
00000000
00000000
00000000
00000100
00000000
00000000
00000000
00000001
00000000
00000000
00000010
00000000
00000000
00000100
00000000
,
00001000
00000000
00000000
00000000
00001000
00000000
00000000
00000000
00000100
00000000
00000000
00010000
00000000
00000000
00001000
00000000
,
00000200
00002300
00023000
02030000
,
13000000
11000000
00010000
01010000
,
10000000
01000000
10000000
00010000
01000000
00100000
00010000
00001000
,
00010000
00000000
00001000
00000100
00000000
00000100
00000000
00001010
,
00000000
00001000
00000001
00000010
00000100
00001000
00000001
00000000
,
00001000
00001100
00000001
00000101
,
00001000
00000100
00001000
00000001
00000100
00000010
00000001
00000010
,
00001000
00000000
00000010
00010000
00000000
00010000
00000000
00101000
,
00000000
00010000
00010000
00000000
20000000
00000000
31000000
00000000
,
01100000
00000000
00000000
00000000
,
00010000
00010000
00001000
00010000
00000000
00000000
00000000
00000000
,
00011000
00000000
00001000
00010000
00000100
00001000
00000010
00001000
,
00000001
00000100
00000010
00001000
00000100
00000000
00010000
00000000
,
00011000
00000000
00001000
00100000
00010000
01000000
00100000
00010000
,
00001000
00010000
00001000
00010000
00002000
00000000
00003000
00000000
,
00011000
00000000
00010000
00001000
00100000
00010000
01000000
00010000
,
10000000
00100000
01000000
00010000
00100000
00000000
00001000
00000000
,
00011000
00000000
00010000
00000100
00001000
00000010
00000100
00001000
,
00010000
00001000
00010000
00001000
00020000
00000000
00030000
00000000
,
00001000
01000000
00001000
00010000
00001000
00010000
01000000
00000000
,
10000000
01000000
00000000
10000000
01000000
00000000
00100000
00000000
00010000
00000000
10000000
00000000
00010000
00000000
00000000
00000000
,
10000000
01000000
10000000
00010000
01000000
00100000
01000000
00000000
,
00010000
01000000
00000000
00010000
01000000
00000000
00001000
00000000
00010000
00000000
00000100
00000000
00001000
00000000
00000000
00000000
,
00000001
00000100
00000001
00001000
00000100
00000010
00001000
00000000
,
00010000
00001000
00000000
00010000
00001000
00000000
00000010
00000000
00000001
00000000
00001000
00000000
00000001
00000000
00000000
00000000
,
00001000
00000100
00001000
00000001
00000100
00000010
00000100
00000000
,
00000100
00001000
00000000
00000100
00001000
00000000
00010000
00000000
00100000
00000000
01000000
00000000
00100000
00000000
00010000
00000000
,
00001000
00000000
00000000
00000000
00001000
00000000
00000000
00000000
00010000
00000000
00000000
00100000
00000000
00000000
10000000
00000000
,
01000000
00000000
00000000
00000000
01000000
00000000
00000000
00000000
10000000
00000000
00000000
00100000
00000000
00000000
01000000
00000000
,
00010000
00000000
00000000
00000000
00010000
00000000
00000000
00000000
01000000
00000000
00000000
00001000
00000000
00000000
00010000
00000000
,
00001000
00010000
00001000
00000000
00100000
00010000
01000000
00001000
,
00010000
00000000
00000000
00000000
00010000
00000000
00000000
00000000
00001000
00000000
00000000
00000100
00000000
00000000
00000001
00000000
,
00000010
00000000
00000000
00000000
00000010
00000000
00000000
00000000
00000001
00000000
00000000
00000100
00000000
00000000
00000010
00000000
,
00001000
00000000
00000000
00000000
00001000
00000000
00000000
00000000
00000010
00000000
00000000
00010000
00000000
00000000
00001000
00000000
,
00000020
00002030
00023000
00230000
,
10300000
10100000
00010000
00110000
,
10000000
00100000
10000000
00010000
00100000
01000000
00010000
00001000
,
00010000
00000000
00001000
00000010
00000000
00000010
00000000
00001100
,
00000000
00001000
00000001
00000100
00000010
00001000
00000001
00000000
,
00001000
00001010
00000001
00000011
,
00001000
00000010
00001000
00000001
00000010
00000100
00000001
00000100
,
00001000
00000000
00000100
00010000
00000000
00010000
00000000
01001000
,
00000000
00010000
00010000
00000000
20000000
00000000
30100000
00000000
,
01100000
00000000
00000000
00000000
,
00001000
00001000
00010000
00001000
00000000
00000000
00000000
00000000
,
00011000
00000000
00001000
00010000
00000010
00001000
00000100
00001000
,
00000001
00000010
00000100
00001000
00000010
00000000
00010000
00000000
,
00011000
00000000
00001000
01000000
00010000
00100000
01000000
00010000
,
00001000
00010000
00001000
00010000
00002000
00000000
00013000
00000000
,
00011000
00000000
00010000
00001000
01000000
00010000
00100000
00010000
,
10000000
01000000
00100000
00010000
01000000
00000000
00001000
00000000
,
00011000
00000000
00010000
00000010
00001000
00000100
00000010
00001000
,
00010000
00001000
00010000
00001000
01000000
00010000
00100000
01000000
,
20000000
00000000
31000000
00100000
00000000
00100000
00000000
00100000
,
00002000
00000000
00013000
00000010
00000000
00000010
00000000
00000010
,
00000200
00000000
00000301
00000010
00000000
00000010
00000000
00000010
,
00001000
00010000
00000000
01000000
00000000
10000000
00000000
00010000
;

//---------------dance-double - ----------------
#NOTES:
     dance-double:
     :
     Medium:
     9:
     0.425776,0.407070,0.189929,0.160709,0.054787,408.000000,382.000000,26.000000,22.000000,0.000000,0.000000,0.425776,0.407070,0.189929,0.160709,0.054787,408.000000,382.000000,26.000000,22.000000,0.000000,0.000000:
00000000
00000000
00000000
00000000
,
00000000
00000000
00000000
00000000
,
00000000
00000000
00000000
00000000
,
00011000
00000000
01000000
00000000
10000000
01000000
10000000
00000000
,
00100000
01000000
00010000
00010000
,
00100000
00000000
00001000
00000000
00010000
00001000
00010000
00000000
,
00000010
00001000
00000010
00000000
00020000
00000000
00030000
00000000
,
00011000
00000000
00000100
00000000
00000001
00000100
00000001
00000000
,
00000010
00000100
00001000
00001000
,
00000010
00000000
00010000
00000000
00001000
00010000
00001000
00000000
,
00100000
00010000
00100000
00000000
00002000
00000000
00003000
00000000
,
00020000
00030000
00002000
00003000
,
00100000
00100000
01100000
00000000
,
10000000
00000000
01000000
00010000
01000000
00000000
00010000
00001000
,
00010000
00001000
00011000
00000000
,
00002000
00003000
00020000
00030000
,
00000100
00000100
00000110
00000000
,
00000001
00000000
00000010
00001000
00000010
00000000
00001000
00010000
,
00001000
00010000
00011000
00000000
,
00100000
00001000
00100000
00000000
00010000
01000000
00010000
00000000
,
10000000
00000000
00000000
00000000
10000000
00000000
00000000
00000000
00100000
00000000
00000000
00100000
00000000
00000000
00100000
00000000
,
00000000
01000000
00010000
00000000
01000000
00001000
00010000
00000000
,
00000100
00000000
00001000
00000000
00000100
00000000
00000000
00000000
00010000
00000000
00000000
00010000
00000000
00000000
00010000
00000000
,
00000000
00010000
00000100
00000000
00001000
00000010
00001000
00000000
,
00000001
00000000
00000000
00000000
00000001
00000000
00000000
00000000
00000100
00000000
00000000
00000100
00000000
00000000
00000100
00000000
,
00000000
00000010
00001000
00000000
00000010
00010000
00001000
00000000
,
00100000
00100000
01000000
00100000
,
00001000
00000000
00000000
00000000
,
00010000
00010000
00010000
00000000
,
01000000
00000000
00000000
00000000
01000000
00000000
00000000
00000000
10000000
00000000
00000000
10000000
00000000
00000000
01000000
00000000
,
00100000
00000000
00000000
00000000
00100000
00000000
00000000
00000000
00010000
00000000
00000000
00010000
00000000
00000000
00010000
00000000
,
00000000
00000000
00000000
00000000
00100000
00000000
00000000
00000000
00001000
00000000
00000000
00001000
00000000
00000000
00010000
00000000
,
00001000
01000000
00001000
00000000
00010000
00000000
00001000
00000000
,
00000000
00000000
00000000
00000000
00000010
00000000
00000000
00000000
00000001
00000000
00000000
00000001
00000000
00000000
00000010
00000000
,
00000100
00000000
00000000
00000000
00000100
00000000
00000000
00000000
00001000
00000000
00000000
00001000
00000000
00000000
00001000
00000000
,
00000000
00000000
00000000
00000000
00000100
00000000
00000000
00000000
00010000
00000000
00000000
00010000
00000000
00000000
00001000
00000000
,
00200000
00320000
02030000
03200000
,
10300000
11000000
00010000
01010000
,
00000000
00000000
10000000
00000000
01000000
00010000
00001000
00000000
,
00011000
00000000
00001000
00001000
,
00010000
00001000
00000100
00000000
00000110
00000000
00000000
00000000
,
00001000
00001010
00000001
00000011
,
00000000
00000000
00001000
00000000
00000001
00000100
00001000
00000000
,
00011000
00000000
00001000
00001000
,
01000000
00010000
01000000
00000000
00200000
00000000
01300000
00000000
,
10010000
00000000
00000000
00000000
,
00010000
00100000
00010000
00100000
00000000
00000000
00000000
00000000
,
00011000
00000000
01000000
00000000
10000000
01000000
10000000
00000000
,
00100000
01000000
00010000
00010000
,
00100000
00000000
00001000
00000000
00010000
00001000
00010000
00000000
,
00000010
00001000
00000010
00000000
00020000
00000000
00030000
00000000
,
00011000
00000000
00000100
00000000
00000001
00000100
00000001
00000000
,
00000010
00000100
00001000
00001000
,
00000010
00000000
00010000
00000000
00001000
00010000
00001000
00000000
,
00100000
00010000
00100000
00000000
00002000
00000000
00003000
00000000
,
00010000
00001000
00010000
00000000
00000010
00000000
00000010
00000000
,
00001000
00000000
00001000
00000000
00000001
00000010
00001000
00000000
,
00000010
00000100
00000010
00000000
00000001
00000000
00000001
00000000
,
00001000
00000000
00000100
00000000
00010000
00001000
00010000
00000000
,
00001000
00000000
00001000
00000000
01000000
00010000
01000000
00000000
,
00010000
00000000
00010000
00000000
10000000
01000000
00010000
00000000
,
01000000
00100000
01000000
00000000
10000000
00000000
10000000
00000000
,
00010000
00000000
00100000
00000000
00001000
00010000
00001000
00010000
,
00100000
00000000
00000000
00000000
00100000
00000000
00000000
00000000
10000000
00000000
00000000
10000000
00000000
00000000
00100000
00000000
,
01000000
00000000
00000000
00000000
01000000
00000000
00000000
00000000
00010000
00000000
00000000
00010000
00000000
00000000
00010000
00000000
,
00000000
00000000
00000000
00000000
01000000
00000000
00000000
00000000
00001000
00000000
00000000
00001000
00000000
00000000
00010000
00000000
,
00001000
00100000
00001000
00000000
00010000
00000000
00001000
00000000
,
00000000
00000000
00000000
00000000
00000100
00000000
00000000
00000000
00000001
00000000
00000000
00000001
00000000
00000000
00000100
00000000
,
00000010
00000000
00000000
00000000
00000010
00000000
00000000
00000000
00001000
00000000
00000000
00001000
00000000
00000000
00001000
00000000
,
00000000
00000000
00000000
00000000
00000010
00000000
00000000
00000000
00010000
00000000
00000000
00010000
00000000
00000000
00001000
00000000
,
02000000
03020000
00230000
02300000
,
13000000
10100000
00010000
00110000
,
00000000
00000000
10000000
00000000
00100000
00010000
00001000
00000000
,
00011000
00000000
00001000
00001000
,
00010000
00001000
00000010
00000000
00000110
00000000
00000000
00000000
,
00001000
00001100
00000001
00000101
,
00000000
00000000
00001000
00000000
00000001
00000010
00001000
00000000
,
00011000
00000000
00001000
00001000
,
00100000
00010000
00100000
00000000
02000000
00000000
03100000
00000000
,
10010000
00000000
00000000
00000000
,
10000000
00010000
00100000
00001000
00000000
00000000
00000000
00000000
,
00011000
00000000
00000010
00000000
00000001
00000010
00000001
00000000
,
00000100
00000010
00001000
00001000
,
00000100
00000000
00010000
00000000
00001000
00010000
00001000
00000000
,
01000000
00010000
01000000
00000000
00002000
00000000
00013000
00000000
,
00011000
00000000
00100000
00000000
10000000
00100000
10000000
00000000
,
01000000
00100000
00010000
00010000
,
01000000
00000000
00001000
00000000
00010000
00001000
00010000
00000000
,
00000100
00001000
00000100
00000000
00010000
00001000
00010000
00000000
,
00002000
00003000
00001000
00001000
,
00200000
00300000
00100000
00100000
,
00000020
00000030
00000010
00000010
,
00001000
00000000
00000000
00000100
00000000
00010000
00000000
00001000
;

//---------------dance-double - ----------------
#NOTES:
     dance-double:
     :
     Easy:
     6:
     0.303678,0.339225,0.073050,0.116880,0.000000,291.000000,281.000000,10.000000,16.000000,0.000000,0.000000,0.303678,0.339225,0.073050,0.116880,0.000000,291.000000,281.000000,10.000000,16.000000,0.000000,0.000000:
00000000
00000000
00000000
00000000
,
00000000
00000000
00000000
00000000
,
00000000
00000000
00000000
00000000
,
00001001
00000001
00000100
00000010
,
00001000
00000100
00010000
00010000
,
00000100
00000010
00001000
00010000
,
00001000
00001000
00002000
00003000
,
00011000
00001000
00100000
00010000
,
01000000
00100000
10000000
10000000
,
01000000
00100000
01000000
00010000
,
00001000
00001000
00002000
00003000
,
00200000
00300000
02000000
03000000
,
10000000
10000000
10000000
00000000
,
01000000
00010000
01000000
00010000
,
00001000
00001000
00010000
00000000
,
00000200
00000300
00000020
00000030
,
00000001
00000001
00000001
00000000
,
00000010
00001000
00000010
00001000
,
00010000
00010000
00001000
00000000
,
00010000
00000000
00010000
00000000
,
00010000
01000000
10000000
00000000
,
00100000
00000000
00100000
00000000
,
00010000
00001000
00010000
00000000
,
00001000
00000000
00001000
00000000
,
00001000
00000100
00000001
00000000
,
00000010
00000000
00000010
00000000
,
00001000
00001000
00010000
00010000
,
00001000
00000000
00000000
00000000
,
00010000
00010000
00010000
00000000
,
01000000
00000000
01000000
00000000
,
01000000
01000000
01000000
00000000
,
00100000
00000000
00100000
00000000
,
10000000
10000000
00010000
00001000
,
00010000
00000000
00010000
00000000
,
00010000
00010000
00010000
00000000
,
00001000
00000000
00001000
00001000
,
00000200
00000300
00000020
00000030
,
00001000
00001000
00000001
00000001
,
00000000
00000001
00000010
00001000
,
00010000
00000000
00010000
00010000
,
01000000
10000000
10010000
00000000
,
10000000
10000000
00010000
00010000
,
00000000
10000000
00100000
00010000
,
00001000
00000000
00001000
00001000
,
00000100
00000001
00000010
00001000
,
00000110
00000000
00000000
00000000
,
00001000
00000001
00000000
00000000
,
00001001
00000001
00000100
00000010
,
00001000
00000100
00010000
00010000
,
00000100
00000010
00001000
00010000
,
00001000
00001000
00002000
00003000
,
00011000
00001000
00100000
00010000
,
01000000
00100000
10000000
10000000
,
01000000
00100000
01000000
00010000
,
00001000
00001000
00002000
00003000
,
00010000
00010000
00010000
00000000
,
00000100
00001000
00000010
00000000
,
00000001
00000001
00000001
00000000
,
00001000
00001000
00010000
00000000
,
00001000
00001000
00001000
00000000
,
01000000
00010000
00100000
00000000
,
10000000
10000000
10000000
00000000
,
00010000
00010000
00001000
00010000
,
01000000
00000000
01000000
00000000
,
01000000
01000000
01000000
00000000
,
00100000
00000000
00100000
00000000
,
10000000
10000000
00010000
00001000
,
00010000
00000000
00010000
00000000
,
00010000
00010000
00010000
00000000
,
00001000
00000000
00001000
00001000
,
00000200
00000300
00000020
00000030
,
00001000
00001000
00000001
00000001
,
00000000
00000001
00000010
00001000
,
00010000
00000000
00010000
00010000
,
01000000
10000000
10010000
00000000
,
10000000
10000000
00010000
00010000
,
00000000
10000000
00100000
00010000
,
00001000
00000000
00001000
00001000
,
00000100
00000001
00000010
00001000
,
00000110
00000000
00000000
00000000
,
00001000
00000001
00000000
00000000
,
00001001
00000001
00000010
00000100
,
00001000
00000010
00010000
00010000
,
00000010
00000100
00001000
00010000
,
00001000
00001000
00002000
00013000
,
00011000
00001000
01000000
00010000
,
00100000
01000000
10000000
10000000
,
00100000
01000000
00100000
00010000
,
00001000
00001000
00010000
00001000
,
00020000
00030000
00010000
00010000
,
00000200
00000300
00000100
00000100
,
00000020
00000030
00000010
00000010
,
00001000
00000000
00000000
00001000
00000000
00010000
00000000
00001000
;
