#TITLE:Just Be Friends;
#SUBTITLE:;
#ARTIST:Dixie Flatline feat. 巡音ルカ;
#TITLETRANSLIT:;
#SUBTITLETRANSLIT:;
#ARTISTTRANSLIT:Dixie Flatline feat. Megurine Luka;
#GENRE:J-Music;
#CREDIT:;
#BANNER:Just Be Friends.png;
#BACKGROUND:Just Be Friends-bg.png;
#LYRICSPATH:;
#CDTITLE:../cdtitle.png;
#MUSIC:Just Be Friends.ogg;
#OFFSET:-0.040000;
#SAMPLESTART:64.945999;
#SAMPLELENGTH:15.000000;
#SELECTABLE:YES;
#BPMS:0.000000=128.000000
;
#STOPS:
;
#BGCHANGES:-0.375=Just Be Friends.avi=1.000=0=0=0=StretchNoLoop====,
99999=-nosongbg-=1.000=0=0=0 // don't automatically add -songbackground-
;
#KEYSOUNDS:;
#ATTACKS:;

//---------------dance-double - ----------------
#NOTES:
     dance-double:
     :
     Hard:
     11:
     0.414681,0.482405,0.166739,0.121264,0.000000,383.000000,361.000000,22.000000,16.000000,0.000000,0.000000,0.414681,0.482405,0.166739,0.121264,0.000000,383.000000,361.000000,22.000000,16.000000,0.000000,0.000000:
00000000
00000000
00000000
00000000
,
00000000
00000000
00000000
00000000
,
00000000
00000000
00000000
00000000
,
00000000
00000000
00000000
00000000
,
00000000
00000000
00000000
00000000
,
00000000
00000000
00000000
00000000
,
00000000
00000000
00000000
00000000
,
00000000
00000000
00000000
00000000
,
00000000
00000000
00000000
00000000
,
00000000
00000000
00000000
00000000
,
00000000
00000000
00000000
00000000
00000000
00000000
00010000
00001000
,
00011000
00000100
00000001
00001000
,
00000100
00001000
00000010
00000100
00000001
00000010
00001000
00010000
,
00011000
01000000
10000000
00010000
,
01000000
00100000
10000000
00010000
00100000
01000000
00010000
00001000
,
00011000
00000100
00000001
00001000
,
00000100
00001000
00000010
00000100
00000001
00000010
00001000
00010000
,
01000000
00000000
00010000
00001000
00000100
00000000
00001000
00010000
,
00200000
00300000
00200000
00300000
00100000
01000000
10010000
00000000
,
00100000
00000000
00100000
00000000
01000000
10000000
00010000
00000000
,
01000000
00000000
00100000
00010000
00001000
00000010
00000001
00000000
,
00001000
00000000
00001000
00000000
00000010
00000100
00000001
00000000
,
00000010
00000000
00001000
00010000
00100000
10000000
00010000
00000000
,
10000000
01000000
00010000
01000000
10000000
01000000
00010000
00000000
,
00001000
00000100
00000001
00000100
00001000
00000100
00000001
00000000
,
00000010
00000100
00001000
00000000
00000010
00000100
00000001
00000000
,
00000010
00001000
00010000
00100000
02000000
00000000
03100000
00000000
,
00010000
00001000
00100000
00000000
00010000
01000000
00100000
00000000
,
00010000
00001000
00100000
00000000
00010000
01000000
00100000
10000000
,
01000000
00000000
00100000
00010000
00001000
00000100
00000010
00000000
,
00000001
00000010
00000100
00001000
00010000
00100000
01000000
00000000
,
10000000
01000000
00100000
01000000
10000000
00100000
00010000
00000000
,
00001000
00000100
00000001
00000010
00000100
00000010
00000001
00000000
,
00001000
00000010
00011000
00000000
00010000
00000100
00001100
00000000
,
00000120
00000000
00000100
00000000
00000031
00000100
00001000
00010000
,
11000000
00000000
00110000
00000000
10000000
00100000
00010000
00000010
,
00001000
00000001
00000110
00000000
00001000
00000001
00000101
00000000
,
00000010
00010000
00011000
00000000
00100000
01000000
11000000
00000000
,
10000000
00100000
00010000
00001000
00010000
00001000
00000010
00000001
,
00001000
00000000
00000101
00000010
00001000
00000010
00001000
00000000
,
00000001
00000010
00001000
00010000
00000000
00010000
00001000
00010000
,
01000000
10000000
00010000
01000000
00010000
10000000
01000000
00010000
,
00001000
00010000
00100000
10000000
00000000
01000000
00010000
00001000
,
00000101
00000010
00001010
00000000
00000001
00000010
00001000
00100000
,
00010000
10000000
01100000
00000000
00010000
10000000
11000000
00000000
,
00100000
00001000
00011000
00000000
00000010
00000100
00000101
00000000
,
00000001
00000010
00001000
00010000
00001000
00010000
00100000
10000000
,
00010000
00000000
11000000
00100000
00010000
00100000
00010000
00000000
,
10000000
00100000
00010000
00001000
00000000
00010000
00001000
00000100
,
00000001
00001000
00000100
00001000
00000001
00000100
00000000
00001000
,
00010000
00001000
00000010
00000001
00000100
00001000
00010000
01000000
,
20000000
30010000
00020000
00130000
,
01000000
10000000
01000000
00100000
00001000
00000100
00000001
00000100
,
00000020
00000000
00001030
00000000
00002000
00000000
00003001
00000100
,
00000010
00010000
00001000
00100000
01000000
10000000
00010000
01000000
,
00200000
01300000
02000000
03010000
,
10000000
00010000
00100000
01000000
10000000
00100000
00010000
00001000
,
00000100
00000000
00001000
00010000
01000000
00000000
00010000
00001000
,
00000010
00001000
00010000
00001000
00000100
00000010
00001000
00001000
,
00000002
00001003
00002000
00003100
,
00000010
00000001
00000010
00000100
00010000
00100000
10000000
00100000
,
02000000
00000000
03010000
00000000
00020000
00000000
10030000
00100000
,
01000000
00001000
00010000
00000100
00000010
00000001
00001000
00000010
,
00000200
00000310
00000020
00001030
,
00000001
00001000
00000100
00000010
00000001
00000100
00001000
00010000
,
00100000
00000000
00010000
00001000
00000010
00000000
00001000
00010000
,
01000000
00010000
00001000
00010000
00100000
01000000
00010000
10000000
,
10010000
00000000
00000000
00000000
;

//---------------dance-double - ----------------
#NOTES:
     dance-double:
     :
     Easy:
     5:
     0.177566,0.253898,0.037895,0.045474,0.000000,164.000000,159.000000,5.000000,6.000000,0.000000,0.000000,0.177566,0.253898,0.037895,0.045474,0.000000,164.000000,159.000000,5.000000,6.000000,0.000000,0.000000:
// measure 0
00000000
00000000
00000000
00000000
,  // measure 1
00000000
00000000
00000000
00000000
,  // measure 2
00000000
00000000
00000000
00000000
,  // measure 3
00000000
00000000
00000000
00000000
,  // measure 4
00000000
00000000
00000000
00000000
,  // measure 5
00000000
00000000
00000000
00000000
,  // measure 6
00000000
00000000
00000000
00000000
,  // measure 7
00000000
00000000
00000000
00000000
,  // measure 8
00000000
00000000
00000000
00000000
,  // measure 9
00000000
00000000
00000000
00000000
,  // measure 10
00000000
00000000
00000000
00000000
,  // measure 11
00010000
00000000
00001000
00000000
,  // measure 12
00100000
00100000
00100000
00000000
,  // measure 13
00001000
00000000
00010000
00000000
,  // measure 14
00000010
00000010
00000010
00000000
,  // measure 15
00010000
00000000
00001000
00000000
,  // measure 16
00100000
00100000
00100000
00000000
,  // measure 17
00001000
00000000
00010000
00000000
,  // measure 18
00002000
00000000
00000000
00003000
,  // measure 19
01000000
00000000
00100000
00000000
,  // measure 20
10000000
00010000
10000000
00000000
,  // measure 21
01000000
00000000
00100000
00000000
,  // measure 22
00010000
10000000
00010000
00000000
,  // measure 23
10000000
01000000
00010000
00000000
,  // measure 24
00001000
00000100
00000001
00000000
,  // measure 25
00001000
00000000
00000001
00000000
,  // measure 26
00000010
00000100
00000010
00000000
,  // measure 27
00000001
00000000
00000001
00000000
,  // measure 28
00000010
00001000
00010000
00000000
,  // measure 29
00001000
00010000
00000010
00000000
,  // measure 30
00010000
00001000
00100000
00000000
,  // measure 31
01000000
10000000
00100000
00000000
,  // measure 32
01000000
00010000
00100000
00000000
,  // measure 33
00001000
00000000
00010000
00000000
,  // measure 34
00002000
00000000
00000000
00003000
,  // measure 35
00011000
00000010
00000010
00000100
,  // measure 36
00000001
00000001
00001000
00001000
,  // measure 37
00000001
00000001
00000010
00000010
,  // measure 38
00001000
00020000
00030000
00010000
,  // measure 39
01000000
01000000
01000000
10000000
,  // measure 40
00010000
00010000
00010000
10000000
,  // measure 41
00100000
00100000
01000000
01000000
,  // measure 42
00001000
00010000
00001000
00010000
,  // measure 43
00011000
00100000
00100000
01000000
,  // measure 44
10000000
10000000
00010000
00010000
,  // measure 45
10000000
10000000
00100000
00100000
,  // measure 46
00010000
00002000
00003000
00001000
,  // measure 47
00000100
00000100
00000100
00000001
,  // measure 48
00001000
00001000
00001000
00000001
,  // measure 49
00000010
00000010
00000100
00000100
,  // measure 50
00010000
00001000
00010000
00001000
,  // measure 51
00020000
00000000
00000000
00000000
,  // measure 52
00000000
00000000
00030000
00000000
,  // measure 53
00002000
00000000
00000000
00000000
,  // measure 54
00000000
00000000
00003000
00000000
,  // measure 55
00010000
00000000
00001000
00000000
,  // measure 56
00100000
00100000
00100000
00000000
,  // measure 57
00001000
00000000
00010000
00000000
,  // measure 58
00000010
00000010
00000010
00001000
,  // measure 59
00001001
00000000
00000001
00000000
,  // measure 60
00000010
00000010
00000010
00000100
,  // measure 61
00010000
00000000
00000100
00000000
,  // measure 62
00010000
00001000
01000000
00010000
,  // measure 63
10010000
00000000
10000000
00000000
,  // measure 64
01000000
01000000
01000000
00100000
,  // measure 65
00001000
00000000
00100000
00000000
,  // measure 66
00001000
00010000
00000010
00001000
,  // measure 67
00001001
00000000
00000000
00000000
;

//---------------dance-double - ----------------
#NOTES:
     dance-double:
     :
     Medium:
     8:
     0.292334,0.380846,0.090948,0.234950,0.000000,270.000000,258.000000,12.000000,31.000000,0.000000,0.000000,0.292334,0.380846,0.090948,0.234950,0.000000,270.000000,258.000000,12.000000,31.000000,0.000000,0.000000:
00000000
00000000
00000000
00000000
,
00000000
00000000
00000000
00000000
,
00000000
00000000
00000000
00000000
,
00000000
00000000
00000000
00000000
,
00000000
00000000
00000000
00000000
,
00000000
00000000
00000000
00000000
,
00000000
00000000
00000000
00000000
,
00000000
00000000
00000000
00000000
,
00000000
00000000
00000000
00000000
,
00000000
00000000
00000000
00000000
,
00000000
00000000
00000000
00010000
,
00011000
00001000
00000010
00000001
,
00001000
00000001
00000100
00001000
,
00011000
00010000
01000000
10000000
,
00010000
10000000
00100000
00010000
,
00011000
00001000
00000010
00000001
,
00001000
00000001
00000100
00002000
,
00013000
00020000
00031000
00002000
,
00020000
00000000
00000000
00033000
,
01000000
00010000
00010000
00100000
,
01000000
00000000
10000000
00000000
00001000
00010000
00001000
00000000
,
00000010
00001000
00001000
00000100
,
00000010
00000000
00000001
00000000
00010000
00001000
00010000
00000000
,
01000000
00000000
10000000
00000000
00100000
00010000
00001000
00000000
,
00000100
00000000
00000001
00000000
00000010
00001000
00010000
00000000
,
01000000
10010000
00100000
10010000
,
01000000
00100000
01000000
00000000
00200000
00000000
01300000
00000000
,
20000000
30010000
00002000
00013000
,
20000000
00000000
30010000
00000000
00001000
00010000
00001000
00000000
,
00000010
00000000
00000001
00000000
00000010
00001000
00010000
00000000
,
00100000
00000000
10000000
00000000
00100000
00010000
00001000
00000000
,
00010000
00001000
00000100
00000000
00002000
00000000
00013000
00000000
,
00001000
00010000
01000000
00000000
00020000
00000000
00031000
00000000
,
00000200
00001300
00020000
01030000
,
20000000
00000000
00000000
30010000
,
01100000
10010000
01100000
10000000
,
01000000
00010000
00001000
00000000
00000100
00000001
00000001
00000000
,
00000010
00001000
00010000
00000000
00001000
00010000
01000000
00000000
,
20000000
00010000
00020000
00000000
30030000
00000000
00010000
00000000
,
00100000
00000000
01000000
00000000
10000000
00010000
10000000
00000000
,
00100000
00010000
00001000
00000000
00020000
00000000
00031000
00000000
,
00000100
00000001
00000100
00000000
00000010
00001000
00000010
00000000
,
00000100
00000001
00001000
00000000
00000100
00001000
00000001
00000000
,
00000110
00001001
00000110
00000001
,
00000100
00001000
00010000
00000000
01000000
10000000
10000000
00000000
,
00100000
00010000
00001000
00000000
00010000
00001000
00000100
00000000
,
00000002
00001000
00002000
00000000
00003003
00000000
00001000
00000000
,
00000010
00000000
00000100
00000000
00000001
00001000
00000001
00000000
,
00000010
00001000
00010000
00000000
00002000
00000000
00013000
00000000
,
01000000
10000000
01000000
00000000
00100000
00010000
00100000
00000000
,
01000000
10000000
00010000
00000000
01000000
00010000
10000000
00010000
,
20000000
01000000
00010000
01000000
,
30010000
00000000
01000000
00000000
00100000
00000000
10000000
01000000
,
00020000
00000010
00001000
00000010
,
00031000
00000000
00000100
00000000
00000001
00000000
00001000
00000100
,
00000020
00000001
00000100
00000031
,
00001000
00000001
00000100
00002000
,
00013000
00020000
01030000
02000000
,
13000000
00000000
00100000
00000000
00010000
00000000
00001000
00000100
,
00000002
00000100
00001000
00000100
,
00001003
00000000
00000100
00000000
00000010
00000000
00000001
00000100
,
00002000
00100000
00010000
00100000
,
00013000
00000000
01000000
00000000
10000000
00000000
00010000
01000000
,
00200000
10000000
01000000
10300000
,
00010000
10000000
01000000
00020000
,
00031000
00002000
00003100
00000200
,
00000301
00000000
00000010
00000000
00001000
00000000
00010000
00001000
,
00011000
00000000
00000000
00000000
;

//---------------dance-single - ----------------
#NOTES:
     dance-single:
     :
     Beginner:
     2:
     0.075790,0.152339,0.022737,0.030316,0.000000,70.000000,67.000000,3.000000,4.000000,0.000000,0.000000,0.075790,0.152339,0.022737,0.030316,0.000000,70.000000,67.000000,3.000000,4.000000,0.000000,0.000000:
0000
0000
0000
0000
,
0000
0000
0000
0000
,
0000
0000
0000
0000
,
0000
0000
0000
0000
,
0000
0000
0000
0000
,
0000
0000
0000
0000
,
0000
0000
0000
0000
,
0000
0000
0000
0000
,
0000
0000
0000
0000
,
0000
0000
0000
0000
,
0000
0000
0000
0000
,
0100
0000
0000
0000
,
0010
0010
0010
0000
,
0100
0000
0000
0000
,
0010
0010
0010
0000
,
0100
0000
0000
0000
,
0010
0010
0010
0000
,
0001
0000
1000
0000
,
0001
0000
0000
0000
,
1000
0000
0000
0000
,
0010
0000
0000
0000
,
0100
0000
0000
0000
,
0001
0000
0000
0000
,
0001
0000
0000
0000
,
0010
0000
0000
0000
,
0100
0000
0000
0000
,
1000
0000
0000
0000
,
1000
0000
0000
0000
,
0010
0000
0000
0000
,
0001
0000
0000
0000
,
0100
0000
0000
0000
,
0001
0000
0000
0000
,
0010
0000
0000
0000
,
1000
0000
0000
0000
,
0100
0000
0000
0000
,
1001
0000
0000
0000
,
0001
0000
0000
0000
,
0010
0000
0000
0000
,
0100
0000
0000
0000
,
1000
0000
0000
0000
,
0001
0000
0000
0000
,
0100
0000
0000
0000
,
0010
0000
0000
0000
,
1001
0000
0000
0000
,
1000
0000
0000
0000
,
0100
0000
0000
0000
,
0010
0000
0000
0000
,
0001
0000
0000
0000
,
1000
0000
0000
0000
,
0010
0000
0000
0000
,
0100
0000
0000
0000
,
0002
0000
0000
0000
,
0003
0000
0000
0000
,
2000
0000
0000
0000
,
3000
0000
0000
0000
,
0002
0000
0000
0000
,
0003
0000
0000
0000
,
2000
0000
0000
0000
,
3000
0000
0000
0000
,
0100
0000
0000
0000
,
0010
0010
0010
0000
,
0100
0000
0000
0000
,
0010
0010
0010
0000
,
0100
0000
0000
0000
,
0010
0010
0010
0000
,
0001
0000
1000
0000
,
0001
0000
0000
0000
,
1001
0000
0000
0000
;

//---------------dance-single - ----------------
#NOTES:
     dance-single:
     :
     Hard:
     11:
     0.426591,0.507795,0.242529,0.121264,0.000000,394.000000,362.000000,32.000000,16.000000,0.000000,0.000000,0.426591,0.507795,0.242529,0.121264,0.000000,394.000000,362.000000,32.000000,16.000000,0.000000,0.000000:
0000
0000
0000
0000
,
0000
0000
0000
0000
,
0000
0000
0000
0000
,
0000
0000
0000
0000
,
0000
0000
0000
0000
,
0000
0000
0000
0000
,
0000
0000
0000
0000
,
0000
0000
0000
0000
,
0000
0000
0000
0000
,
0000
0000
0000
0000
,
0000
0000
0000
0000
0000
0000
0100
0010
,
1001
0010
0100
0100
,
0010
1000
0100
0001
0100
1000
0010
0100
,
1001
0100
0010
0010
,
0100
1000
0010
0001
0010
1000
0100
0010
,
1001
0010
0100
0100
,
0010
1000
0100
0001
0100
1000
0010
0100
,
0101
0000
0010
0100
1100
0000
0010
0100
,
0201
0300
1200
0300
0100
0010
1001
0000
,
0010
0000
0010
0000
0100
1000
0001
0000
,
0100
0000
0010
1000
0100
1000
0010
0000
,
0100
0000
0100
0000
0010
1000
0001
0000
,
0010
0000
0100
1000
0010
1000
0100
0000
,
1000
0100
0001
0100
1000
0100
0001
0000
,
1000
0010
0001
0010
1000
0010
0001
0000
,
1000
0010
0100
0000
0001
0010
0100
0000
,
1000
0001
1000
0001
0200
0000
0310
0000
,
0100
0001
0010
0000
0100
0010
0001
0000
,
1000
0010
0100
0000
0010
1000
0100
1000
,
0001
0100
0010
0100
1000
0100
0010
0000
,
1000
0100
0010
0100
0001
0100
0010
0000
,
0001
0100
1000
0100
0001
0010
0100
0000
,
1000
0100
0001
0100
1000
0010
0100
0000
,
0001
0010
0011
0000
1000
0010
1010
0000
,
0120
0000
0100
0000
0130
0010
1000
0100
,
1100
0000
0011
0000
0110
1000
0001
0100
,
0010
1000
1001
0000
0100
0010
0011
0000
,
0100
0010
1010
0000
0001
0010
1100
0000
,
1000
0010
0100
0001
0100
0001
1000
0100
,
0010
0000
1001
0010
0100
0010
0100
0000
,
0001
0010
0100
1000
0000
1000
0100
0010
,
0001
1000
0010
0100
0010
1000
0001
0010
,
0100
0010
0001
1000
0000
0010
0001
0100
,
0101
0010
1010
0000
1001
0001
0010
0100
,
1000
0001
0110
0000
0001
0010
1100
0000
,
1000
0010
0101
0000
1000
0100
0011
0000
,
0001
0100
0010
1000
0010
1000
0001
0010
,
0100
0000
1001
0010
0100
0010
0100
0000
,
0001
0100
0010
1000
0000
1000
0010
0100
,
0001
1000
0100
0010
0100
1000
0000
0001
,
0100
0010
0100
0001
1000
0001
0010
0100
,
0020
0031
0002
0103
,
0100
1000
0100
0010
1000
0100
0010
0100
,
2000
0000
3001
0000
0002
0000
0103
0010
,
0001
0010
0100
0001
1000
0010
1000
0100
,
0020
0031
0002
1003
,
1000
0001
0100
1000
0100
0001
0010
0100
,
1100
0000
0010
0100
0101
0000
0001
0010
,
0100
0001
0100
1000
0010
0100
0001
1000
,
0020
1030
2000
3100
,
0100
0001
0100
0010
0001
0100
0010
0100
,
0002
0000
1003
0000
2000
0000
3100
0010
,
1000
0010
0100
1000
0001
0010
0001
0100
,
0020
1030
2000
3001
,
0001
1000
0100
0001
0100
1000
0010
0100
,
0101
0000
0010
0100
1100
0000
1000
0010
,
0100
1000
0100
0001
0010
0100
1000
0001
,
1001
0000
0000
0000
;

//---------------dance-single - ----------------
#NOTES:
     dance-single:
     :
     Easy:
     5:
     0.176483,0.253898,0.030316,0.045474,0.000000,163.000000,159.000000,4.000000,6.000000,0.000000,0.000000,0.176483,0.253898,0.030316,0.045474,0.000000,163.000000,159.000000,4.000000,6.000000,0.000000,0.000000:
0000
0000
0000
0000
,
0000
0000
0000
0000
,
0000
0000
0000
0000
,
0000
0000
0000
0000
,
0000
0000
0000
0000
,
0000
0000
0000
0000
,
0000
0000
0000
0000
,
0000
0000
0000
0000
,
0000
0000
0000
0000
,
0000
0000
0000
0000
,
0000
0000
0000
0000
,
1000
0000
0001
0000
,
0010
0010
0010
0000
,
0001
0000
1000
0000
,
0010
0010
0010
0000
,
1000
0000
0001
0000
,
0010
0010
0010
0000
,
0001
0000
1000
0000
,
0002
0000
0000
0003
,
0001
0000
0100
0000
,
0010
0100
0010
0000
,
1000
0000
0100
0000
,
0010
0100
0010
0000
,
0001
0010
0100
0000
,
1000
0010
0100
0000
,
0001
0000
1000
0000
,
0001
1000
0001
0000
,
1000
0000
0001
0000
,
1000
0100
0001
0000
,
1000
0001
0001
0000
,
1000
0010
0001
0000
,
1000
0010
0001
0000
,
1000
0100
0001
0000
,
1000
0000
0001
0000
,
2000
0000
0000
3000
,
1001
0010
0010
0100
,
0001
0001
1000
1000
,
0001
0001
0010
0010
,
0100
0020
0030
0010
,
0001
1000
1000
0001
,
0100
0010
0010
0100
,
0001
0001
1000
1000
,
0001
0010
0100
0010
,
1001
0010
0010
0100
,
1000
1000
0001
0001
,
1000
1000
0010
0010
,
0100
0020
0030
0010
,
1000
0001
0001
1000
,
0100
0010
0010
0100
,
1000
1000
0001
0001
,
1000
0010
0100
0010
,
2000
0000
0000
0000
,
0000
0000
3000
0000
,
0002
0000
0000
0000
,
0000
0000
0003
0000
,
1000
0000
0001
0000
,
0010
0010
0010
0000
,
0001
0000
1000
0000
,
0001
1000
0001
1000
,
1001
0000
0001
0000
,
0010
0010
0010
0001
,
1000
0000
0001
0000
,
0100
0100
0100
0001
,
1000
0000
0001
0000
,
0010
0010
0010
0001
,
1000
0000
0001
0000
,
1000
0001
1000
0001
,
1001
0000
0000
0000
;

//---------------dance-single - ----------------
#NOTES:
     dance-single:
     :
     Medium:
     8:
     0.292334,0.380846,0.075790,0.234950,0.000000,270.000000,260.000000,10.000000,31.000000,0.000000,0.000000,0.292334,0.380846,0.075790,0.234950,0.000000,270.000000,260.000000,10.000000,31.000000,0.000000,0.000000:
0000
0000
0000
0000
,
0000
0000
0000
0000
,
0000
0000
0000
0000
,
0000
0000
0000
0000
,
0000
0000
0000
0000
,
0000
0000
0000
0000
,
0000
0000
0000
0000
,
0000
0000
0000
0000
,
0000
0000
0000
0000
,
0000
0000
0000
0000
,
0000
0000
0000
0010
,
1001
0100
0010
0001
,
1000
0001
0100
0010
,
1001
0100
0010
1000
,
0001
1000
0100
0010
,
1001
0100
0010
0001
,
1000
0001
0100
0020
,
1030
2000
3001
0002
,
2000
0000
0000
3003
,
1000
0100
0001
0100
,
1000
0000
0100
0000
0001
0100
0001
0000
,
1000
0010
0001
0010
,
1000
0000
0010
0000
0001
0010
0001
0000
,
1000
0000
0010
0000
0001
0100
1000
0000
,
0001
0000
0100
0000
1000
0010
0001
0000
,
1000
0010
1000
0000
0001
0010
0001
0000
,
1000
0100
1000
0000
0002
0000
0103
0000
,
0020
0031
0020
1030
,
0020
0000
0130
0000
0001
1000
0001
0000
,
1000
0000
0001
0000
1000
0100
0010
0000
,
0001
0000
1000
0000
0001
0100
0010
0000
,
1000
0100
0001
0000
0200
0000
1300
0000
,
0001
0100
1000
0000
0200
0000
0301
0000
,
2000
3100
0002
0013
,
2000
0000
0000
3001
,
0110
1001
0110
0001
,
1000
0100
0001
0000
0100
1000
0010
0000
,
0100
0001
0010
0000
0001
0100
1000
0000
,
0200
0010
0020
0000
0330
0000
0010
0000
,
1000
0000
0100
0000
0010
0001
1000
0000
,
0001
1000
0100
0000
2000
0000
3001
0000
,
0100
0001
0100
0000
0010
1000
0010
0000
,
0100
0001
1000
0000
0100
1000
0001
0000
,
0110
1001
0110
1000
,
0001
0100
1000
0000
0100
0001
0010
0000
,
0100
1000
0010
0000
1000
0100
0001
0000
,
0200
0010
0020
0000
0330
0000
0010
0000
,
0001
0000
0100
0000
0010
1000
0001
0000
,
1000
0001
0100
0000
0002
0000
1003
0000
,
0100
1000
0100
0000
0010
0001
0010
0000
,
0100
1000
0001
0000
0100
0001
1000
0001
,
2000
0010
0001
0010
,
3001
0000
1000
0000
0100
0000
0010
0001
,
0200
1000
0010
1000
,
0310
0000
1000
0000
0100
0000
0010
0001
,
0020
0100
0001
0100
,
0031
0100
0010
0020
,
1030
2000
3001
0002
,
0013
0000
0100
0000
1000
0000
0001
1000
,
0002
0010
1000
0010
,
1003
0000
0001
0000
0100
0000
0010
1000
,
0200
0001
0010
0001
,
0310
0000
0001
0000
0100
0000
0010
1000
,
0020
0100
1000
0100
,
1030
0100
0010
0020
,
0031
0002
1003
2000
,
3010
0000
0100
0000
0001
0000
1000
0001
,
1001
0000
0000
0000
;
