#TITLE:情操ディストピア;
#SUBTITLE:;
#ARTIST:mami;
#TITLETRANSLIT:Jousou dystopia;
#SUBTITLETRANSLIT:;
#ARTISTTRANSLIT:;
#GENRE:BEMANI;
#CREDIT:;
#BANNER:Jousou dystopia.png;
#BACKGROUND:Jousou dystopia-bg.png;
#LYRICSPATH:;
#CDTITLE:../cdtitle.png;
#MUSIC:Jousou dystopia.ogg;
#OFFSET:-0.402000;
#SAMPLESTART:54.085999;
#SAMPLELENGTH:15.000000;
#SELECTABLE:YES;
#BPMS:0.000000=228.000000
;
#STOPS:
;
#BGCHANGES:-99.000=../bg.avi=1.000=0=0=1=====,
99999=-nosongbg-=1.000=0=0=0 // don't automatically add -songbackground-
;
#KEYSOUNDS:;
#ATTACKS:;

//---------------dance-single - ----------------
#NOTES:
     dance-single:
     :
     Beginner:
     3:
     0.158876,0.272289,0.147059,0.082721,0.000000,121.000000,105.000000,16.000000,9.000000,0.000000,0.000000,0.158876,0.272289,0.147059,0.082721,0.000000,121.000000,105.000000,16.000000,9.000000,0.000000,0.000000:
0000
0000
0000
0000
,
0000
0000
0000
0000
,
0000
0000
0000
0000
,
0000
0000
0000
0000
,
0000
0000
0000
0000
,
1001
0000
0000
0000
,
1001
0000
0000
0000
,
0110
0000
0000
0000
,
0010
0000
0000
0000
,
1000
0000
1000
0000
,
1000
0000
0000
0000
,
0001
0000
0001
0000
,
0001
0000
0000
0000
,
0010
0000
0010
0000
,
0010
0000
0000
0000
,
0100
0000
0100
0000
,
0010
0000
0000
0000
,
0001
0000
0000
0000
,
0200
0000
0000
0000
,
0300
0000
0000
0000
,
0020
0000
0000
0000
,
0030
0000
0000
0000
,
2000
0000
0000
0000
,
3000
0000
0000
0000
,
0002
0000
0000
0000
,
0003
0000
0000
0000
,
1001
0000
0000
0000
,
1001
0000
0000
0000
,
0110
0000
0000
0000
,
0110
0000
0000
0000
,
1001
0000
0000
0000
,
1001
0000
0000
0000
,
0110
0000
0000
0000
,
0100
0000
0000
0000
,
0010
0000
0010
0000
,
0010
0000
0000
0000
,
0001
0000
0001
0000
,
0001
0000
0000
0000
,
0100
0000
0000
0000
,
0000
0000
0000
0000
,
1000
0000
1000
0000
,
1000
0000
0000
0000
,
0100
0000
0100
0000
,
0100
0000
0000
0000
,
0001
0000
0001
0000
,
0001
0000
0000
0000
,
0010
0000
0000
0000
,
0100
0000
0000
0000
,
0010
0000
0010
0000
,
0010
0000
0000
0000
,
0001
0000
0000
0000
,
1000
0000
1000
0000
,
1000
0000
0000
0000
,
0001
0000
0001
0000
,
0001
0000
0000
0000
,
0100
0000
0000
0000
,
0010
0000
0000
0000
,
0110
0000
0000
0000
,
1001
0000
0000
0000
,
0001
0000
0001
0000
,
0001
0000
0000
0000
,
1000
0000
1000
0000
,
1000
0000
0000
0000
,
0010
0000
0000
0000
,
0100
0000
0000
0000
,
0110
0000
0000
0000
,
1001
0000
0000
0000
,
0100
0000
0000
0000
,
0000
0000
0000
0000
,
0010
0000
0000
0000
,
0000
0000
0000
0000
,
0100
0000
0000
0000
,
0010
0000
0000
0000
,
0100
0000
0000
0000
,
0010
0000
0000
0000
,
1000
0000
1000
0000
,
1000
0000
0000
0000
,
0100
0000
0100
0000
,
0100
0000
0000
0000
,
0010
0000
0010
0000
,
0010
0000
0000
0000
,
0001
0000
0001
0000
,
0001
0000
0000
0000
,
0200
0000
0000
0000
,
0300
0000
0000
0000
,
0020
0000
0000
0000
,
0030
0000
0000
0000
,
2000
0000
0000
0000
,
3000
0000
0000
0000
,
0001
0000
1000
0000
,
0001
0000
0000
0000
,
1000
0000
1000
0000
,
1000
0000
0000
0000
,
0001
0000
0001
0000
,
0001
0000
0000
0000
,
0100
0000
0000
0000
,
0010
0000
0000
0000
,
0110
0000
0000
0000
,
2002
0000
0000
3003
;

//---------------dance-single - ----------------
#NOTES:
     dance-single:
     :
     Hard:
     15:
     0.703781,0.816866,0.670956,0.542279,0.000000,536.000000,463.000000,73.000000,59.000000,0.000000,0.000000,0.703781,0.816866,0.670956,0.542279,0.000000,536.000000,463.000000,73.000000,59.000000,0.000000,0.000000:
0000
0000
0000
0000
,
0000
0000
0000
0000
,
0000
0000
0000
0000
,
0000
0000
0000
0000
,
0000
0000
0000
0000
,
1100
0000
1100
0000
0100
1000
0010
0000
,
0010
1000
0100
0000
0010
0001
0100
0000
,
0101
0000
0101
0000
0100
0001
0010
0000
,
0200
0000
0020
0330
,
0110
0011
0110
1100
,
1001
0000
0001
0100
1000
0100
0001
0000
,
0101
1001
1100
1001
,
0001
0100
0010
1000
0001
0010
0100
0000
,
0110
1100
0110
0011
,
1001
0000
1000
0010
0001
0010
1000
0000
,
0001
0010
0100
0000
1000
0010
0100
0000
,
0101
1100
1001
0000
,
0100
0010
0100
0000
0100
0000
0000
0000
,
0200
0320
2030
3200
,
0320
0032
2000
3003
,
0002
0203
0320
2030
,
3200
0320
0002
0033
,
0020
0230
2300
3020
,
0230
0302
2000
3003
,
0002
0023
0230
2300
,
3020
0230
0002
0303
,
0101
0000
0101
0000
0001
0010
0100
0000
,
1100
0000
1100
0000
1000
0010
0100
0000
,
0110
0000
0110
0000
0100
0001
0010
0000
,
0110
0000
0110
0000
0100
1000
0010
0000
,
1010
0000
1010
0000
1000
0100
0010
0000
,
0011
0000
0011
0000
0001
0100
0010
0000
,
0110
0000
0110
0000
0010
1000
0100
0000
,
0020
0000
0000
0030
,
0001
0000
1000
0010
0100
0010
1000
0200
,
0010
0001
0010
1300
,
0001
0000
1000
0100
0010
0100
1000
0020
,
0100
0001
0100
1030
,
0002
0000
0023
0000
,
0230
0000
2300
0000
,
3010
0010
0100
0100
,
0001
0100
0010
0100
1000
0100
0010
0100
,
0001
0000
1000
0010
0100
0010
1000
0200
,
0010
0000
0001
0000
0010
0000
1300
0001
,
1000
0000
0001
0100
0010
0100
0001
0020
,
0100
1000
0100
0031
,
2000
0010
3002
0010
,
2003
0100
3002
0100
,
1003
1000
0001
0001
,
1000
0100
0010
0100
0001
0100
0010
0100
,
1000
0001
0010
0100
0010
0001
1000
0010
,
0100
1100
0100
0101
,
0001
0010
0100
0010
0001
0000
1001
0000
,
0010
0000
0110
0000
0001
1000
0100
0010
,
0001
1001
1010
0000
,
0100
0000
0101
0000
0001
0010
0100
0000
,
1000
0001
0010
0001
0100
0010
1000
0000
,
1001
0100
0010
0000
1001
0010
0100
0000
,
0001
1000
0100
0010
0100
1000
0001
0100
,
0010
0011
0010
1010
,
1000
0100
0010
0100
1000
0000
1001
0000
,
0100
0000
0110
0000
1000
0001
0010
0100
,
1000
1001
0101
0000
,
0010
0000
1010
0000
1000
0100
0010
0000
,
0001
1000
0100
1000
0010
0100
0001
0000
,
1001
0001
0010
0100
1000
0001
1000
0010
,
0110
0101
1001
0000
,
0100
0000
0100
0000
,
0100
0000
0100
0000
,
0010
0000
0010
0000
,
0010
0000
0010
0000
,
0001
0000
0000
1000
0100
0000
0000
0010
,
0001
0000
0000
1000
0010
0000
0000
0100
,
0002
0013
2000
3010
,
0001
0100
0010
1000
0010
0100
0001
1000
,
0100
0011
2000
3010
,
0100
0001
0010
0100
2000
0000
3010
0000
,
1000
0100
0001
0100
1000
0010
0001
0010
,
1000
0001
0010
0100
2000
0000
3020
0000
,
0031
0000
1010
0000
0001
1000
0100
0000
,
1000
0010
0100
0001
0200
0000
0310
0000
,
1000
0100
0001
0100
1000
0010
0100
0001
,
0011
0110
1001
0000
,
0200
0310
2000
3001
,
0010
0100
1000
0100
0020
0000
0031
0000
,
0200
0000
0310
1000
0001
0010
0100
0010
,
0002
2003
0002
3003
,
0020
0130
2000
3001
,
1000
0010
0100
0010
0000
1000
0001
0000
,
0011
0010
0100
0000
1010
0010
0100
0000
,
0001
1000
0100
0010
0100
1000
0001
0100
,
0010
0011
0010
1010
,
1000
0100
0010
0100
1000
0000
1001
0000
,
0100
0000
0110
0000
1000
0001
0010
0100
,
1000
1001
0101
0000
,
0010
0000
1010
0000
1000
0100
0010
0000
,
0001
1000
0100
1000
0010
0100
0001
0000
,
1001
0001
0010
0100
1000
0001
1000
0010
,
0110
0101
1001
0100
;

//---------------dance-single - ----------------
#NOTES:
     dance-single:
     :
     Medium:
     12:
     0.563288,0.635340,0.579044,0.413603,0.000000,429.000000,366.000000,63.000000,45.000000,0.000000,0.000000,0.563288,0.635340,0.579044,0.413603,0.000000,429.000000,366.000000,63.000000,45.000000,0.000000,0.000000:
0000
0000
0000
0000
,
0000
0000
0000
0000
,
0000
0000
0000
0000
,
0000
0000
0000
0000
,
0000
0000
0000
0000
,
1001
1001
0110
0110
,
0001
0001
1000
1000
,
1001
1001
0110
0110
,
2002
0000
0000
3003
,
1000
1100
0001
0101
,
0010
0000
1000
0100
0000
0010
0001
0000
,
1000
1010
0100
0101
,
0001
1000
0100
0010
0000
0001
1000
0000
,
0001
0011
1000
1010
,
0100
0000
0001
0010
0000
0100
1000
0000
,
0001
0110
1000
0110
,
0001
1000
1001
0000
,
0100
0010
0110
0000
,
0002
0000
2003
0000
,
3020
0000
0130
0000
,
0002
0000
0023
0000
,
0230
0000
1300
0000
,
2000
0000
3002
0000
,
0023
0000
0130
0000
,
2000
0000
3020
0000
,
0230
0000
0301
0000
,
1001
1001
0100
0010
,
0110
0110
0001
0100
,
0101
0101
0010
1000
,
1010
1010
1000
0001
,
1001
1001
0010
0100
,
0110
0110
1000
0010
,
1010
1010
0100
0001
,
2000
0000
0000
3000
,
0100
0000
1001
0000
1000
0010
0000
0200
,
0000
0010
0010
0310
,
0100
0000
1001
0000
0001
0010
0000
0200
,
0000
0010
0010
0310
,
0002
0000
0203
0000
,
0320
0000
2030
0000
,
3001
0001
1000
1000
,
0100
0010
0000
0010
0000
0100
0000
0100
,
0010
0000
1001
0000
0010
0100
0000
0002
,
0000
1000
1000
1003
,
0100
0000
1001
0000
0100
0010
0000
2000
,
0000
0001
0001
3001
,
2000
0000
3020
0000
,
0230
0000
0302
0000
,
1003
1000
0001
0001
,
0010
0100
0010
0100
0000
1000
0001
0000
,
0010
0100
1000
0000
0001
0100
0010
0000
,
1000
1010
0001
0011
,
0001
0000
1000
0010
0100
0000
0110
0000
,
0001
0000
1001
0000
1000
0001
0010
0000
,
0100
0010
0110
0000
,
0001
1001
1000
1010
,
0100
0001
0000
0010
0000
0010
0100
0000
,
1000
0100
1000
0000
0001
0100
0001
0000
,
1000
0100
0010
0001
0000
0001
1000
0000
,
0001
0101
1000
1100
,
1000
0000
0001
0100
0010
0000
0110
0000
,
1000
0000
1001
0000
0001
1000
0100
0000
,
0010
0100
0110
0000
,
1000
1001
0001
0101
,
0010
0000
1000
0100
0000
0100
0010
0000
,
0001
1000
0010
0000
0100
0001
1000
0000
,
0100
0010
1001
0000
,
0001
0000
0001
0000
,
0001
0000
0001
0000
,
1000
0000
1000
0000
,
1000
0000
1000
0000
,
0002
0003
0020
0030
,
0200
0300
2000
3000
,
0002
0013
2000
3010
,
0001
1000
0010
0000
0100
0000
0001
0000
,
1001
0100
0020
0130
,
1000
0010
0100
0000
0002
0000
1003
0000
,
0001
0010
0001
0000
1000
0100
1000
0000
,
0001
0100
0001
0000
2000
0000
3010
0000
,
1001
0010
0200
0310
,
0001
0100
0010
0000
2000
0000
3001
0000
,
1000
0100
0010
0000
0001
0100
0010
0000
,
1000
0001
1001
0000
,
2000
3100
0002
0103
,
1000
0001
1000
0000
0002
0000
1003
0000
,
0010
0000
0001
0010
0001
0000
0010
0000
,
2000
0001
0002
3003
,
0002
0013
2000
3010
,
0001
1000
0001
0100
0000
0010
1000
0000
,
0001
0010
0000
0000
1000
0010
0000
0000
,
0001
0100
0010
1000
0000
1000
0001
0000
,
1000
1100
0001
0101
,
0001
0000
1000
0100
0010
0000
0110
0000
,
0001
0000
1001
0000
1000
0001
0100
0000
,
0010
0100
0110
0000
,
0001
1001
1000
1100
,
0010
0000
0001
0100
0000
0100
0010
0000
,
1000
0001
0010
0000
0100
1000
0001
0000
,
0100
0010
1001
0010
;

//---------------dance-double - ----------------
#NOTES:
     dance-double:
     :
     Hard:
     15:
     0.701155,0.862247,0.652574,0.533088,0.000000,534.000000,463.000000,71.000000,58.000000,0.000000,0.000000,0.701155,0.862247,0.652574,0.533088,0.000000,534.000000,463.000000,71.000000,58.000000,0.000000,0.000000:
// measure 0
00000000
00000000
00000000
00000000
,  // measure 1
00000000
00000000
00000000
00000000
,  // measure 2
00000000
00000000
00000000
00000000
,  // measure 3
00000000
00000000
00000000
00000000
,  // measure 4
00000000
00000000
00000000
00000000
,  // measure 5
01100000
00000000
01100000
00000000
10000000
00010000
00100000
00000000
,  // measure 6
01000000
10000000
00100000
00000000
00010000
00001000
00000010
00000000
,  // measure 7
00000110
00000000
00000110
00000000
00000001
00001000
00000010
00000000
,  // measure 8
00000200
00000000
00000020
00000330
,  // measure 9
00000110
00001010
00011000
00110000
,  // measure 10
01100000
00000000
10000000
00010000
00100000
01000000
10000000
00000000
,  // measure 11
10010000
00101000
00010010
00001001
,  // measure 12
00000001
00000010
00001000
00000010
00001000
00010000
00100000
00000000
,  // measure 13
01100000
01010000
00011000
00001100
,  // measure 14
00000110
00000000
00000001
00001000
00000100
00000010
00000001
00000000
,  // measure 15
00000010
00001000
00010000
00000000
00001000
00010000
00100000
00000000
,  // measure 16
01100000
01010000
00011000
00000000
,  // measure 17
00001000
00100000
00010000
00000000
00010000
00000000
00000000
00000000
,  // measure 18
02000000
03200000
20300000
32000000
,  // measure 19
03020000
00032000
00000200
00003300
,  // measure 20
00000020
00000230
00000302
00000023
,  // measure 21
00002030
00023000
00200000
00330000
,  // measure 22
20000000
32000000
03020000
00032000
,  // measure 23
00003200
00000302
00000020
00000033
,  // measure 24
00000002
00000203
00002300
00023000
,  // measure 25
02030000
23000000
00200000
30300000
,  // measure 26
10100000
00000000
10100000
00000000
10000000
01000000
00100000
00000000
,  // measure 27
00110000
00000000
00110000
00000000
00010000
01000000
00001000
00000000
,  // measure 28
01001000
00000000
01001000
00000000
00001000
00010000
00000100
00000000
,  // measure 29
00010100
00000000
00010100
00000000
00000100
00001000
00000010
00000000
,  // measure 30
00000101
00000000
00000101
00000000
00000001
00000010
00000100
00000000
,  // measure 31
00001100
00000000
00001100
00000000
00001000
00000010
00010000
00000000
,  // measure 32
00010010
00000000
00010010
00000000
00010000
00001000
00100000
00000000
,  // measure 33
00002000
00000000
00000000
00003000
,  // measure 34
00010000
00000000
00001000
00010000
01000000
10000000
01000000
00020000
,  // measure 35
00001000
00000100
00001000
00030010
,  // measure 36
00010000
00000000
00001000
00010000
00100000
10000000
00100000
00020000
,  // measure 37
00001000
00000010
00001000
00030100
,  // measure 38
00002000
00000000
00003002
00000000
,  // measure 39
00000023
00000000
00000230
00000000
,  // measure 40
00010300
00010000
00001000
00001000
,  // measure 41
00010000
00100000
01000000
00100000
10000000
01000000
00100000
01000000
,  // measure 42
00010000
00000000
00001000
00010000
01000000
10000000
01000000
00020000
,  // measure 43
00001000
00000000
00000100
00000000
00001000
00000000
00030010
00010000
,  // measure 44
00001000
00000000
00010000
00001000
00000010
00000001
00000010
00002000
,  // measure 45
00010000
00100000
00010000
01003000
,  // measure 46
02000000
00100000
03020000
00100000
,  // measure 47
20030000
01000000
30200000
01000000
,  // measure 48
10300000
10000000
00010000
00010000
,  // measure 49
00100000
01000000
10000000
01000000
00100000
00010000
01000000
00100000
,  // measure 50
01000000
00001000
00010000
00000010
00001000
00000100
00000010
00000001
,  // measure 51
00000100
00000101
00000010
00001010
,  // measure 52
00010000
00001000
00100000
00010000
01000000
00000000
01100000
00000000
,  // measure 53
00010000
00000000
10010000
00000000
01000000
00100000
00010000
00001000
,  // measure 54
00000100
00000010
00001001
00000000
,  // measure 55
00000001
00000000
00000011
00000000
00000100
00001000
00000010
00000000
,  // measure 56
00010000
00001000
00100000
00010000
10000000
00100000
01000000
00000000
,  // measure 57
10010000
01000000
00100000
00000000
10010000
00100000
01000000
00000000
,  // measure 58
00010000
10000000
01000000
00100000
00010000
01000000
00100000
10000000
,  // measure 59
01000000
11000000
00100000
00110000
,  // measure 60
00001000
00010000
00000010
00001000
00000100
00000000
00000110
00000000
,  // measure 61
00001000
00000000
00001001
00000000
00000100
00000010
00001000
00010000
,  // measure 62
01000000
00100000
10010000
00000000
,  // measure 63
10000000
00000000
10100000
00000000
01000000
00010000
00100000
00000000
,  // measure 64
01000000
10000000
00100000
00010000
00000000
00001000
00000010
00000000
,  // measure 65
00001001
00000001
00000010
00000100
00001000
00000001
00000100
00000010
,  // measure 66
00001010
00011000
00110000
00000000
,  // measure 67
01000000
00000000
01000000
00000000
,  // measure 68
01000000
00000000
01000000
00000000
,  // measure 69
00100000
00000000
00100000
00000000
,  // measure 70
00100000
00000000
00100000
00000000
,  // measure 71
00010000
00000000
00000000
10000000
00100000
00000000
00000000
01000000
,  // measure 72
00001000
00000000
00000000
00010000
00000100
00000000
00000000
00000010
,  // measure 73
00000002
00001003
00000020
00000130
,  // measure 74
00000001
00001000
00000100
00000010
00000001
00000100
00001000
00010000
,  // measure 75
00001000
00011000
00200000
01300000
,  // measure 76
00100000
00010000
01000000
00100000
20000000
00000000
30010000
00000000
,  // measure 77
10000000
01000000
00100000
00010000
01000000
00100000
00010000
00001000
,  // measure 78
00010000
00001000
00000010
00000100
00002000
00000000
00003001
00000000
,  // measure 79
00000100
00000000
00001010
00000000
00000001
00000010
00000100
00000000
,  // measure 80
00000010
00000001
00000100
00001000
00020000
00000000
00031000
00000000
,  // measure 81
00011000
00100000
00010000
01000000
00100000
10000000
00010000
00100000
,  // measure 82
01100000
11000000
10010000
00000000
,  // measure 83
20000000
30100000
00020000
00130000
,  // measure 84
10000000
00010000
00100000
01000000
00020000
00000000
00031000
00000000
,  // measure 85
00200000
00000000
00301000
00010000
00000100
00001000
00000010
00000100
,  // measure 86
00000002
00002003
00000002
00003003
,  // measure 87
00000020
00000130
00002000
00003001
,  // measure 88
00001000
00000010
00000100
00000001
00000000
00000100
00000010
00000000
,  // measure 89
00001010
00010000
00001000
00100000
00110000
00001000
00010000
00000010
,  // measure 90
00001000
00000001
00000010
00000100
00001000
00000010
00000100
00000001
,  // measure 91
00000010
00000011
00000100
00001100
,  // measure 92
00010000
00001000
01000000
00010000
00100000
00000000
01100000
00000000
,  // measure 93
00010000
00000000
10010000
00000000
00100000
01000000
00010000
00001000
,  // measure 94
00000010
00000100
00001001
00000000
,  // measure 95
00000001
00000000
00000101
00000000
00000010
00001000
00000100
00000000
,  // measure 96
00000010
00000001
00000100
00001000
00000000
00010000
01000000
00000000
,  // measure 97
10010000
10000000
01000000
00100000
00010000
10000000
00100000
01000000
,  // measure 98
01010000
00011000
00001100
00000010
;

//---------------dance-single - ----------------
#NOTES:
     dance-single:
     :
     Easy:
     8:
     0.387342,0.453814,0.266544,0.413603,0.000000,295.000000,266.000000,29.000000,45.000000,0.000000,0.000000,0.387342,0.453814,0.266544,0.413603,0.000000,295.000000,266.000000,29.000000,45.000000,0.000000,0.000000:
0000
0000
0000
0000
,
0000
0000
0000
0000
,
0000
0000
0000
0000
,
0000
0000
0000
0000
,
0000
0000
0000
0000
,
0100
0100
0110
0000
,
0110
0000
1001
0000
,
0010
0010
0110
0000
,
2002
0000
0000
3003
,
0001
0010
0001
0010
,
0100
1000
0010
0100
,
0010
1000
0010
1000
,
0001
0010
0100
1000
,
0001
0010
0001
0010
,
0100
1000
0010
0100
,
1001
0000
0110
0000
,
0001
0001
1001
0000
,
1000
1000
1000
0000
,
0002
0000
0000
0000
,
2000
0000
3003
0000
,
2000
0000
0000
0000
,
0002
0000
3003
0000
,
0020
0000
0000
0000
,
0200
0000
0330
0000
,
0200
0000
0000
0000
,
0020
0000
0330
0000
,
0010
0010
0110
0000
,
0001
0001
1001
0000
,
0100
0100
0110
0000
,
1000
1000
1001
0000
,
0010
0010
0110
0000
,
0001
0001
1001
0000
,
0100
0100
0110
0000
,
2000
0000
0000
3000
,
0001
0010
1000
0010
,
0002
0000
1000
0000
,
1003
0010
0001
0010
,
2000
0000
0001
0000
,
3002
0000
0000
0000
,
2003
0000
0000
0000
,
3001
0000
0001
0000
,
0010
0100
0010
0100
,
1000
0010
0001
0010
,
2000
0000
0001
0000
,
3001
0010
1000
0010
,
0002
0000
1000
0000
,
2003
0000
3010
0000
,
0200
0000
0301
0000
,
0010
0010
0100
0100
,
0010
0001
0010
0100
,
1000
0010
0100
0001
,
1000
0100
0001
0100
,
1000
0001
0010
0100
,
1000
0001
0100
0010
,
2000
0001
3001
0000
,
0010
0100
1000
0001
,
1000
0010
0100
0001
,
1001
0000
0110
0000
,
0001
1000
0010
0100
,
0001
0010
1000
0010
,
0001
1000
0100
0010
,
0001
1000
0010
0100
,
0002
1000
1003
0000
,
0100
0010
0001
1000
,
0001
0100
0010
1000
,
1001
0000
0110
0000
,
1000
0001
1001
0000
,
0100
0000
0000
0000
,
0100
0000
0000
0000
,
0010
0000
0000
0000
,
0010
0000
0000
0000
,
1000
0000
0100
0000
,
0001
0000
0100
0000
,
1000
0010
0001
0010
,
1000
0001
0010
0100
,
2000
0010
3002
0010
,
2003
3010
0202
0303
,
0001
0001
1000
1000
,
0100
0010
0220
0330
,
0002
0010
2003
0010
,
3002
0013
2200
3300
,
1000
1000
0001
0001
,
0100
0010
0110
0000
,
0002
0000
0203
0000
,
0320
0000
1030
0000
,
2000
0000
3200
0000
,
0320
0000
0031
0000
,
0002
0000
2003
0000
,
3020
0000
0130
0000
,
1001
0000
0110
0000
,
1000
0100
0010
0001
,
1000
0010
0001
0010
,
1000
0001
0100
0010
,
1000
0001
0010
0100
,
2000
0001
3001
0000
,
0100
0010
1000
0001
,
1000
0100
0010
0001
,
1001
0000
0110
0000
,
0001
1000
2002
3003
;

//---------------dance-double - ----------------
#NOTES:
     dance-double:
     :
     Medium:
     12:
     0.544905,0.635340,0.441176,0.413603,0.000000,415.000000,367.000000,48.000000,45.000000,0.000000,0.000000,0.544905,0.635340,0.441176,0.413603,0.000000,415.000000,367.000000,48.000000,45.000000,0.000000,0.000000:
00000000
00000000
00000000
00000000
,
00000000
00000000
00000000
00000000
,
00000000
00000000
00000000
00000000
,
00000000
00000000
00000000
00000000
,
00000000
00000000
00000000
00000000
,
10000000
11000000
00010000
01010000
,
00001000
00010000
00000100
00001000
,
00000001
00000101
00001000
00001100
,
00002002
00000000
00000000
00003003
,
00000001
00000011
00000100
00001100
,
00000001
00000000
00000100
00000010
00000000
00001000
00000001
00000000
,
00000010
00000011
00001000
00001010
,
00010000
00001000
00010000
00001000
00000000
00100000
01000000
00000000
,
10000000
10100000
01000000
01010000
,
10000000
00000000
01000000
00100000
00000000
00010000
10000000
00000000
,
00100000
10100000
00010000
00110000
,
00001000
00010000
00011000
00000000
,
00000010
00000100
00000100
00000000
,
00000002
00000000
00000023
00000000
,
00000230
00000000
00001300
00000000
,
00020000
00000000
02030000
00000000
,
03200000
00000000
10300000
00000000
,
20000000
00000000
32000000
00000000
,
03200000
00000000
00310000
00000000
,
00002000
00000000
00003020
00000000
,
00000230
00000000
00000301
00000000
,
00001000
00001000
00001001
00000010
,
00000100
00000100
00000110
00000100
,
00010000
00010000
00011000
00001000
,
01000000
01000000
01100000
10000000
,
00010000
00010000
10010000
00100000
,
01000000
01000000
01100000
01000000
,
00001000
00001000
00011000
00010000
,
00000200
00000000
00000000
00000300
,
00000010
00000000
00001001
00000000
00000001
00000010
00000000
00002000
,
00000000
00010000
00010000
00013000
,
00100000
00000000
10010000
00000000
10000000
01000000
00000000
00020000
,
00000000
00001000
00001000
00031000
,
00000200
00000000
00000302
00000000
,
00000023
00000000
00002030
00000000
,
00013000
00010000
00001000
00001000
,
01000000
00100000
00000000
00100000
00000000
01000000
00000000
01000000
,
00100000
00000000
10010000
00000000
10000000
00100000
00000000
00020000
,
00000000
00001000
00001000
00031000
,
00000010
00000000
00001001
00000000
00000001
00000100
00000000
00002000
,
00000000
00010000
00010000
00013000
,
02000000
00000000
23000000
00000000
,
30200000
00000000
00320000
00000000
,
00031000
00001000
00010000
00010000
,
00000100
00000010
00000100
00000010
00000000
00000001
00001000
00000000
,
00000001
00000100
00000010
00000000
00001000
00000100
00000010
00000000
,
00000001
00000011
00001000
00001010
,
00000001
00000000
00000010
00000100
00001000
00000000
00001000
00000000
,
00000001
00000000
00001001
00000000
00000001
00000100
00001000
00000000
,
00010000
00001000
00011000
00000000
,
00010000
00011000
00000100
00001100
,
00010000
00001000
00000000
01000000
00000000
00100000
10000000
00000000
,
00010000
00100000
01000000
00000000
10000000
00100000
01000000
00000000
,
00010000
00100000
01000000
10000000
00000000
10000000
00010000
00000000
,
10000000
11000000
00010000
01010000
,
10000000
00000000
01000000
00100000
00010000
00000000
00010000
00000000
,
10000000
00000000
10010000
00000000
10000000
00100000
00010000
00000000
,
00001000
00010000
00011000
00000000
,
00001000
00011000
00100000
00110000
,
00001000
00000000
00010000
00000010
00000000
00000100
00000001
00000000
,
00001000
00000100
00000010
00000000
00000001
00000100
00000010
00000000
,
00010000
00001000
00011000
00000000
,
00100000
00000000
00100000
00000000
,
00100000
00000000
00100000
00000000
,
01000000
00000000
01000000
00000000
,
01000000
00000000
01000000
00000000
,
20000000
30000000
00020000
00030000
,
00002000
00003000
00000002
00000003
,
00000200
00001300
00020000
00031000
,
00000010
00001000
00000010
00000000
00001000
00000000
00010000
00000000
,
00011000
00000010
00000200
00000310
,
00001000
00000001
00000010
00000000
00000200
00000000
00001300
00000000
,
00000010
00001000
00000010
00000000
00010000
00001000
00010000
00000000
,
00000100
00001000
00000100
00000000
00020000
00000000
00031000
00000000
,
00011000
01000000
00200000
01300000
,
00010000
10000000
01000000
00000000
00200000
00000000
00310000
00000000
,
01000000
00010000
01000000
00000000
00001000
00010000
00001000
00000000
,
00100000
00010000
10010000
00000000
,
20000000
30100000
00020000
00130000
,
10000000
00010000
10000000
00000000
02000000
00000000
03100000
00000000
,
00001000
00000000
00010000
00001000
00010000
00001000
00010000
00000000
,
00000020
00000100
00000200
00000330
,
00000002
00000013
00002000
00003010
,
00000001
00001000
00000001
00000100
00000000
00000100
00000010
00000000
,
00010000
00001000
00000000
00000000
00000010
00000001
00000000
00000000
,
00001000
00000010
00000100
00000001
00000000
00000001
00001000
00000000
,
00000001
00000101
00001000
00001100
,
00000001
00000000
00000100
00000010
00001000
00000000
00001000
00000000
,
00000001
00000000
00001001
00000000
00000001
00000010
00001000
00000000
,
00010000
00001000
00011000
00000000
,
00010000
00011000
00000010
00001010
,
00010000
00000000
00001000
00100000
00000000
01000000
10000000
00000000
,
00010000
01000000
00100000
00000000
10000000
01000000
00100000
00000000
,
00001000
00010000
00011000
00000010
;

//---------------dance-double - ----------------
#NOTES:
     dance-double:
     :
     Easy:
     8:
     0.370273,0.453814,0.165441,0.376838,0.000000,282.000000,264.000000,18.000000,41.000000,0.000000,0.000000,0.370273,0.453814,0.165441,0.376838,0.000000,282.000000,264.000000,18.000000,41.000000,0.000000,0.000000:
00000000
00000000
00000000
00000000
,
00000000
00000000
00000000
00000000
,
00000000
00000000
00000000
00000000
,
00000000
00000000
00000000
00000000
,
00000000
00000000
00000000
00000000
,
00100000
00100000
00100000
00000000
,
00011000
00000000
00011000
00000000
,
00000010
00000010
00000010
00000000
,
00022000
00000000
00000000
00033000
,
00100000
00010000
00100000
00010000
,
10000000
00100000
01000000
00010000
,
10000000
01000000
10000000
01000000
,
00010000
00001000
00000100
00000010
,
00000010
00001000
00000010
00001000
,
00000001
00000010
00000100
00001000
,
00001001
00000000
00000110
00000000
,
00001000
00010000
00011000
00000000
,
01000000
01000000
01000000
00000000
,
00020000
00000000
00000000
00000000
,
20000000
00000000
30030000
00000000
,
02000000
00000000
00000000
00000000
,
00200000
00000000
03300000
00000000
,
00002000
00000000
00000000
00000000
,
00020000
00000000
00033000
00000000
,
00000020
00000000
00000000
00000000
,
00000200
00000000
00000330
00000000
,
00000001
00000001
00000001
00000000
,
00000010
00000010
00000010
00000000
,
00000100
00000100
00000100
00000000
,
00010000
00010000
00010000
00000000
,
00001000
00001000
00001000
00000000
,
01000000
01000000
01000000
00000000
,
00100000
00100000
00100000
00000000
,
20000000
00000000
00000000
30000000
,
00010000
00100000
10000000
00100000
,
00020000
00000000
10000000
00000000
,
10030000
00100000
00010000
00001000
,
00000020
00000000
00000100
00000000
,
00000032
00000000
00000000
00000000
,
00002003
00000000
00000000
00000000
,
00003001
00000000
00000001
00000000
,
00000100
00000010
00000100
00000010
,
00001000
00000100
00000001
00000100
,
00002000
00000000
00000001
00000000
,
00003001
00000100
00001000
00010000
,
02000000
00000000
00100000
00000000
,
23000000
00000000
30010000
00000000
,
00020000
00000000
10030000
00000000
,
00100000
00100000
01000000
01000000
,
00001000
00010000
00001000
00010000
,
00000100
00001000
00000010
00000100
,
00000001
00000100
00001000
00000100
,
00000001
00000010
00000100
00001000
,
00000001
00000100
00000010
00010000
,
00002000
00010000
00013000
00000000
,
00001000
00100000
00010000
01000000
,
00100000
10000000
00010000
00100000
,
01100000
00000000
10010000
00000000
,
10000000
00100000
01000000
00010000
,
10000000
01000000
00010000
01000000
,
10000000
00100000
01000000
00010000
,
10000000
01000000
00100000
00001000
,
00020000
00001000
00031000
00000000
,
00010000
00000010
00001000
00000100
,
00000010
00000001
00001000
00000010
,
00000110
00000000
00001001
00000000
,
00000010
00000100
00000110
00000000
,
00000001
00000000
00000000
00000000
,
00000001
00000000
00000000
00000000
,
00001000
00000000
00000000
00000000
,
00001000
00000000
00000000
00000000
,
00000001
00000000
00000100
00000000
,
00001000
00000000
00010000
00000000
,
02000000
03000000
20000000
30000000
,
00100000
00100000
01000000
01000000
,
00020000
10000000
10030000
01000000
,
00010000
00001000
00020000
00030000
,
00000010
00000010
00000100
00000100
,
00000001
00001000
00002002
00003003
,
00002000
00000001
00003001
00000010
,
00001000
00010000
00002000
00003000
,
01000000
01000000
00100000
00100000
,
10000000
00010000
10010000
00000000
,
20000000
00000000
32000000
00000000
,
03200000
00000000
00310000
00000000
,
00020000
00000000
02030000
00000000
,
03002000
00000000
00013000
00000000
,
00020000
00000000
00030200
00000000
,
00000320
00000000
00000031
00000000
,
00001001
00000000
00000110
00000000
,
00000001
00000010
00000100
00001000
,
00000001
00000100
00001000
00000100
,
00000001
00000010
00000100
00001000
,
00000001
00000100
00000010
00010000
,
00002000
00010000
00013000
00000000
,
00001000
00100000
00010000
01000000
,
00100000
10000000
00010000
00100000
,
01100000
00000000
10010000
00000000
,
00100000
01000000
02200000
03300000
;
