#TITLE:Jazz on the Clock!!;
#SUBTITLE:(Ren Zotto version);
#ARTIST:Luxiem;
#TITLETRANSLIT:;
#SUBTITLETRANSLIT:;
#ARTISTTRANSLIT:;
#GENRE:にじさんじ;
#CREDIT:;
#BANNER:Jazz on the Clock!! (Ren Zotto version).png;
#BACKGROUND:../bg.png;
#LYRICSPATH:;
#CDTITLE:../cdtitle.png;
#MUSIC:Jazz on the Clock!! (Ren Zotto version).ogg;
#OFFSET:-0.186000;
#SAMPLESTART:8.757000;
#SAMPLELENGTH:15.000000;
#SELECTABLE:YES;
#BPMS:0.000000=112.000000
;
#STOPS:
;
#BGCHANGES:-0.375=Jazz on the Clock!! (Ren Zotto version).avi=1.000=0=0=0=StretchNoLoop====,
99999=-nosongbg-=1.000=0=0=0 // don't automatically add -songbackground-
;
#KEYSOUNDS:;
#ATTACKS:;

//---------------dance-single - ----------------
#NOTES:
     dance-single:
     :
     Beginner:
     2:
     0.085597,0.131695,0.066576,0.049932,0.000000,72.000000,64.000000,8.000000,6.000000,0.000000,0.000000,0.085597,0.131695,0.066576,0.049932,0.000000,72.000000,64.000000,8.000000,6.000000,0.000000,0.000000:
0000
0000
0000
0000
,
0000
0000
0000
0000
,
0000
0000
0000
0000
,
0000
0000
0000
0000
,
1000
0000
1000
0000
,
1000
0000
0000
0000
,
0100
0000
0100
0000
,
0100
0000
0000
0000
,
0001
0000
0001
0000
,
0001
0000
0000
0000
,
0010
0000
0010
0000
,
0110
0000
0000
0000
,
0001
0000
0001
0000
,
0001
0000
0000
0000
,
0100
0000
0100
0000
,
0100
0000
0000
0000
,
1000
0000
1000
0000
,
1000
0000
0000
0000
,
0010
0000
0010
0000
,
0110
0000
0000
0000
,
2000
0000
0000
0000
,
3000
0000
1000
0000
,
0100
0000
0000
0000
,
0100
0000
0000
0000
,
0002
0000
0000
0000
,
0003
0000
0001
0000
,
0100
0000
0000
0000
,
0110
0000
0000
0000
,
1001
0000
0000
0000
,
0100
0000
0100
0000
,
0110
0000
0000
0000
,
1000
0000
1000
0000
,
1001
0000
0000
0000
,
0010
0000
0010
0000
,
0001
0000
1000
0000
,
1001
0000
0000
0000
,
2000
0000
0000
0000
,
3000
0000
0000
0000
,
0200
0000
0000
0000
,
0300
0000
0000
0000
,
0020
0000
0000
0000
,
0030
0000
0000
0000
,
0002
0000
0000
0000
,
0003
0000
0000
0000
,
0010
0010
0000
0000
,
1000
0000
1000
0000
,
1000
0000
0000
0000
,
0010
0000
0010
0000
,
0010
0000
0000
0000
,
1000
0000
1000
0000
,
1000
0000
0000
0000
,
0100
0000
0100
0000
,
0110
0000
0100
0100
;

//---------------dance-single - ----------------
#NOTES:
     dance-single:
     :
     Hard:
     11:
     0.463652,0.441064,0.316234,0.191405,0.062415,390.000000,352.000000,38.000000,23.000000,0.000000,0.000000,0.463652,0.441064,0.316234,0.191405,0.062415,390.000000,352.000000,38.000000,23.000000,0.000000,0.000000:
0000
0000
0000
0000
,
0000
0000
0000
0000
,
0000
0000
0000
0000
,
0110
0000
0000
0000
0000
0000
1001
0000
0000
0000
0000
0000
0010
0000
0100
0010
0000
0000
0200
0000
0000
0300
0000
0000
,
0011
1000
0010
1000
1010
0001
0010
0001
,
0100
0010
0100
0010
1000
0100
0001
1000
,
0010
0001
0010
0001
0100
0001
0010
0100
,
0010
0001
1000
0001
0200
0000
0310
0100
,
0101
1000
0100
1000
1100
0001
0100
0001
,
0010
0100
0010
0100
1000
0010
0001
0010
,
1000
0100
1000
0100
0010
0001
0010
0100
,
0110
0000
0000
0000
0000
0000
1001
0000
0000
0000
0000
0000
0100
0000
0010
0100
0000
0000
0020
0000
0000
0030
0000
0000
,
1100
0001
0100
0001
0101
1000
0100
1000
,
0010
0100
0010
0100
0001
0010
1000
0001
,
0100
1000
0100
1000
0010
1000
0100
0010
,
0100
1000
0001
1000
0020
0000
0130
0010
,
1010
0001
0010
0001
0011
1000
0010
1000
,
0100
0010
0100
0010
0001
0100
1000
0100
,
0001
0010
0001
0010
0100
1000
0100
0010
,
0110
0000
0000
0000
0000
0000
1001
0000
0000
0000
0000
0000
0010
0000
0100
0010
0000
0000
0200
0000
0000
0300
0000
0000
,
2001
0100
0010
0100
,
0001
0000
0100
0000
3010
0001
2010
0000
,
3100
1000
0001
1000
1100
1000
0001
0100
,
1000
0100
0010
0100
1100
0100
0010
1000
,
1002
0010
0100
0010
,
1000
0000
0010
0000
0103
1000
0102
0000
,
0013
0001
1000
0001
0011
0001
1000
0010
,
0011
0000
0000
0000
0000
0000
1010
0000
0000
0000
0000
0000
0001
0000
0010
0001
0000
0000
1000
0000
0000
0100
0000
0000
,
0110
0000
0100
1000
0010
1000
0100
1000
,
0010
1000
0010
1000
0100
0010
0001
0100
,
0110
0000
0100
0001
0010
0001
0100
0001
,
0010
0001
0010
0001
0100
0010
1000
0100
,
1001
0000
0001
0100
1000
0100
0001
0100
,
1000
0100
1000
0100
0001
1000
0010
1000
,
0001
0000
0000
0000
0001
0000
0010
0000
0000
0000
0010
0000
0100
0000
0000
0000
0100
0000
1000
0000
0000
0001
0000
0000
,
1001
0000
0000
0000
0000
0000
0110
0000
0000
0000
0000
0000
0100
0000
0010
0100
0000
0000
0020
0000
0000
0030
0000
0000
,
2001
0000
0000
0100
0000
0000
0000
0000
0100
0000
0000
0000
3200
0000
0000
0000
0000
0000
0310
0000
0000
0010
0000
0000
,
0002
0000
0000
0100
0000
0000
0000
0000
0100
0000
0000
0000
2003
0000
0000
0000
0000
0000
3010
0000
0100
0010
0000
0000
,
0200
0000
0000
0001
0000
0000
0000
0000
0001
0000
0000
0000
0302
0000
0000
0000
0000
0000
1003
0000
0000
0001
0000
0000
,
1000
0100
1000
0100
0010
0100
1000
0001
,
2000
0000
0000
0100
0000
0000
0000
0000
0100
0000
0000
0000
3200
0000
0000
0000
0000
0000
0310
0000
0000
0010
0000
0000
,
0001
0100
0010
0100
0001
1000
0010
0100
,
0001
0010
0020
0030
1000
0010
0100
2002
,
3003
0000
0000
0000
,
0110
0000
0000
0000
0000
0000
0110
0000
0000
0000
0000
0000
1000
0000
0100
1000
0000
0000
0001
0000
0000
0100
0000
0000
,
0101
1000
0100
1000
1100
0001
0100
0001
,
0010
0100
0010
0100
1000
0010
0001
1000
,
0100
0001
0100
0001
0010
0001
0100
0010
,
0100
0001
1000
0001
0020
0000
0130
0010
,
0011
1000
0010
1000
1010
0001
0010
0001
,
0100
0010
0100
0010
1000
0100
0001
0100
,
1000
0010
1000
0010
0100
0001
0100
0010
,
0110
0000
0000
0000
0000
0000
1001
0000
0000
0000
0000
0000
0010
0000
0100
0010
0000
0000
0200
0000
0000
0000
0000
0000
,
0300
0000
0000
0000
;

//---------------dance-single - ----------------
#NOTES:
     dance-single:
     :
     Easy:
     5:
     0.187839,0.241441,0.158117,0.208049,0.000000,158.000000,139.000000,19.000000,25.000000,0.000000,0.000000,0.187839,0.241441,0.158117,0.208049,0.000000,158.000000,139.000000,19.000000,25.000000,0.000000,0.000000:
0000
0000
0000
0000
,
0000
0000
0000
0000
,
0000
0000
0000
0000
,
0000
0000
0000
0000
,
1000
0000
1000
0000
,
0100
0010
0002
0003
,
1000
0010
0001
0010
,
1000
0001
1000
0000
,
0001
0000
0001
0000
,
0010
0100
2000
3000
,
0001
0100
1000
0100
,
0110
0100
2002
3003
,
0001
0000
0001
0000
,
0100
0010
2000
3000
,
0001
0010
1000
0010
,
0001
1000
0001
0000
,
1000
0000
1000
0000
,
0010
0100
0002
0003
,
1000
0100
0001
0100
,
0110
0100
2002
3003
,
0020
0100
0000
0100
,
0000
0130
0000
0100
,
0010
0100
1001
0000
,
0100
0010
1001
0000
,
0200
0010
0000
0010
,
0000
0310
0000
0010
,
0100
0010
1001
0000
,
0110
0100
2002
3003
,
0110
0000
1000
0100
,
0001
0010
1000
0100
,
0110
0000
0001
0010
,
1000
0100
0001
0010
,
0110
0000
1000
0001
,
0100
0010
1000
0001
,
0100
0100
0010
0010
,
0110
0100
2002
3003
,
2000
0000
3000
1000
,
0002
0000
0003
0010
,
0200
0000
0300
0000
,
2000
0000
3002
0000
,
0023
0000
0000
0000
,
0031
0100
0010
1000
,
0002
0000
0000
0000
,
0003
0000
0000
0000
,
0110
0110
0100
0010
,
1001
0000
0001
0000
,
0010
0100
2000
3000
,
0001
0100
1000
0100
,
0001
1000
0001
0000
,
1000
0000
1000
0000
,
0100
0010
0002
0003
,
1000
0010
0001
0010
,
0110
0010
2002
3003
;

//---------------dance-single - ----------------
#NOTES:
     dance-single:
     :
     Medium:
     8:
     0.336445,0.374904,0.249659,0.158117,0.000000,283.000000,253.000000,30.000000,19.000000,0.000000,0.000000,0.336445,0.374904,0.249659,0.158117,0.000000,283.000000,253.000000,30.000000,19.000000,0.000000,0.000000:
0000
0000
0000
0000
,
0000
0000
0000
0000
,
0000
0000
0000
0000
,
0110
0000
0110
0000
0010
0010
0100
0000
,
1001
0000
0001
1000
0100
0000
1000
0001
,
0100
0010
1000
0001
0020
0000
0031
0000
,
1000
0100
0001
0000
0001
0100
1000
0000
,
0001
0100
1000
0100
0002
0000
1003
0100
,
1001
0000
1000
0001
0010
0000
0001
1000
,
0010
0100
0001
1000
0200
0000
1300
0000
,
0010
0100
0001
0000
0010
0100
1000
0000
,
0110
0000
0110
0000
0010
0010
0100
0000
,
1001
0000
0001
1000
0010
0000
1000
0001
,
0010
0100
1000
0001
0200
0000
0301
0000
,
1000
0010
0001
0000
0001
0010
1000
0000
,
0001
0010
1000
0010
0002
0000
1003
0010
,
1001
0000
1000
0001
0100
0000
0001
1000
,
0100
0010
0001
1000
0020
0000
1030
0000
,
0100
0010
0001
0000
0100
0010
1000
0000
,
0110
0000
0110
0000
0100
0100
0010
0000
,
2001
0100
0000
0100
,
0000
3100
1000
0001
,
1000
0100
1000
0000
0101
0000
0000
0000
,
0010
1000
0010
0000
1100
0000
0000
0000
,
1002
0010
0000
0010
,
0000
0013
0001
1000
,
0001
0010
0001
0000
1010
0000
0000
0000
,
0110
0000
0110
0000
0100
0100
0010
0000
,
1001
0000
0000
0000
1000
0100
0010
0000
,
0001
0100
0010
0100
0001
0000
1000
0000
,
0110
0000
0000
0000
0001
0010
0100
0000
,
1000
0010
0100
0010
1000
0000
0001
0000
,
0110
0000
0000
0000
0001
0100
0010
0000
,
1000
0100
0010
0100
1000
0000
0001
0000
,
1000
0100
0001
0100
1000
0010
0001
0010
,
0110
0000
0110
0000
0100
0100
0010
0000
,
0220
0000
0000
0000
0330
0000
0001
1000
,
0100
0000
0100
0000
0000
0000
0010
0001
,
0200
0010
0300
0010
,
0100
0000
0100
0000
0001
0010
0100
0000
,
2000
0010
0000
0100
,
3000
0000
0001
0000
1000
0001
0100
0000
,
0020
0001
0100
2000
,
3030
0000
0000
0000
,
1001
0000
1001
0000
0100
0100
0010
0100
,
1001
0000
1000
0001
0010
0000
0001
1000
,
0010
0100
0001
1000
0200
0000
1300
0000
,
0001
0010
1000
0000
1000
0010
0001
0000
,
1000
0010
0001
0010
2000
0000
3001
0010
,
1001
0000
0001
1000
0100
0000
1000
0001
,
0100
0010
1000
0001
0020
0000
0031
0000
,
0100
0010
1000
0000
0100
0010
0001
0000
,
0110
0000
0110
0000
0100
0010
2002
0000
,
3003
0000
0000
0000
;

//---------------dance-single - ----------------
#NOTES:
     dance-single:
     :
     Challenge:
     14:
     0.571838,0.573383,0.307913,0.382810,0.528444,481.000000,444.000000,37.000000,46.000000,0.000000,0.000000,0.571838,0.573383,0.307913,0.382810,0.528444,481.000000,444.000000,37.000000,46.000000,0.000000,0.000000:
// measure 0
0000
0000
0000
0000
,  // measure 1
0000
0000
0000
0000
,  // measure 2
0000
0000
0000
0000
,  // measure 3
1010
0000
0000
0000
0000
0000
0011
0000
0000
0000
0000
0000
0100
0000
0010
0100
0000
0010
0200
0000
0000
0300
0000
0000
,  // measure 4
1100
0000
0000
0100
0000
0000
0010
0000
0100
0010
0000
0000
0101
0000
0000
0100
0000
0000
0010
0000
0100
0010
0000
0100
,  // measure 5
0010
0000
0000
1000
0000
0000
0100
0000
0010
0100
0000
1000
0002
0000
0000
0013
0000
0000
2000
0000
0000
3010
0000
0000
,  // measure 6
0001
0000
0000
0100
0000
0000
0010
0000
1000
0000
0000
0010
0000
0000
0100
0000
0000
0001
0000
0000
2000
0000
0000
0000
,  // measure 7
3100
0000
0000
1000
0000
0000
0010
0000
0100
0010
0000
0100
0020
0000
0000
0130
0000
0000
0002
0000
0000
0013
0000
0000
,  // measure 8
0011
0000
0000
0010
0000
0000
0100
0000
0010
0100
0000
0000
1010
0000
0000
0010
0000
0000
0100
0000
0010
0100
0000
0010
,  // measure 9
0100
0000
0000
0001
0000
0000
0010
0000
0100
0010
0000
0001
2000
0000
0000
3100
0000
0000
0002
0000
0000
0103
0000
0000
,  // measure 10
1000
0000
0000
0010
0000
0000
0100
0000
0001
0000
0000
0100
0000
0000
0010
0000
0000
1000
0000
0000
0200
0000
0300
0000
,  // measure 11
1100
0000
0000
0000
0000
0000
0101
0000
0000
0000
0000
0000
0010
0000
0100
0010
0000
0100
0020
0000
0000
0030
0000
0000
,  // measure 12
1010
0000
0000
0010
0000
0000
0100
0000
0010
0100
0000
0000
0011
0000
0000
0010
0000
0000
0100
0000
0010
0100
0000
0010
,  // measure 13
0100
0000
0000
1000
0000
0000
0010
0000
0100
0010
0000
1000
0002
0000
0000
0103
0000
0000
2000
0000
0000
3100
0000
0000
,  // measure 14
0001
0000
0000
0010
0000
0000
0100
0000
1000
0000
0000
0100
0000
0000
0010
0000
0000
0001
0000
0000
2000
0000
0000
0000
,  // measure 15
3010
0000
0000
1000
0000
0000
0100
0000
0010
0100
0000
0010
0200
0000
0000
0310
0000
0000
0002
0000
0000
0103
0000
0000
,  // measure 16
0101
0000
0000
0100
0000
0000
0010
0000
0100
0010
0000
0000
1100
0000
0000
0100
0000
0000
0010
0000
0100
0010
0000
0100
,  // measure 17
0010
0000
0000
0001
0000
0000
0100
0000
0010
0100
0000
0001
2000
0000
0000
3010
0000
0000
0002
0000
0000
0013
0000
0000
,  // measure 18
1000
0000
0000
0100
0000
0000
0010
0000
0001
0000
0000
0010
0000
0000
0100
0000
0000
1000
0000
0000
0020
0000
0030
0000
,  // measure 19
1010
0000
0000
0000
0000
0000
0011
0000
0000
0000
0000
0000
0100
0000
0010
0100
0000
0010
0200
0000
0000
0300
0000
0000
,  // measure 20
2001
0100
0001
0100
,  // measure 21
0010
0000
0100
0000
3001
0100
0010
0110
,  // measure 22
0001
0000
0010
0001
0000
0010
0002
0000
0000
1003
0000
0000
1100
0000
0000
1000
0000
0010
0000
0000
0000
0100
0000
0000
,  // measure 23
0001
0000
0100
0001
0000
0100
0002
0000
0000
1003
0000
0000
1010
0000
0000
1000
0000
0100
0000
0000
0000
0010
0000
0000
,  // measure 24
0002
0010
1000
0010
,  // measure 25
0100
0000
0010
0000
1003
0010
0100
0110
,  // measure 26
1000
0000
0100
1000
0000
0100
2000
0000
0000
3001
0000
0000
0011
0000
0000
0001
0000
0100
0000
0000
0000
0010
0000
0000
,  // measure 27
1100
0000
0000
0000
0000
0000
0101
0000
0000
0000
0000
0000
0010
0000
0100
0010
0000
0100
0020
0000
0000
0130
0000
0000
,  // measure 28
1001
0000
0000
0000
0000
0000
0001
0000
0000
0100
0000
0000
1000
0000
0000
0100
0000
0000
0001
0000
1000
0100
0000
0000
,  // measure 29
1000
0000
0000
0100
0000
0000
0001
0000
0100
0010
0000
0100
0020
0000
0000
0130
0000
0000
0010
0000
0001
1000
0000
0000
,  // measure 30
1001
0000
0000
0000
0000
0000
1000
0000
0000
0100
0000
0000
0001
0000
0000
0100
0000
1000
0001
0000
0000
0100
0000
0000
,  // measure 31
0010
0000
0000
0100
0000
0000
1000
0000
0100
0010
0000
0100
0020
0000
0000
0130
0000
0000
0001
0000
1000
0100
0000
0000
,  // measure 32
0110
0000
0000
0000
0000
0000
0100
0000
0000
1000
0000
0000
0010
0000
0000
1000
0000
0000
0100
0000
0010
0100
0000
0000
,  // measure 33
1000
0000
0000
0010
0000
0000
0100
0000
1000
0100
0000
0010
1000
0000
0000
0100
0000
0000
0001
0000
0000
0100
0000
0000
,  // measure 34
1000
0100
0001
0010
0001
0100
1000
0010
0001
0100
0001
0010
,  // measure 35
0110
0000
0000
0000
0000
0000
0110
0000
0000
0000
0000
0000
0100
0000
0001
0100
0000
0001
2000
0000
0000
3000
0000
0000
,  // measure 36
2100
0000
0000
3100
0000
0000
1000
0000
1000
0100
0000
0000
1000
0000
0000
0100
0000
1000
0000
0000
1000
0100
0000
0000
,  // measure 37
0010
0000
0000
0001
0000
0000
0010
0000
0010
0001
0000
0000
0010
0000
0000
0001
0000
1000
0100
0000
1000
0001
0000
0000
,  // measure 38
0100
0000
0000
0010
0000
0000
0100
0000
0100
0010
0000
0000
0100
0000
0010
0000
0000
0010
0100
0000
0000
0010
0000
0000
,  // measure 39
1000
0000
0100
0000
0000
0100
1000
0000
0000
0001
0000
0010
0001
0000
0000
1000
0000
0000
0100
0000
0100
0010
0000
0000
,  // measure 40
0002
0000
0000
0103
0000
0000
0001
0000
0001
0100
0000
0000
0001
0000
0000
0100
0000
0000
1000
0000
0000
0100
0000
0000
,  // measure 41
0001
0000
0000
0100
0000
0000
1000
0000
1000
0100
0000
0000
0001
0000
0000
0100
0000
0010
0100
0000
0000
0001
0000
0000
,  // measure 42
2000
0000
0100
3000
0000
0100
1000
0000
0000
0100
0000
0000
0001
0000
0000
0100
0000
0010
0100
0000
0000
2002
0000
0000
,  // measure 43
3003
0000
0000
0000
,  // measure 44
2200
0000
0000
3300
0000
0000
0202
0000
0000
0303
0000
0000
1000
0000
0100
1000
0000
0001
0100
0000
0000
0010
0000
0000
,  // measure 45
1010
0000
0000
0010
0000
0000
0100
0000
0010
0100
0000
0000
0011
0000
0000
0010
0000
0000
0100
0000
0010
0100
0000
0010
,  // measure 46
0100
0000
0000
1000
0000
0000
0010
0000
0100
0010
0000
1000
0002
0000
0000
0103
0000
0000
2000
0000
0000
3100
0000
0000
,  // measure 47
0001
0000
0000
0010
0000
0000
0100
0000
1000
0000
0000
0100
0000
0000
0010
0000
0000
0001
0000
0000
2000
0000
0000
0000
,  // measure 48
3010
0000
0000
1000
0000
0000
0100
0000
0010
0100
0000
0010
0200
0000
0000
0310
0000
0000
0002
0000
0000
0103
0000
0000
,  // measure 49
0101
0000
0000
0100
0000
0000
0010
0000
0100
0010
0000
0000
1100
0000
0000
0100
0000
0000
0010
0000
0100
0010
0000
0100
,  // measure 50
0010
0000
0000
0001
0000
0000
0100
0000
0010
0100
0000
0001
2000
0000
0000
3010
0000
0000
0002
0000
0000
0013
0000
0000
,  // measure 51
1000
0000
0000
0100
0000
0000
0010
0000
0001
0000
0000
0010
0000
0000
0100
0000
0000
1000
0000
0000
0020
0000
0030
0000
,  // measure 52
1010
0000
0000
0000
0000
0000
0011
0000
0000
0000
0000
0000
0100
0000
0010
0100
0000
0010
0200
0000
0000
0000
0000
0000
,  // measure 53
0300
0000
0000
0000
;

//---------------dance-double - ----------------
#NOTES:
     dance-double:
     :
     Easy:
     5:
     0.184272,0.241441,0.158117,0.208049,0.000000,155.000000,136.000000,19.000000,25.000000,0.000000,0.000000,0.184272,0.241441,0.158117,0.208049,0.000000,155.000000,136.000000,19.000000,25.000000,0.000000,0.000000:
00000000
00000000
00000000
00000000
,
00000000
00000000
00000000
00000000
,
00000000
00000000
00000000
00000000
,
00000000
00000000
00000000
00000000
,
00000001
00000000
00000001
00000000
,
00000010
00001000
00020000
00030000
,
00000100
00010000
00001000
00010000
,
01000000
10000000
00010000
00000000
,
10000000
00000000
10000000
00000000
,
00100000
00010000
00002000
00003000
,
01000000
00001000
00100000
00001000
,
00011000
00000100
00002002
00003003
,
00000001
00000000
00000001
00000000
,
00000100
00001000
00020000
00030000
,
00000010
00010000
00001000
00010000
,
00100000
10000000
00010000
00000000
,
10000000
00000000
10000000
00000000
,
01000000
00010000
00002000
00003000
,
00100000
00001000
01000000
00001000
,
00011000
00000010
00002002
00003003
,
00000020
00000100
00000000
00000100
,
00000000
00000130
00000000
00000100
,
00001000
00010000
00011000
00000000
,
00010000
00001000
00011000
00000000
,
02000000
00100000
00000000
00100000
,
00000000
03100000
00000000
00100000
,
00010000
00001000
00011000
00000000
,
00011000
01000000
20020000
30030000
,
01100000
00000000
10000000
01000000
,
00010000
00001000
00000100
00000000
,
00000110
00000000
00000001
00000010
,
00001000
00010000
00100000
00000000
,
01100000
00000000
10000000
01000000
,
00010000
00001000
00000100
00000000
,
00000001
00000001
00001000
00001000
,
00000110
00001000
00022000
00033000
,
00002000
00000000
00003000
00010000
,
00200000
00000000
00300000
10000000
,
02000000
00000000
03000000
00000000
,
00200000
00000000
00302000
00000000
,
00023000
00000000
00000000
00000000
,
00031000
00010000
00000100
00010000
,
00002000
00000000
00000000
00000000
,
00003000
00000000
00000000
00000000
,
00011000
00011000
01000000
00100000
,
10010000
00000000
10000000
00000000
,
01000000
00010000
00002000
00003000
,
00100000
00001000
00010000
00001000
,
00000010
00000001
00001000
00000000
,
00000001
00000000
00000001
00000000
,
00000100
00001000
00020000
00030000
,
00000010
00010000
00000100
00010000
,
00011000
00100000
20020000
30030000
;

//---------------dance-double - ----------------
#NOTES:
     dance-double:
     :
     Medium:
     8:
     0.332878,0.330798,0.266303,0.166439,0.000000,280.000000,248.000000,32.000000,20.000000,0.000000,0.000000,0.332878,0.330798,0.266303,0.166439,0.000000,280.000000,248.000000,32.000000,20.000000,0.000000,0.000000:
00000000
00000000
00000000
00000000
,
00000000
00000000
00000000
00000000
,
00000000
00000000
00000000
00000000
,
01100000
00000000
01100000
00000000
10000000
01000000
00010000
00000000
,
00011000
00000000
00001000
00100000
00010000
00000000
00100000
00001000
,
00010000
00001000
01000000
00001000
00020000
00000000
00031000
00000000
,
00010000
00001000
00000010
00000000
00000010
00001000
00010000
00000000
,
00010000
00001000
00000100
00001000
00020000
00000000
00031000
00010000
,
00011000
00000000
00010000
00000100
00000001
00000000
00000001
00000100
,
00000010
00000100
00001000
00000001
00002000
00000000
00003100
00000000
,
00000010
00000001
00000100
00000000
00000010
00001000
00000100
00000000
,
00000110
00000000
00000110
00000000
00000001
00000100
00001000
00000000
,
00011000
00000000
00010000
00000010
00001000
00000000
00000010
00010000
,
00001000
00010000
00000100
00010000
00002000
00000000
00013000
00000000
,
00001000
00010000
00100000
00000000
00100000
00010000
00001000
00000000
,
00001000
00010000
01000000
00010000
00002000
00000000
00013000
00001000
,
00011000
00000000
00001000
01000000
10000000
00000000
10000000
01000000
,
00100000
01000000
00010000
10000000
00020000
00000000
01030000
00000000
,
00100000
10000000
01000000
00000000
00100000
00010000
01000000
00000000
,
01100000
00000000
01100000
00000000
10000000
01000000
00010000
00000000
,
00021000
00000100
00000000
00000010
,
00000000
00030100
00010000
00011000
,
01000000
00010000
01000000
00000000
01100000
00000000
00000000
00000000
,
10000000
01000000
10000000
00000000
00110000
00000000
00000000
00000000
,
00012000
00100000
00000000
01000000
,
00000000
00103000
00001000
00011000
,
00000010
00001000
00000010
00000000
00000110
00000000
00000000
00000000
,
00001001
00000000
00001001
00000000
00000001
00000010
00001000
00000000
,
00011000
00000000
00001000
00001000
,
00010000
01000000
00100000
01000000
00010000
00000000
00001000
00000000
,
00011000
00000000
00010000
00010000
,
00001000
00000100
00000010
00000100
00001000
00000000
00010000
00000000
,
00011000
00000000
00000000
00000000
00010000
00100000
10000000
00000000
,
10000000
01000000
00010000
01000000
10000000
00000000
00010000
00000000
,
10000000
00100000
10000000
00000000
00010000
01000000
00010000
00000000
,
01100000
00000000
01100000
00000000
10000000
01000000
00010000
00000000
,
00022000
00000000
00000000
00000000
00033000
00000000
00001000
01000000
,
00010000
00000000
00010000
00000000
00000000
00000000
00010000
00100000
,
02000000
00100000
03000000
00100000
,
00010000
00000000
00010000
00000000
10000000
01000000
10000000
00000000
,
00200000
01000000
00000000
01000000
,
00300000
00000000
01000000
00000000
00001000
00010000
00001000
00000000
,
00200000
01300000
20000000
00020000
,
30030000
00000000
00000000
00000000
,
01100000
00000000
01100000
00000000
10000000
00100000
00010000
00000000
,
00011000
00000000
00001000
01000000
00010000
00000000
01000000
00001000
,
00010000
00001000
00100000
00001000
00020000
00000000
00031000
00000000
,
00010000
00001000
00000100
00000000
00000100
00001000
00010000
00000000
,
00010000
00001000
00000010
00001000
00020000
00000000
00031000
00010000
,
00011000
00000000
00010000
00000010
00000001
00000000
00000001
00000010
,
00000100
00000010
00001000
00000001
00002000
00000000
00003010
00000000
,
00000100
00000001
00000010
00000000
00000100
00001000
00000010
00000000
,
00000110
00000000
00000110
00000000
00000001
00001000
00002002
00000000
,
00003003
00000000
00000000
00000000
;

//---------------dance-double - ----------------
#NOTES:
     dance-double:
     :
     Hard:
     11:
     0.449386,0.441064,0.324556,0.191405,0.041610,378.000000,339.000000,39.000000,23.000000,0.000000,0.000000,0.449386,0.441064,0.324556,0.191405,0.041610,378.000000,339.000000,39.000000,23.000000,0.000000,0.000000:
00000000
00000000
00000000
00000000
,
00000000
00000000
00000000
00000000
,
00000000
00000000
00000000
00000000
,
10010000
00000000
00000000
00000000
00000000
00000000
01010000
00000000
00000000
00000000
00000000
00000000
00001000
00000000
00010000
00001000
00000000
00000000
00020000
00000000
00000000
00030000
00000000
00000000
,
00011000
00001000
01000000
00010000
10100000
00010000
01000000
00010000
,
00100000
00010000
00100000
00010000
01000000
00001000
00010000
00000010
,
00001000
00000100
00000010
00000100
00001000
00000100
00000001
00000100
,
00001000
00000010
00000001
00000010
00002000
00000000
00003100
00010000
,
00011000
00001000
00100000
00010000
11000000
00010000
00100000
00010000
,
01000000
00010000
01000000
00010000
00100000
00001000
00010000
00000100
,
00001000
00000010
00000100
00000010
00001000
00000010
00000100
00000001
,
00001001
00000000
00000000
00000000
00000000
00000000
00001100
00000000
00000000
00000000
00000000
00000000
00010000
00000000
00001000
00010000
00000000
00000000
00002000
00000000
00000000
00003000
00000000
00000000
,
00011000
00010000
00000100
00001000
00000011
00001000
00000100
00001000
,
00000010
00001000
00000010
00001000
00000100
00010000
00001000
00100000
,
00010000
01000000
00100000
01000000
00010000
01000000
10000000
01000000
,
00010000
00100000
10000000
00100000
00020000
00000000
01030000
00001000
,
00011000
00010000
00000010
00001000
00000101
00001000
00000010
00001000
,
00000100
00001000
00000100
00001000
00000010
00010000
00001000
01000000
,
00010000
00100000
01000000
00100000
00010000
00100000
01000000
10000000
,
10010000
00000000
00000000
00000000
00000000
00000000
01010000
00000000
00000000
00000000
00000000
00000000
00001000
00000000
00010000
00001000
00000000
00000000
00020000
00000000
00000000
00030000
00000000
00000000
,
00001002
00000100
00001000
00000100
,
00000013
00000000
00001000
00000000
00010000
00001000
00021000
00000000
,
00030100
00010000
00001000
00010000
00010100
00010000
00001000
00000000
,
00010000
00001000
01000000
00001000
00011000
00001000
01000000
00000000
,
20010000
01000000
00010000
01000000
,
30100000
00000000
00010000
00000000
00001000
00010000
00012000
00000000
,
01003000
00001000
00010000
00001000
01001000
00001000
00010000
00100000
,
01100000
00000000
00000000
00000000
00000000
00000000
01100000
00000000
00000000
00000000
00000000
00000000
00010000
00000000
01000000
00010000
00000000
00000000
10000000
00000000
00000000
01000000
00000000
00000000
,
10010000
00000000
10000000
01000000
00010000
01000000
10000000
01000000
,
00010000
00001000
00010000
00001000
00000020
00000000
00000031
00000100
,
00000110
00000000
00000010
00001000
00000100
00001000
00000010
00001000
,
00000100
00001000
00000100
00010000
00002000
00000000
00003010
00000100
,
00001001
00000000
00000001
00000010
00001000
00000010
00000001
00000010
,
00001000
00010000
00001000
00010000
01000000
10000000
00010000
00000000
,
10000000
00000000
00000000
00000000
10000000
00000000
01000000
00000000
00000000
00000000
01000000
00000000
00100000
00000000
00000000
00000000
00100000
00000000
00010000
00000000
00000000
10000000
00000000
00000000
,
10010000
00000000
00000000
00000000
00000000
00000000
01010000
00000000
00000000
00000000
00000000
00000000
00001000
00000000
00010000
00001000
00000000
00000000
00020000
00000000
00000000
00030000
00000000
00000000
,
00210000
00000000
00010000
00000000
00010000
00000000
00301000
00010000
,
00002000
00000000
00010000
00000000
00013000
00000000
00000010
00001000
,
00000200
00000010
00000010
00000310
,
00000001
00001000
00000001
00000000
00000100
00000010
00001000
00000001
,
00000200
00001000
00000320
00000100
,
00001030
00000100
00001000
00000100
00010000
00000010
00001000
00000100
,
00010000
00001000
00002000
00000000
00103000
00010000
01000000
02200000
,
03300000
00000000
00000000
00000000
,
10010000
00000000
00000000
00000000
00000000
00000000
10010000
00000000
00000000
00000000
00000000
00000000
10000000
00000000
01000000
10000000
00000000
00000000
01000000
00000000
00000000
00010000
00000000
00000000
,
00011000
00010000
00000100
00001000
00000011
00001000
00000100
00001000
,
00000010
00001000
00000010
00001000
00000100
00010000
00001000
00100000
,
00010000
01000000
00100000
01000000
00010000
01000000
10000000
01000000
,
00010000
00100000
10000000
00100000
00020000
00000000
01030000
00001000
,
00011000
00010000
00000010
00001000
00000101
00001000
00000010
00001000
,
00000100
00001000
00000100
00001000
00000010
00010000
00001000
01000000
,
00010000
00100000
01000000
00100000
00010000
00100000
01000000
10000000
,
10010000
00000000
00000000
00000000
00000000
00000000
01010000
00000000
00000000
00000000
00000000
00000000
00001000
00000000
00010000
00001000
00000000
00000000
00022000
00000000
00000000
00000000
00000000
00000000
,
00033000
00000000
00000000
00000000
;

//---------------dance-double - ----------------
#NOTES:
     dance-double:
     :
     Challenge:
     14:
     0.569460,0.573383,0.316234,0.482674,0.503479,479.000000,441.000000,38.000000,58.000000,0.000000,0.000000,0.569460,0.573383,0.316234,0.482674,0.503479,479.000000,441.000000,38.000000,58.000000,0.000000,0.000000:
00000000
00000000
00000000
00000000
,
00000000
00000000
00000000
00000000
,
00000000
00000000
00000000
00000000
,
01100000
00000000
00000000
00000000
00000000
00000000
01100000
00000000
00000000
00000000
00000000
00000000
10000000
00000000
00010000
10000000
00000000
00010000
02000000
00000000
00000000
03000000
00000000
00000000
,
00011000
00000000
00000000
00001000
00000000
00000000
00100000
00000000
00010000
01000000
00000000
00000000
01100000
00000000
00000000
10000000
00000000
00000000
00010000
00000000
01000000
00010000
00000000
01000000
,
00010000
00000000
00000000
00100000
00000000
00000000
01000000
00000000
00100000
00001000
00000000
00010000
00002000
00000000
00000000
00003010
00000000
00000000
00000002
00000000
00000000
00000013
00000000
00000000
,
00000100
00000000
00000000
00001000
00000000
00000000
00000010
00000000
00000100
00000000
00000000
00001000
00000000
00000000
00010000
00000000
00000000
00001000
00000000
00000000
00000200
00000000
00000000
00000000
,
00000310
00000000
00000000
00001000
00000000
00000000
00000100
00000000
00000010
00000100
00000000
00000001
00000200
00000000
00000000
00001300
00000000
00000000
00000100
00000000
00000000
00010000
00000000
00000000
,
00011000
00000000
00000000
00001000
00000000
00000000
00100000
00000000
00010000
01000000
00000000
00000000
01100000
00000000
00000000
10000000
00000000
00000000
00010000
00000000
01000000
00010000
00000000
01000000
,
00010000
00000000
00000000
00100000
00000000
00000000
01000000
00000000
00100000
01000000
00000000
00010000
00002000
00000000
00000000
00003100
00000000
00000000
00000002
00000000
00000000
00000103
00000000
00000000
,
00000010
00000000
00000000
00001000
00000000
00000000
00000100
00000000
00000010
00000000
00000000
00001000
00000000
00000000
00010000
00000000
00000000
00001000
00000000
00000000
00000020
00000000
00000030
00000000
,
00000110
00000000
00000000
00000000
00000000
00000000
00000110
00000000
00000000
00000000
00000000
00000000
00000001
00000000
00001000
00000001
00000000
00001000
00000020
00000000
00000000
00000030
00000000
00000000
,
00011000
00000000
00000000
00010000
00000000
00000000
00000100
00000000
00001000
00000010
00000000
00000000
00000110
00000000
00000000
00000001
00000000
00000000
00001000
00000000
00000010
00001000
00000000
00000010
,
00001000
00000000
00000000
00000100
00000000
00000000
00000010
00000000
00000100
00010000
00000000
00001000
00020000
00000000
00000000
01030000
00000000
00000000
20000000
00000000
00000000
31000000
00000000
00000000
,
00100000
00000000
00000000
00010000
00000000
00000000
01000000
00000000
00100000
00000000
00000000
00010000
00000000
00000000
00001000
00000000
00000000
00010000
00000000
00000000
00200000
00000000
00000000
00000000
,
01300000
00000000
00000000
00010000
00000000
00000000
00100000
00000000
01000000
00100000
00000000
10000000
00200000
00000000
00000000
00310000
00000000
00000000
00100000
00000000
00000000
00001000
00000000
00000000
,
00011000
00000000
00000000
00010000
00000000
00000000
00000100
00000000
00001000
00000010
00000000
00000000
00000110
00000000
00000000
00000001
00000000
00000000
00001000
00000000
00000010
00001000
00000000
00000010
,
00001000
00000000
00000000
00000100
00000000
00000000
00000010
00000000
00000100
00000010
00000000
00001000
00020000
00000000
00000000
00130000
00000000
00000000
20000000
00000000
00000000
30100000
00000000
00000000
,
01000000
00000000
00000000
00010000
00000000
00000000
00100000
00000000
01000000
00000000
00000000
00010000
00000000
00000000
00001000
00000000
00000000
00010000
00000000
00000000
02000000
00000000
03000000
00000000
,
01100000
00000000
00000000
00000000
00000000
00000000
01100000
00000000
00000000
00000000
00000000
00000000
10000000
00000000
00010000
10000000
00000000
00010000
02000000
00000000
00000000
03000000
00000000
00000000
,
20010000
01000000
00100000
01000000
,
30020000
00000000
01030000
00000000
00100000
00010000
00001000
00011000
,
00000100
00000000
00001000
00000100
00000000
00001000
00000200
00000000
00000000
00010300
00000000
00000000
00011000
00000000
00000000
00000010
00000000
00001000
00000000
00000000
00000000
00000100
00000000
00000000
,
00000010
00000000
00000100
00000010
00000000
00000100
00000020
00000000
00000000
00000031
00000000
00000000
00001001
00000000
00000000
00001000
00000000
00000100
00000000
00000000
00000000
00001000
00000000
00000000
,
00001002
00000010
00000100
00000010
,
00002003
00000000
00003010
00000000
00000100
00001000
00010000
00011000
,
00100000
00000000
00010000
00100000
00000000
00010000
00200000
00000000
00000000
00301000
00000000
00000000
00011000
00000000
00000000
01000000
00000000
00010000
00000000
00000000
00000000
00100000
00000000
00000000
,
01100000
00000000
00000000
00000000
00000000
00000000
01100000
00000000
00000000
00000000
00000000
00000000
10000000
00000000
00010000
10000000
00000000
00010000
02000000
00000000
00000000
03100000
00000000
00000000
,
10010000
00000000
00000000
00000000
00000000
00000000
00010000
00000000
00000000
01000000
00000000
00000000
00100000
00000000
00000000
01000000
00000000
00000000
00010000
00000000
10000000
00010000
00000000
00000000
,
00100000
00000000
00000000
01000000
00000000
00000000
00010000
00000000
01000000
00100000
00000000
01000000
00200000
00000000
00000000
00301000
00000000
00000000
00010000
00000000
00000010
00001000
00000000
00000000
,
00001001
00000000
00000000
00000000
00000000
00000000
00001000
00000000
00000000
00000010
00000000
00000000
00000100
00000000
00000000
00000010
00000000
00000000
00001000
00000000
00000001
00001000
00000000
00000000
,
00000100
00000000
00000000
00000010
00000000
00000000
00001000
00000000
00000010
00000100
00000000
00000010
00000200
00000000
00000000
00010300
00000000
00000000
00001000
00000000
01000000
00010000
00000000
00000000
,
10010000
00000000
00000000
00000000
00000000
00000000
01000000
00000000
00000000
10000000
00000000
00000000
00100000
00000000
00000000
10000000
00000000
00000000
01000000
00000000
00100000
01000000
00000000
00000000
,
10000000
00000000
00000000
00100000
00000000
00000000
01000000
00000000
00100000
01000000
00000000
00001000
00010000
00000000
00000000
00001000
00000000
00000000
00010000
00000000
00000000
00000100
00000000
00000000
,
00000010
00000001
00000010
00000100
00001000
00000100
00010000
00001000
00010000
00000100
00001000
00000010
,
00000110
00000000
00000000
00000000
00000000
00000000
00000110
00000000
00000000
00000000
00000000
00000000
00000001
00000000
00001000
00000001
00000000
00001000
00000200
00000000
00000000
00000300
00000000
00000000
,
00001002
00000000
00000000
00000103
00000000
00000000
00000010
00000000
00000010
00000100
00000000
00000000
00002000
00000000
00000000
00003100
00000000
00000000
00000002
00000000
00000000
00000103
00000000
00000000
,
00000020
00000000
00000000
00001030
00000000
00000010
00001000
00000000
00000000
00000100
00000000
00000000
00010000
00000000
00000000
00001000
00000000
00100000
00010000
00000000
00100000
00010000
00000000
00000000
,
02000000
00000000
00000000
03100000
00000000
00000000
01000000
00000000
01000000
00100000
00000000
00000000
02000000
00000000
00000000
03010000
00000000
00000000
20000000
00000000
00000000
31000000
00000000
00000000
,
20000000
00000000
00000000
30010000
00000000
00010000
01000000
00000000
00000000
00020000
00000000
00000000
00230000
00000000
00000000
02300000
00000000
00000000
13000000
00000000
10000000
00010000
00000000
00000000
,
20000000
00000000
00000000
31000000
00000000
00000000
00100000
00000000
00100000
01000000
00000000
00000000
00020000
00000000
00000000
01030000
00000000
00000000
20000000
00000000
00000000
31000000
00000000
00000000
,
00200000
00000000
00000000
00310000
00000000
00000000
00100000
00000000
00010000
01000000
00000000
00000000
00100000
00000000
00000000
10000000
00000000
00010000
01000000
00000000
00000000
00001000
00000000
00000000
,
00020000
00000000
00001000
00030000
00000000
00001000
00010000
00000000
00000000
00000100
00000000
00000000
00001000
00000000
00000000
00000010
00000000
00000100
00000010
00000000
00000000
00002002
00000000
00000000
,
00003003
00000000
00000000
00000000
,
00000220
00000000
00000000
00000330
00000000
00000000
00000220
00000000
00000000
00000330
00000000
00000000
00000001
00000000
00000010
00000001
00000000
00001000
00000100
00000000
00000000
00010000
00000000
00000000
,
00011000
00000000
00000000
00010000
00000000
00000000
00000010
00000000
00001000
00000100
00000000
00000000
00000110
00000000
00000000
00000001
00000000
00000000
00001000
00000000
00000100
00001000
00000000
00000100
,
00001000
00000000
00000000
00000010
00000000
00000000
00000100
00000000
00000010
00010000
00000000
00001000
00020000
00000000
00000000
00130000
00000000
00000000
20000000
00000000
00000000
30100000
00000000
00000000
,
01000000
00000000
00000000
00010000
00000000
00000000
00100000
00000000
01000000
00000000
00000000
00010000
00000000
00000000
00001000
00000000
00000000
00010000
00000000
00000000
02000000
00000000
00000000
00000000
,
03100000
00000000
00000000
00010000
00000000
00000000
01000000
00000000
00100000
01000000
00000000
10000000
02000000
00000000
00000000
03010000
00000000
00000000
01000000
00000000
00000000
00001000
00000000
00000000
,
00011000
00000000
00000000
00010000
00000000
00000000
00000010
00000000
00001000
00000100
00000000
00000000
00000110
00000000
00000000
00000001
00000000
00000000
00001000
00000000
00000100
00001000
00000000
00000100
,
00001000
00000000
00000000
00000010
00000000
00000000
00000100
00000000
00000010
00000100
00000000
00001000
00020000
00000000
00000000
01030000
00000000
00000000
20000000
00000000
00000000
31000000
00000000
00000000
,
00100000
00000000
00000000
00010000
00000000
00000000
01000000
00000000
00100000
00000000
00000000
00010000
00000000
00000000
00001000
00000000
00000000
00010000
00000000
00000000
00200000
00000000
00300000
00000000
,
01100000
00000000
00000000
00000000
00000000
00000000
01100000
00000000
00000000
00000000
00000000
00000000
10000000
00000000
00010000
10000000
00000000
00010000
00200000
00000000
00000000
00000000
00000000
00000000
,
00300000
00000000
00000000
00000000
;
