#TITLE:Irony;
#SUBTITLE:(JAKAZiD Juke Edit feat. Fatman Scoop);
#ARTIST:ClariS;
#TITLETRANSLIT:;
#SUBTITLETRANSLIT:;
#ARTISTTRANSLIT:;
#GENRE:Anime/Game;
#CREDIT:;
#BANNER:Irony (JAKAZiD Juke Edit feat. Fatman Scoop).png;
#BACKGROUND:Irony (JAKAZiD Juke Edit feat. Fatman Scoop)-bg.png;
#LYRICSPATH:;
#CDTITLE:../cdtitle.png;
#MUSIC:Irony (JAKAZiD Juke Edit feat. Fatman Scoop).ogg;
#OFFSET:2.999000;
#SAMPLESTART:95.629997;
#SAMPLELENGTH:15.000000;
#LASTBEATHINT:2.665334;
#SELECTABLE:YES;
#BPMS:0.000000=80.000000
;
#STOPS:
;
#BGCHANGES:-99.000=../bg.avi=1.000=0=0=1=====,
99999=-nosongbg-=1.000=0=0=0 // don't automatically add -songbackground-
;
#KEYSOUNDS:;
#ATTACKS:;

//---------------dance-single - ----------------
#NOTES:
     dance-single:
     :
     Beginner:
     1:
     0.055019,0.082770,0.000000,0.000000,0.000000,57.000000,57.000000,0.000000,0.000000,0.000000,0.000000,0.055019,0.082770,0.000000,0.000000,0.000000,57.000000,57.000000,0.000000,0.000000,0.000000,0.000000:
0000
0000
0000
0000
,
0000
0000
0000
0000
,
0000
0000
0000
0000
,
0000
0000
0000
0000
,
0000
0000
0000
0000
,
1000
0000
0000
0000
,
1000
0000
0000
0000
,
0001
0000
0000
0000
,
0001
0000
0000
0000
,
0010
0000
0000
0000
,
0000
0000
0000
0000
,
0000
0000
0000
0000
,
0000
0000
0000
0000
,
1000
0000
0000
0000
,
1000
0000
0000
0000
,
0001
0000
0000
0000
,
0010
0000
0100
0000
,
0010
0000
0000
0000
,
0100
0000
0000
0000
,
0001
0000
0000
0000
,
0001
0000
0000
0000
,
0010
0000
0000
0000
,
0010
0000
0000
0000
,
1000
0000
0000
0000
,
1000
0000
1000
0000
,
0001
0000
0000
0000
,
1000
0000
0000
0000
,
0100
0000
0000
0000
,
0010
0000
0000
0000
,
0100
0000
0100
0000
,
0010
0000
0010
0000
,
0001
0000
0001
0000
,
1000
0000
1000
0000
,
0100
0000
0010
0000
,
0010
0000
0100
0000
,
1000
0000
0001
0000
,
0001
0000
1000
0000
,
0010
0000
0100
0000
,
0100
0000
0010
0000
,
0001
0000
1000
0000
,
1000
0000
0001
0000
,
0010
0000
0000
0000
,
0010
0000
0000
0000
,
1000
0000
0000
0000
,
1000
0000
0000
0000
,
0100
0000
0000
0000
,
0100
0000
0000
0000
,
0001
0000
0000
0000
,
0001
0000
0001
0000
,
1000
0000
0000
0000
;

//---------------dance-single - ----------------
#NOTES:
     dance-single:
     :
     Hard:
     9:
     0.319498,0.420186,0.297297,0.020270,0.094595,331.000000,287.000000,44.000000,3.000000,0.000000,0.000000,0.319498,0.420186,0.297297,0.020270,0.094595,331.000000,287.000000,44.000000,3.000000,0.000000,0.000000:
0000
0000
0000
0000
,
0000
0000
0000
0000
,
0000
0000
0000
0000
,
0000
0000
0000
0000
,
0000
0000
0000
0000
,
1000
1100
0000
0011
0000
0101
0000
1010
,
0010
0110
0000
1001
0000
0110
0010
0001
,
0100
1100
0000
1010
0000
0011
0000
0101
,
0100
0110
0000
0110
0000
0001
1000
1000
,
0002
0000
0000
0000
,
0003
0000
0000
0000
,
0000
0000
0000
0000
,
0000
0000
0000
0000
,
1000
0011
0000
1001
0000
0101
0000
0110
,
0000
1100
0000
1001
0000
1010
0000
0010
,
0100
1001
0000
0110
0000
1001
0000
0110
,
0010
0000
0000
1000
0000
0000
1000
0000
0100
0000
0000
0001
0000
0000
0001
0000
0010
0000
0000
0000
0100
0000
0000
0000
0100
0000
0000
0000
0010
0000
0000
0000
,
0110
0100
1100
0001
0100
0100
0100
0000
,
1000
1000
1000
0000
0010
0010
0010
0000
,
1001
0001
0101
0010
0001
0001
0001
0000
,
0100
0000
0000
0000
0100
0000
0000
0000
0100
0000
0000
0000
0000
0000
0000
0000
1000
0000
0000
1000
0000
0000
1000
0000
0001
0000
0000
0001
0000
0000
0001
0000
,
0110
0010
0011
1000
0010
0010
0010
0000
,
0001
0001
0001
0000
0100
0100
0100
0000
,
1001
1000
1010
0100
1000
1000
1000
0010
,
0010
0000
0000
0000
0001
0000
0000
0000
0001
0000
0000
0000
0100
0000
0000
0000
1000
0000
0000
1000
0000
0000
0010
0000
0001
0000
0000
0001
0000
0000
0100
0000
,
0000
1000
0010
0000
0100
0001
0001
0000
,
0010
0000
0100
0000
1000
0000
0100
0010
,
0000
0001
1000
0000
0010
0000
0010
1000
,
0001
0000
0000
0100
0000
0000
0001
0000
1000
0000
0000
0100
0000
0000
1000
0000
0001
0000
0000
0000
0100
0000
0000
0000
1000
0000
0000
0000
0010
0000
0000
0000
,
0001
0001
1000
1000
0001
0100
0010
1000
,
0001
0001
1000
1000
0100
0010
0001
0001
,
0100
0010
1000
0001
0010
0100
0200
0000
,
1300
1000
0001
0001
1000
0010
0001
0100
,
1000
0010
0001
0010
1000
0100
0010
0000
,
0001
0010
1000
0010
0001
0100
0010
0000
,
1000
0100
0001
0010
1000
0010
0001
0100
,
1000
0001
0001
1000
1000
0001
0001
0000
,
0001
0100
1000
0100
0001
0010
0100
0000
,
1000
0100
0001
0100
1000
0010
0100
0000
,
0001
0010
1000
0100
0001
0100
1000
0010
,
0100
0000
0000
0001
0000
0000
0001
0000
0010
0000
0000
1000
0000
0000
1000
0000
0100
0000
0000
0000
0010
0000
0000
0000
0010
0000
0000
0000
0100
0000
0000
0000
,
0110
0010
0011
1000
0010
0010
0010
0000
,
0001
0001
0001
0000
0100
0100
0100
0000
,
1001
1000
1010
0100
1000
1000
1000
0000
,
0010
0000
0000
0000
0010
0000
0000
0000
0010
0000
0000
0000
0000
0000
0000
0000
0001
0000
0000
0001
0000
0000
0001
0000
1000
0000
0000
1000
0000
0000
1000
0000
,
0110
0100
1100
1001
0001
0101
0010
0010
,
0110
0100
1100
0001
0100
0100
0100
0000
,
1001
0001
0101
0010
0001
0001
0001
0100
,
0100
0000
0000
0000
1000
0000
0000
0000
1000
0000
0000
0000
0010
0000
0000
0000
0001
0000
0000
0001
0000
0000
0100
0000
1000
0000
0000
1000
0000
0000
0010
0000
,
0002
0000
0000
0003
;

//---------------dance-single - ----------------
#NOTES:
     dance-single:
     :
     Easy:
     2:
     0.089768,0.117652,0.000000,0.013514,0.000000,93.000000,93.000000,0.000000,2.000000,0.000000,0.000000,0.089768,0.117652,0.000000,0.013514,0.000000,93.000000,93.000000,0.000000,2.000000,0.000000,0.000000:
0000
0000
0000
0000
,
0000
0000
0000
0000
,
0000
0000
0000
0000
,
0000
0000
0000
0000
,
0000
0000
0000
0000
,
0010
0000
0010
0000
,
0010
0000
0010
0000
,
0100
0000
0100
0000
,
0100
0000
0100
0100
,
0020
0000
0000
0000
,
0030
0000
0000
0000
,
0000
0000
0000
0000
,
0000
0000
0000
0000
,
1000
0000
0001
0000
,
1000
0000
0001
0000
,
1000
0000
0100
0000
,
0010
0010
0100
0100
,
0010
0000
1000
0000
,
0001
0000
0001
0000
,
0100
0000
0001
0000
,
1000
0000
1000
1000
,
1000
0000
0001
0000
,
0010
0000
0010
0000
,
0001
0000
1000
0000
,
0100
0100
0010
0010
,
0000
0100
0000
0100
,
0000
1000
0000
1000
,
0000
0010
0000
0010
,
0000
0001
0000
0001
,
1000
0000
1000
0000
,
0001
0000
0001
0000
,
0100
0000
0100
0000
,
0010
0000
0010
0000
,
1000
0000
0001
0000
,
0100
0000
1000
0000
,
0001
0000
1000
0000
,
0010
0000
0001
0000
,
0001
0000
1000
0000
,
0100
0000
0001
0000
,
1000
0000
0001
0000
,
0100
0100
0010
0010
,
0100
0000
0001
0000
,
1000
0000
1000
0000
,
0010
0000
1000
0000
,
0001
0000
0001
0001
,
0001
0000
1000
0000
,
0100
0000
0100
0000
,
1000
0000
0001
0000
,
0010
0010
0100
0100
,
0020
0000
0000
0030
;

//---------------dance-single - ----------------
#NOTES:
     dance-single:
     :
     Medium:
     5:
     0.182432,0.252111,0.195946,0.013514,0.000000,189.000000,160.000000,29.000000,2.000000,0.000000,0.000000,0.182432,0.252111,0.195946,0.013514,0.000000,189.000000,160.000000,29.000000,2.000000,0.000000,0.000000:
0000
0000
0000
0000
,
0000
0000
0000
0000
,
0000
0000
0000
0000
,
0000
0000
0000
0000
,
0000
0000
0000
0000
,
0100
0010
0100
0010
,
0001
1000
0001
0000
,
0100
0010
0100
0010
,
1000
0001
1000
0100
,
0002
0000
0000
0000
,
0003
0000
0000
0000
,
0000
0000
0000
0000
,
0000
0000
0000
0000
,
0100
0100
0100
0100
,
0010
0010
0010
0000
,
1000
1000
1000
1000
,
0001
0010
1000
0100
,
0010
0010
0100
0110
,
0010
0110
0100
0110
,
0001
0001
1000
1001
,
0001
1001
0101
1010
,
0100
0100
0010
0110
,
0100
0110
0010
0110
,
1000
1000
0001
1001
,
0110
1001
0110
0110
,
0000
0100
0010
0100
,
0001
1000
0001
1000
,
0000
0010
0100
0010
,
1000
0001
1000
0001
,
1000
1000
0100
0100
,
0010
0010
0001
0001
,
0100
0100
0010
0010
,
1000
0000
1000
0000
0100
0100
0110
0100
,
0010
0001
1000
1000
,
0100
0001
0010
0010
,
1000
0100
1000
0010
,
1000
0100
0001
0001
,
0100
1000
0001
0001
,
0010
1000
0100
0100
,
0001
0010
0001
0100
,
1000
0100
0001
0010
,
0100
0100
0010
0110
,
0100
0110
0010
0110
,
1000
1000
0001
1001
,
1000
1001
1010
0101
,
0010
0010
0100
0100
,
0010
0010
0100
0110
,
0001
0001
1000
1001
,
0110
1001
0110
0110
,
2000
0000
0000
3000
;

//---------------dance-double - ----------------
#NOTES:
     dance-double:
     :
     Easy:
     2:
     0.089768,0.117652,0.000000,0.013514,0.000000,93.000000,93.000000,0.000000,2.000000,0.000000,0.000000,0.089768,0.117652,0.000000,0.013514,0.000000,93.000000,93.000000,0.000000,2.000000,0.000000,0.000000:
00000000
00000000
00000000
00000000
,
00000000
00000000
00000000
00000000
,
00000000
00000000
00000000
00000000
,
00000000
00000000
00000000
00000000
,
00000000
00000000
00000000
00000000
,
00001000
00000000
00001000
00000000
,
00000010
00000000
00000010
00000000
,
00010000
00000000
00010000
00000000
,
00100000
00000000
00001000
00001000
,
00020000
00000000
00000000
00000000
,
00030000
00000000
00000000
00000000
,
00000000
00000000
00000000
00000000
,
00000000
00000000
00000000
00000000
,
10000000
00000000
10000000
00000000
,
00100000
00000000
00100000
00000000
,
00010000
00000000
00010000
00000000
,
00001000
00001000
00010000
00010000
,
00001000
00000000
00000100
00000000
,
00000001
00000000
00000010
00000000
,
00001000
00000000
00010000
00000000
,
00100000
00000000
00010000
00010000
,
00010000
00000000
01000000
00000000
,
10000000
00000000
00100000
00000000
,
00010000
00000000
00001000
00000000
,
00000010
00000010
00001000
00001000
,
00000000
00000100
00000000
00000001
,
00000000
00000100
00000000
00001000
,
00000000
00100000
00000000
10000000
,
00000000
00100000
00000000
00010000
,
01000000
00000000
01000000
00000000
,
00100000
00000000
00100000
00000000
,
10000000
00000000
10000000
00000000
,
01000000
00000000
01000000
00000000
,
00010000
00000000
00001000
00000000
,
00010000
00000000
00000010
00000000
,
00000100
00000000
00000001
00000000
,
00001000
00000000
00010000
00000000
,
00001000
00000000
00010000
00000000
,
00001000
00000000
01000000
00000000
,
00100000
00000000
10000000
00000000
,
00010000
00010000
00001000
00001000
,
00010000
00000000
00100000
00000000
,
10000000
00000000
01000000
00000000
,
00010000
00000000
00001000
00000000
,
00000100
00000000
00001000
00001000
,
00001000
00000000
00000010
00000000
,
00000001
00000000
00000100
00000000
,
00001000
00000000
00010000
00000000
,
01000000
01000000
00010000
00010000
,
00002000
00000000
00000000
00003000
;

//---------------dance-double - ----------------
#NOTES:
     dance-double:
     :
     Medium:
     5:
     0.179537,0.252111,0.195946,0.013514,0.000000,186.000000,157.000000,29.000000,2.000000,0.000000,0.000000,0.179537,0.252111,0.195946,0.013514,0.000000,186.000000,157.000000,29.000000,2.000000,0.000000,0.000000:
00000000
00000000
00000000
00000000
,
00000000
00000000
00000000
00000000
,
00000000
00000000
00000000
00000000
,
00000000
00000000
00000000
00000000
,
00000000
00000000
00000000
00000000
,
00010000
10000000
00010000
10000000
,
00100000
01000000
00100000
00000000
,
00001000
00000001
00001000
00000001
,
00000010
00000100
00000010
00000100
,
00020000
00000000
00000000
00000000
,
00030000
00000000
00000000
00000000
,
00000000
00000000
00000000
00000000
,
00000000
00000000
00000000
00000000
,
00001000
00001000
00001000
00001000
,
00010000
00010000
00010000
00000000
,
00100000
00100000
00100000
00100000
,
10000000
00010000
00001000
00000001
,
00000010
00001000
00000100
00000011
,
00000100
00001010
00010000
00101000
,
00010000
01000000
10000000
00110000
,
01000000
10010000
01100000
01100000
,
00100000
00010000
01000000
10100000
,
01000000
00110000
00001000
00010010
,
00001000
00000100
00000001
00001010
,
00000110
00001001
00000110
00000110
,
00000000
00001000
00000001
00000001
,
00000010
00000100
00001000
00010000
,
00000000
00010000
10000000
10000000
,
00100000
01000000
00010000
00001000
,
00010000
00010000
00001000
00001000
,
00000100
00000001
00000010
00000010
,
00001000
00001000
00010000
00000000
,
01000000
10000000
00100000
01100000
,
10000000
01000000
00010000
00010000
,
00001000
00000100
00000001
00000001
,
00001000
00010000
00100000
00100000
,
00010000
00001000
00000100
00000100
,
00000001
00000010
00001000
00001000
,
00010000
00100000
10000000
10000000
,
00010000
00001000
00000100
00000100
,
00000001
00001000
00010000
10000000
,
00100000
00010000
01000000
10100000
,
01000000
00110000
00001000
00010010
,
00001000
00000100
00000001
00001010
,
00000100
00001001
00000110
00000110
,
00001000
00001000
00000001
00000001
,
00000010
00001000
00010000
00101000
,
00010000
01000000
10000000
00110000
,
01100000
10010000
01100000
01100000
,
00020000
00000000
00000000
00030000
;

//---------------dance-single - ----------------
#NOTES:
     dance-single:
     :
     Challenge:
     13:
     0.560811,0.672297,0.912162,0.182432,0.587838,581.000000,446.000000,135.000000,27.000000,104.000000,0.000000,0.560811,0.672297,0.912162,0.182432,0.587838,581.000000,446.000000,135.000000,27.000000,104.000000,0.000000:
// measure 0
0000
0000
0000
0000
,  // measure 1
0000
0000
0000
0000
,  // measure 2
0000
0000
0000
0000
,  // measure 3
0000
0000
0000
0000
,  // measure 4
0000
0000
0000
0000
,  // measure 5
0110
MMMM
0110
MMMM
1100
MMMM
0101
MMMM
,  // measure 6
0011
MMMM
1010
MMMM
1001
MMMM
1001
0010
,  // measure 7
0110
MMMM
0110
MMMM
1010
MMMM
0011
MMMM
,  // measure 8
0101
0000
MMMM
0000
1100
0000
MMMM
0000
0011
0000
0100
0000
1001
0000
0001
0100
,  // measure 9
2000
0000
0000
0000
,  // measure 10
3100
0010
0010
0100
,  // measure 11
0001
1000
1000
0001
,  // measure 12
0010
0000
0100
0000
0100
0000
0010
0100
,  // measure 13
0110
MMMM
0110
MMMM
1001
MMMM
1001
MMMM
,  // measure 14
0101
MMMM
1010
MMMM
0110
MMMM
0110
0100
,  // measure 15
1100
MMMM
1010
MMMM
0011
MMMM
0101
MMMM
,  // measure 16
0110
0000
0000
0110
0000
0000
0110
0000
0011
0000
0000
0011
0000
0000
0011
0000
1100
0000
0000
1100
0000
0000
1100
0000
1001
0000
0000
0100
0001
0000
0100
0000
,  // measure 17
0010
0000
0000
0100
0000
0000
0001
0000
0000
0100
0000
0000
0010
0000
0000
0000
0000
0000
1000
0000
0000
0000
0100
0000
0101
0000
0000
0000
0000
0000
1100
0000
0000
0000
0000
0000
0101
0000
0000
0000
0000
0000
0010
0000
0000
0000
0001
0000
,  // measure 18
0101
0000
0000
0000
0000
0000
1100
0000
0000
0000
0000
0000
0101
0000
0000
0000
0000
0000
0010
0000
0000
0000
1000
0000
1100
0000
0000
0000
0000
0000
0101
0000
0000
0000
0000
0000
1100
0000
0000
0000
0000
0000
1000
0000
0000
0100
0000
0000
,  // measure 19
0010
0000
0000
0100
0000
0000
1000
0000
0000
0100
0000
0000
0010
0000
0000
0000
0000
0000
0001
0000
0000
0000
0100
0000
1100
0000
0000
0000
0000
0000
0101
0000
0000
0000
0000
0000
1100
0000
0000
0000
0000
0000
0010
0000
0000
0000
1000
0000
,  // measure 20
1100
0000
0000
0000
0101
0000
0000
0000
1100
0000
0000
0000
0010
0000
0001
0000
0101
0000
0000
0101
0000
0000
0101
0000
1010
0000
0000
1010
0000
0000
1010
0000
,  // measure 21
0100
0000
0000
0001
0000
0000
0100
0000
0000
0001
0000
0000
0010
0000
0000
0000
0000
0000
0001
0000
0000
0000
1000
0000
1010
0000
0000
0000
0000
0000
0011
0000
0000
0000
0000
0000
1010
0000
0000
0000
0000
0000
0100
0000
0000
0000
0001
0000
,  // measure 22
0011
0000
0000
0000
0000
0000
1010
0000
0000
0000
0000
0000
0011
0000
0000
0000
0000
0000
0100
0000
0000
0000
1000
0000
1010
0000
0000
0000
0000
0000
0011
0000
0000
0000
0000
0000
1010
0000
0000
0000
0000
0000
0001
0000
0000
1000
0000
0000
,  // measure 23
0100
0000
0000
1000
0000
0000
0100
0000
0000
1000
0000
0000
0010
0000
0000
0000
0000
0000
0100
0000
0000
0000
0001
0000
0011
0000
0000
0000
0000
0000
1100
0000
0000
0000
0000
0000
0011
0000
0000
0000
0000
0000
0100
0000
0000
0000
0000
0000
,  // measure 24
0110
0000
0000
0000
0100
0000
0000
0000
0110
0000
0000
0000
0100
0000
0001
0000
0101
0000
0000
0101
0000
0000
0101
0000
1010
0000
0000
1010
0000
0000
0110
0000
,  // measure 25
MMMM
0000
0001
0000
0100
1000
0000
1000
0200
0010
0000
0310
1000
0100
0010
0001
,  // measure 26
0020
0000
1030
0020
0000
0032
0000
2003
0000
3020
0000
0230
0000
0301
0010
0001
,  // measure 27
MMMM
0000
0001
0000
0010
1000
0000
1000
0020
0100
0000
0130
1000
0010
0100
0001
,  // measure 28
0200
0000
0000
1000
0000
0000
1300
0000
0200
0000
0000
0001
0000
0000
0301
0000
2000
0000
0000
0100
0000
0000
3100
0000
0010
0000
0001
0000
0100
0000
0001
0000
,  // measure 29
1000
0000
1100
0001
0100
0000
0101
1000
0100
0000
0011
0000
0100
0000
1010
0000
,  // measure 30
0100
0000
0000
0000
0011
0000
1000
0000
0010
0000
0000
0000
1010
0000
0001
0000
0010
0000
0100
0000
0010
0000
1000
0000
0010
0001
0010
0001
1000
0000
0001
0000
,  // measure 31
0100
0000
0110
1000
0100
0000
0110
0001
0100
0001
0100
0020
0000
0000
0130
0010
,  // measure 32
1000
0000
1100
0000
0001
0000
0101
0000
1000
0100
0010
0001
1000
0100
0010
0001
,  // measure 33
0200
0000
0310
1000
0002
0100
0000
0103
0010
1000
0010
0001
0010
0000
0100
0010
,  // measure 34
2000
0000
3001
0010
0200
1000
0000
1300
0001
0100
1000
0100
0001
0000
0001
1000
,  // measure 35
0100
0000
0010
0001
0100
1000
0000
0010
1000
0100
0001
0020
0000
0130
1000
0001
,  // measure 36
0200
0000
0310
2000
0000
3100
0010
0002
0000
1003
0010
0100
0010
0000
0010
1000
,  // measure 37
0200
0000
0310
0001
2000
0100
0000
3100
0010
0001
0010
1000
0010
0000
0100
0010
,  // measure 38
0002
0000
0000
0000
1003
0000
0010
0000
0200
0000
0001
0000
0000
0000
0301
0000
1000
0000
0100
0000
0001
0000
0100
0000
1000
0001
1000
0001
1000
0000
0001
0000
,  // measure 39
0100
0000
0010
1000
0100
0001
0000
0010
0001
0100
1000
0001
0000
0001
0100
0010
,  // measure 40
0110
0000
0000
0110
0000
0000
0110
0000
1010
0000
0000
1010
0000
0000
1010
0000
0101
0000
0000
0101
0000
0000
0101
0000
1001
0000
0000
0100
1000
0000
0100
0000
,  // measure 41
0010
0000
0000
0100
0000
0000
1000
0000
0000
0100
0000
0000
0010
0000
0000
0000
0000
0000
0001
0000
0000
0000
0100
0000
1100
0000
0000
0000
0000
0000
0101
0000
0000
0000
0000
0000
1100
0000
0000
0000
0000
0000
0010
0000
0000
0000
1000
0000
,  // measure 42
1100
0000
0000
0000
0000
0000
0101
0000
0000
0000
0000
0000
1100
0000
0000
0000
0000
0000
0010
0000
0000
0000
0001
0000
0101
0000
0000
0000
0000
0000
1100
0000
0000
0000
0000
0000
0101
0000
0000
0000
0000
0000
0001
0000
0000
0100
0000
0000
,  // measure 43
0010
0000
0000
0100
0000
0000
0001
0000
0000
0100
0000
0000
0010
0000
0000
0000
0000
0000
1000
0000
0000
0000
0100
0000
0101
0000
0000
0000
0000
0000
1100
0000
0000
0000
0000
0000
0101
0000
0000
0000
0000
0000
0010
0000
0000
0000
0001
0000
,  // measure 44
0101
0000
0000
0000
1100
0000
0000
0000
0101
0000
0000
0000
0010
0000
1000
0000
1100
0000
0000
1100
0000
0000
1100
0000
0011
0000
0000
0011
0000
0000
0011
0000
,  // measure 45
0100
0000
1000
0000
0100
0000
1000
0000
0010
0000
0000
0000
0100
0000
0001
0000
0100
0000
0001
0000
0010
0000
0000
0000
0001
0000
1000
0000
0001
1000
0001
1000
,  // measure 46
0100
0000
0000
1000
0000
0000
0100
0000
0000
1000
0000
0000
0010
0000
0000
0000
0000
0000
1000
0000
0000
0000
0001
0000
0011
0000
0000
0000
0000
0000
1010
0000
0000
0000
0000
0000
0011
0000
0000
0000
0000
0000
1000
0000
0000
0001
0000
0000
,  // measure 47
0100
0000
0000
0001
0000
0000
0100
0000
0000
0001
0000
0000
0010
0000
0000
0000
0000
0000
0100
0000
0000
0000
1000
0000
1010
0000
0000
0000
0000
0000
0101
0000
0000
0000
0000
0000
1010
0000
0000
0000
0000
0000
0100
0000
0000
0000
0000
0000
,  // measure 48
0110
0000
0000
0000
0100
0000
0000
0000
0110
0000
0000
0000
0100
0000
1000
0000
1100
0000
0000
1100
0000
0000
1100
0000
0011
0000
0000
0011
0000
0000
0110
0000
,  // measure 49
2002
0000
0000
3003
;

//---------------dance-double - ----------------
#NOTES:
     dance-double:
     :
     Hard:
     9:
     0.316602,0.386571,0.283784,0.020270,0.094595,328.000000,286.000000,42.000000,3.000000,0.000000,0.000000,0.316602,0.386571,0.283784,0.020270,0.094595,328.000000,286.000000,42.000000,3.000000,0.000000,0.000000:
00000000
00000000
00000000
00000000
,
00000000
00000000
00000000
00000000
,
00000000
00000000
00000000
00000000
,
00000000
00000000
00000000
00000000
,
00000000
00000000
00000000
00000000
,
00010000
11000000
00000000
00110000
00000000
00011000
00000000
00011000
,
00000000
00001010
00000000
00000011
00000000
00000101
00000100
00001000
,
00010000
10100000
00000000
01010000
00000000
00011000
00000000
00011000
,
00000000
00001100
00000000
00000101
00000000
00000010
00000100
00000100
,
00000020
00000000
00000000
00000000
,
00000030
00000000
00000000
00000000
,
00000000
00000000
00000000
00000000
,
00000000
00000000
00000000
00000000
,
00001000
00000011
00000000
00001100
00000000
00011000
00000000
00011000
,
00000000
01010000
00000000
11000000
00000000
10100000
00100000
00010000
,
00001000
00000101
00000000
00001010
00000000
00011000
00000000
01100000
,
10000000
00000000
00000000
00100000
00000000
00000000
00010000
00000000
00001000
00000000
00000000
00000010
00000000
00000000
00000001
00000000
00000100
00000000
00000000
00000000
00000010
00000000
00000000
00000000
00000010
00000000
00000000
00000000
00000100
00000000
00000000
00000000
,
00000101
00000001
00001001
00000100
00000010
00000010
00000010
00000000
,
00001000
00001000
00001000
00000000
00010000
00010000
00010000
00000000
,
01100000
01000000
10010000
01000000
00100000
00100000
00100000
00000000
,
01000000
00000000
00000000
00000000
01000000
00000000
00000000
00000000
01000000
00000000
00000000
00000000
00000000
00000000
00000000
00000000
00010000
00000000
00000000
00010000
00000000
00000000
00010000
00000000
10000000
00000000
00000000
10000000
00000000
00000000
10000000
00000000
,
10100000
10000000
10010000
01000000
00100000
00100000
00100000
00000000
,
00010000
00010000
00010000
00000000
00001000
00001000
00001000
00000000
,
00000110
00000100
00001001
00000100
00000010
00000010
00000010
00000100
,
00000100
00000000
00000000
00000000
00000010
00000000
00000000
00000000
00000010
00000000
00000000
00000000
00000100
00000000
00000000
00000000
00000010
00000000
00000000
00000010
00000000
00000000
00000001
00000000
00000100
00000000
00000000
00000100
00000000
00000000
00001000
00000000
,
00000000
00000100
00000001
00000000
00001000
00000100
00000100
00000000
,
00010000
00000000
00001000
00000000
00100000
00000000
00010000
01000000
,
00000000
10000000
00100000
00000000
01000000
00001000
00010000
00000000
,
00000010
00000000
00000000
00010000
00000000
00000000
00001000
00000000
00100000
00000000
00000000
00001000
00000000
00000000
00010000
00000000
00000010
00000000
00000000
00000000
00001000
00000000
00000000
00000000
00000100
00000000
00000000
00000000
00000001
00000000
00000000
00000000
,
00000010
00000010
00000001
00000001
00000100
00000010
00001000
00000010
,
00010000
00010000
00001000
00001000
00100000
00010000
01000000
01000000
,
00010000
00010000
10000000
10000000
01000000
00100000
00020000
00000000
,
10030000
10000000
00010000
00010000
10000000
00100000
00010000
01000000
,
10000000
01000000
00010000
01000000
10000000
01000000
00010000
00000000
,
00001000
00000100
00000001
00000100
00001000
00000100
00000001
00000000
,
00001000
00000100
00000010
00000001
00000010
00000100
00001000
00000000
,
00010000
00100000
01000000
10000000
01000000
00100000
00010000
00000000
,
10000000
00100000
00010000
00100000
10000000
00100000
00010000
00000000
,
00001000
00000010
00000001
00000010
00001000
00000010
00000001
00000001
,
00001000
00000010
00000100
00000001
00000100
00000010
00001000
00001000
,
00000001
00000000
00000000
00000010
00000000
00000000
00001000
00000000
00010000
00000000
00000000
00100000
00000000
00000000
10000000
00000000
01000000
00000000
00000000
00000000
00100000
00000000
00000000
00000000
00100000
00000000
00000000
00000000
01000000
00000000
00000000
00000000
,
11000000
10000000
10010000
01000000
00100000
00100000
00100000
00000000
,
00010000
00010000
00010000
00000000
00001000
00001000
00001000
00000000
,
00000110
00000100
00001001
00000100
00000010
00000010
00000010
00000000
,
00000100
00000000
00000000
00000000
00000100
00000000
00000000
00000000
00000100
00000000
00000000
00000000
00000000
00000000
00000000
00000000
00001000
00000000
00000000
00001000
00000000
00000000
00001000
00000000
00000001
00000000
00000000
00000001
00000000
00000000
00000001
00000000
,
00000011
00000001
00001001
00000101
00000100
00000110
00001000
00010000
,
00001000
00001000
00001000
00010000
00010000
00010000
00010000
00000000
,
01100000
01000000
10010000
01000000
00100000
00100000
00100000
01000000
,
01000000
00000000
00000000
00000000
00100000
00000000
00000000
00000000
00100000
00000000
00000000
00000000
01000000
00000000
00000000
00000000
00100000
00000000
00000000
00100000
00000000
00000000
10000000
00000000
01000000
00000000
00000000
01000000
00000000
00000000
00010000
00000000
,
00002000
00000000
00000000
00003000
;

//---------------dance-double - ----------------
#NOTES:
     dance-double:
     :
     Challenge:
     13:
     0.549228,0.672297,0.912162,0.297297,0.587838,569.000000,434.000000,135.000000,44.000000,208.000000,0.000000,0.549228,0.672297,0.912162,0.297297,0.587838,569.000000,434.000000,135.000000,44.000000,208.000000,0.000000:
00000000
00000000
00000000
00000000
,
00000000
00000000
00000000
00000000
,
00000000
00000000
00000000
00000000
,
00000000
00000000
00000000
00000000
,
00000000
00000000
00000000
00000000
,
00011000
MMMMMMMM
10010000
MMMMMMMM
01100000
MMMMMMMM
00011000
MMMMMMMM
,
00001001
MMMMMMMM
00000110
MMMMMMMM
00001100
MMMMMMMM
00000011
00000001
,
00000101
MMMMMMMM
00001010
MMMMMMMM
00011000
MMMMMMMM
10010000
MMMMMMMM
,
01100000
00000000
MMMMMMMM
00000000
01010000
00000000
MMMMMMMM
00000000
10100000
00000000
01000000
00000000
10010000
00000000
10000000
01000000
,
00020000
00000000
00000000
00000000
,
00031000
00010000
00010000
00001000
,
00100000
00010000
00001000
00010000
,
00000010
00000000
00001000
00000000
00010000
00000000
00001000
00010000
,
00011000
MMMMMMMM
00001001
MMMMMMMM
00000110
MMMMMMMM
00011000
MMMMMMMM
,
10010000
MMMMMMMM
01100000
MMMMMMMM
00110000
MMMMMMMM
11000000
10000000
,
10100000
MMMMMMMM
01010000
MMMMMMMM
00011000
MMMMMMMM
00001001
MMMMMMMM
,
00000101
00000000
00000000
00000101
00000000
00000000
00000101
00000000
00001010
00000000
00000000
00001010
00000000
00000000
00001010
00000000
00011000
00000000
00000000
00011000
00000000
00000000
00011000
00000000
01010000
00000000
00000000
01000000
00010000
00000000
01000000
00000000
,
00100000
00000000
00000000
01000000
00000000
00000000
00010000
00000000
00000000
01000000
00000000
00000000
00100000
00000000
00000000
00000000
00000000
00000000
10000000
00000000
00000000
00000000
01000000
00000000
01010000
00000000
00000000
00000000
00000000
00000000
11000000
00000000
00000000
00000000
00000000
00000000
01010000
00000000
00000000
00000000
00000000
00000000
10000000
00000000
00000000
00000000
00100000
00000000
,
00110000
00000000
00000000
00000000
00000000
00000000
10100000
00000000
00000000
00000000
00000000
00000000
00110000
00000000
00000000
00000000
00000000
00000000
00001000
00000000
00000000
00000000
00000010
00000000
00000011
00000000
00000000
00000000
00000000
00000000
00001010
00000000
00000000
00000000
00000000
00000000
00000011
00000000
00000000
00000000
00000000
00000000
00001000
00000000
00000000
00000100
00000000
00000000
,
00000010
00000000
00000000
00000100
00000000
00000000
00001000
00000000
00000000
00000100
00000000
00000000
00000010
00000000
00000000
00000000
00000000
00000000
00000001
00000000
00000000
00000000
00000100
00000000
00001100
00000000
00000000
00000000
00000000
00000000
00000101
00000000
00000000
00000000
00000000
00000000
00001100
00000000
00000000
00000000
00000000
00000000
00000001
00000000
00000000
00000000
00000010
00000000
,
00001010
00000000
00000000
00000000
00000011
00000000
00000000
00000000
00001010
00000000
00000000
00000000
00010000
00000000
00100000
00000000
11000000
00000000
00000000
11000000
00000000
00000000
11000000
00000000
00110000
00000000
00000000
00110000
00000000
00000000
00110000
00000000
,
01000000
00000000
00000000
10000000
00000000
00000000
01000000
00000000
00000000
10000000
00000000
00000000
00100000
00000000
00000000
00000000
00000000
00000000
00010000
00000000
00000000
00000000
00000010
00000000
00001010
00000000
00000000
00000000
00000000
00000000
00011000
00000000
00000000
00000000
00000000
00000000
00001010
00000000
00000000
00000000
00000000
00000000
00000100
00000000
00000000
00000000
00010000
00000000
,
00011000
00000000
00000000
00000000
00000000
00000000
00001010
00000000
00000000
00000000
00000000
00000000
00011000
00000000
00000000
00000000
00000000
00000000
00000100
00000000
00000000
00000000
00000010
00000000
00000110
00000000
00000000
00000000
00000000
00000000
00001001
00000000
00000000
00000000
00000000
00000000
00000110
00000000
00000000
00000000
00000000
00000000
00000001
00000000
00000000
00000100
00000000
00000000
,
00001000
00000000
00000000
00010000
00000000
00000000
00001000
00000000
00000000
00010000
00000000
00000000
00100000
00000000
00000000
00000000
00000000
00000000
01000000
00000000
00000000
00000000
00001000
00000000
00011000
00000000
00000000
00000000
00000000
00000000
00110000
00000000
00000000
00000000
00000000
00000000
00011000
00000000
00000000
00000000
00000000
00000000
00000001
00000000
00000000
00000000
00000000
00000000
,
00011000
00000000
00000000
00000000
10000000
00000000
00000000
00000000
00011000
00000000
00000000
00000000
00000010
00000000
00000001
00000000
00000101
00000000
00000000
00000101
00000000
00000000
00000101
00000000
00001010
00000000
00000000
00001010
00000000
00000000
00010010
00000000
,
MMMMMMMM
00000000
00001000
00000000
00000100
00000010
00000000
00000010
00000200
00001000
00000000
00001300
00000001
00000100
00000010
00000010
,
00002000
00000000
00013000
02000000
00000000
03020000
00000000
00032000
00000000
00023000
00000000
00230000
00000000
00310000
10000000
01000000
,
MMMMMMMM
00000000
00010000
00000000
00100000
01000000
00000000
01000000
00200000
00010000
00000000
00310000
10000000
00100000
01000000
01000000
,
00020000
00000000
00000000
00001000
00000000
00000000
00031000
00000000
00000020
00000000
00000000
00001000
00000000
00000000
00001030
00000000
00020000
00000000
00000000
00001000
00000000
00000000
00031000
00000000
00000100
00000000
00001000
00000000
00000001
00000000
00000010
00000000
,
00000100
00000000
00000110
00000001
00001000
00000000
00000101
00001000
00010000
00000000
10100000
00000000
01000000
00000000
00110000
00000000
,
10000000
00000000
00000000
00000000
01100000
00000000
00010000
00000000
00001000
00000000
00000000
00000000
00000110
00000000
00000001
00000000
00001000
00000000
00000100
00000000
00000010
00000000
00000001
00000000
00000010
00000100
00000010
00000100
00000010
00000000
00000001
00000000
,
00001000
00000000
00000110
00001000
00010000
00000000
01100000
01000000
00010000
00100000
01000000
20000000
00000000
00000000
31000000
00010000
,
00001000
00000000
00001001
00000000
00010000
00000000
10010000
00000000
10000000
01000000
00100000
00010000
00001000
00000100
00000010
00000001
,
00000200
00000000
00001300
00000100
00000010
00002000
00000000
00023000
00000000
01030000
10000000
01000000
00100000
00000000
10000000
01000000
,
00200000
00000000
01300000
20000000
00000000
30020000
00000000
02030000
00000000
03100000
00010000
00001000
00010000
00000000
00000010
00001000
,
00000002
00000000
00000013
00002000
00000000
00003020
00000000
00000032
00000000
00001003
00000010
00000002
00000000
00000013
00001000
00000001
,
00000200
00000000
00001300
00010000
00000010
00002000
00000000
00003200
00000000
00000320
00000000
00000031
00000100
00000000
00001000
00010000
,
00200000
00000000
00310000
00200000
00000000
02300000
00000000
03020000
00000000
00031000
00000010
00000001
00000010
00000000
00000100
00000001
,
00000020
00000000
00000000
00000000
00000130
00000000
00000020
00000000
00000000
00000000
00000032
00000000
00000000
00000000
00002003
00000000
00000000
00000000
00003010
00000000
00000100
00000000
00001000
00000000
01000000
00010000
01000000
00010000
01000000
00000000
00010000
00000000
,
20000000
00000000
31000000
00020000
00000000
02030000
00000000
23000000
00000000
30010000
01000000
20000000
00000000
31000000
00010000
10000000
,
11000000
00000000
00000000
11000000
00000000
00000000
11000000
00000000
00110000
00000000
00000000
00110000
00000000
00000000
00110000
00000000
00011000
00000000
00000000
00011000
00000000
00000000
00011000
00000000
00001100
00000000
00000000
00000100
00001000
00000000
00000100
00000000
,
00000010
00000000
00000000
00000100
00000000
00000000
00001000
00000000
00000000
00000100
00000000
00000000
00000010
00000000
00000000
00000000
00000000
00000000
00000001
00000000
00000000
00000000
00000100
00000000
00001100
00000000
00000000
00000000
00000000
00000000
00000101
00000000
00000000
00000000
00000000
00000000
00001100
00000000
00000000
00000000
00000000
00000000
00000001
00000000
00000000
00000000
00000010
00000000
,
00001010
00000000
00000000
00000000
00000000
00000000
00000011
00000000
00000000
00000000
00000000
00000000
00001010
00000000
00000000
00000000
00000000
00000000
00010000
00000000
00000000
00000000
00100000
00000000
10100000
00000000
00000000
00000000
00000000
00000000
00110000
00000000
00000000
00000000
00000000
00000000
10100000
00000000
00000000
00000000
00000000
00000000
00010000
00000000
00000000
01000000
00000000
00000000
,
00100000
00000000
00000000
01000000
00000000
00000000
00010000
00000000
00000000
01000000
00000000
00000000
00100000
00000000
00000000
00000000
00000000
00000000
10000000
00000000
00000000
00000000
01000000
00000000
01010000
00000000
00000000
00000000
00000000
00000000
11000000
00000000
00000000
00000000
00000000
00000000
01010000
00000000
00000000
00000000
00000000
00000000
10000000
00000000
00000000
00000000
00100000
00000000
,
00110000
00000000
00000000
00000000
10100000
00000000
00000000
00000000
00110000
00000000
00000000
00000000
00001000
00000000
00000010
00000000
00000101
00000000
00000000
00000101
00000000
00000000
00000101
00000000
00001010
00000000
00000000
00001010
00000000
00000000
00001010
00000000
,
00000100
00000000
00000001
00000000
00000100
00000000
00000001
00000000
00000010
00000000
00000000
00000000
00000100
00000000
00001000
00000000
00000100
00000000
00001000
00000000
00000010
00000000
00000000
00000000
00010000
00000000
00001000
00000000
00010000
00001000
00010000
00001000
,
01000000
00000000
00000000
00010000
00000000
00000000
01000000
00000000
00000000
00010000
00000000
00000000
00100000
00000000
00000000
00000000
00000000
00000000
01000000
00000000
00000000
00000000
00100000
00000000
01100000
00000000
00000000
00000000
00000000
00000000
10010000
00000000
00000000
00000000
00000000
00000000
01100000
00000000
00000000
00000000
00000000
00000000
10000000
00000000
00000000
01000000
00000000
00000000
,
00010000
00000000
00000000
00001000
00000000
00000000
00010000
00000000
00000000
00001000
00000000
00000000
00000010
00000000
00000000
00000000
00000000
00000000
00000100
00000000
00000000
00000000
00010000
00000000
00011000
00000000
00000000
00000000
00000000
00000000
00001010
00000000
00000000
00000000
00000000
00000000
00011000
00000000
00000000
00000000
00000000
00000000
10000000
00000000
00000000
00000000
00000000
00000000
,
00011000
00000000
00000000
00000000
00000001
00000000
00000000
00000000
00011000
00000000
00000000
00000000
00100000
00000000
10000000
00000000
11000000
00000000
00000000
11000000
00000000
00000000
11000000
00000000
00110000
00000000
00000000
00110000
00000000
00000000
00101000
00000000
,
00022000
00000000
00000000
00033000
;
