#TITLE:Invisible Frenzy;
#SUBTITLE:;
#ARTIST:Kobaryo;
#TITLETRANSLIT:;
#SUBTITLETRANSLIT:;
#ARTISTTRANSLIT:;
#GENRE:Crossover;
#CREDIT:;
#BANNER:Invisible Frenzy.png;
#BACKGROUND:Invisible Frenzy-bg.png;
#LYRICSPATH:;
#CDTITLE:../cdtitle.png;
#MUSIC:Invisible Frenzy.ogg;
#OFFSET:-0.151000;
#SAMPLESTART:17.782000;
#SAMPLELENGTH:15.000000;
#SELECTABLE:YES;
#BPMS:0.000000=245.000015
,64.000000=61.250004
,65.000000=490.000031
,258.000000=245.000015
,274.000000=490.000031
,306.000000=245.000015
,322.000000=490.000031
,338.000000=245.000015
,340.000000=122.500008
,352.000000=245.000015
,352.500000=122.500008
,353.000000=245.000015
,353.500000=122.500008
,354.000000=245.000015
,354.500000=122.500008
,355.000000=245.000015
,355.500000=122.500008
,356.000000=245.000015
,358.000000=122.500008
,360.000000=490.000031
,368.000000=122.500008
,370.000000=490.000031
,378.000000=122.500008
,380.000000=490.000031
,388.000000=245.000015
,388.500000=122.500008
,389.000000=245.000015
,389.500000=122.500008
,390.000000=245.000015
,390.500000=122.500008
,391.000000=245.000015
,391.500000=122.500008
,392.000000=245.000015
,394.500000=122.500008
,395.000000=245.000015
,395.500000=122.500008
,396.000000=245.000015
,396.500000=122.500008
,397.000000=245.000015
,397.500000=122.500008
,398.000000=245.000015
,400.500000=122.500008
,401.000000=245.000015
,401.500000=122.500008
,402.000000=245.000015
,402.500000=122.500008
,403.000000=245.000015
,403.500000=122.500008
,404.000000=245.000015
,406.000000=122.500008
,436.000000=61.250004
,437.000000=245.000015
,461.000000=61.250004
,462.000000=490.000031
,591.000000=122.500008
,605.000000=245.000015
,609.000000=490.000031
,687.000000=122.500008
;
#STOPS:65.000000=0.214000,
65.250000=0.214000,
65.500000=0.214000,
65.750000=0.214000,
338.000000=1.469000,
462.000000=0.214000,
462.250000=0.214000,
462.500000=0.214000,
462.750000=0.214000,
634.000000=0.122000,
635.000000=0.122000
;
#BGCHANGES:-99.000=../bg.avi=1.000=0=0=1=====,
99999=-nosongbg-=1.000=0=0=0 // don't automatically add -songbackground-
;
#KEYSOUNDS:;
#ATTACKS:;

//---------------dance-single - ----------------
#NOTES:
     dance-single:
     :
     Challenge:
     19:
     1.050048,2.356803,0.892963,0.494450,0.505520,996.000000,875.000000,121.000000,67.000000,0.000000,0.000000,1.050048,2.356803,0.892963,0.494450,0.505520,996.000000,875.000000,121.000000,67.000000,0.000000,0.000000:
0000
0000
0000
0000
,
0000
0000
0000
0000
,
1001
0000
0000
0000
,
0000
0000
0000
0000
,
0000
0000
0000
0000
,
0000
0000
0000
0000
0000
0202
0000
0303
,
1100
0000
0000
0000
,
0000
0000
0000
0000
,
0000
0000
0000
0000
,
0000
0000
0000
0000
0000
0022
0000
0033
,
1010
0000
0010
0000
0010
0000
0010
0001
,
1001
0000
1000
0000
1000
0100
1000
0001
,
0110
0001
1000
0000
0001
0010
0001
0010
,
1100
0000
0010
0000
0001
0000
0000
0000
1000
0010
0100
0010
1000
0010
0100
0010
,
1000
0100
0001
0100
0110
0001
0010
0100
,
1000
0000
0000
0100
0000
0000
1000
0000
0000
0100
0000
0000
0010
0000
0000
0001
0000
0000
0010
0000
0000
0001
0000
0000
0100
0000
0010
0000
0100
0000
0010
0000
0100
0000
0010
0000
0100
0000
0010
0000
0100
0000
0010
0000
0100
0000
0010
0000
,
0200
0000
0000
0000
0310
1100
0011
0110
1001
0000
0000
0000
0100
0000
0000
0000
,
0001
0000
0010
0000
0100
1000
0100
0000
,
0010
0001
0100
0010
,
0100
0000
1000
0000
0100
0010
0100
0001
,
1000
0000
0010
0000
0100
0000
0001
0100
,
0001
0000
0010
0000
0100
0010
0100
0000
,
1000
1100
0000
0110
,
0110
0000
0001
0000
1000
0100
1000
0100
,
0010
0001
0010
0001
1000
0000
0100
0000
,
1000
0100
1000
0010
,
1000
0010
0001
0010
,
0001
0010
1000
0100
,
0001
0100
1001
0000
,
0011
0000
1100
0000
,
1001
0000
0001
0010
,
0100
0000
0010
0000
0001
0000
0100
0010
,
0100
0000
0110
0001
,
0100
0001
1000
0001
,
0010
0001
1000
0100
,
1000
0000
0001
0000
1000
0000
0010
1000
,
0010
0100
0001
0010
,
0001
0010
1000
0010
,
0100
1000
0100
0000
0010
0000
0001
0000
,
0100
0000
0010
0000
0100
0001
0100
0001
,
1000
0100
0010
0001
2000
0000
0000
0000
,
3000
0220
0000
0330
,
0202
0000
0303
2200
,
3300
2020
3030
1001
,
0011
0000
0000
0000
0100
1000
0100
0000
,
0001
0000
0100
1000
0100
0000
0001
0000
,
0100
1000
0100
0000
0010
0001
0010
0000
,
0100
1000
0001
0010
,
0100
0000
0110
0001
,
0010
0001
1000
0001
,
0100
0001
1000
0010
,
1000
0000
0001
0000
1000
0000
0100
1000
,
0100
0010
0001
0100
,
0001
0100
1000
0100
,
0010
1000
0010
0000
0100
0000
0001
0000
,
0010
0000
0100
0000
0010
0001
0010
0001
,
1000
0010
0100
0001
2000
0000
0000
0000
,
3000
0220
0000
0330
,
0022
0000
0033
2020
,
3030
2200
3300
1001
,
0001
0100
0001
0000
1000
0100
1000
0100
,
1000
0001
1000
0001
0010
0001
0010
0100
,
1000
0001
1000
0001
1000
0001
0020
0000
0000
0000
0000
0000
,
0100
0000
1000
0000
,
0001
0000
0030
0000
1001
1000
0001
0010
,
0200
0000
1300
0001
0000
1000
0010
0000
,
0100
0000
0010
0000
1000
0000
0100
0010
,
0000
0100
0001
0100
1000
0001
0010
0100
,
1000
0100
0010
0001
1001
0000
0000
0000
,
1100
0000
1000
0001
,
0100
0010
0110
0000
,
1001
0000
0000
0000
1000
0000
0100
0010
,
0001
0010
1100
0000
,
1010
0000
0010
0001
,
0010
1000
1001
0001
,
1000
0000
0000
0000
0001
0010
0001
0010
,
0100
1000
0010
0100
0002
0000
0000
0000
,
0000
0000
0000
0000
,
0000
0000
0000
0000
,
0000
0000
0000
0000
,
0000
0000
0000
0000
1003
0100
1000
0100
,
1000
0000
0001
0010
0001
0010
0001
0000
,
0100
0010
1000
0100
0010
0100
0010
0100
,
0010
0000
0000
0100
0000
0000
0010
0000
0000
0100
0000
0000
1000
0000
0001
0000
1000
0000
0001
0000
1000
0000
0001
0000
,
1000
0000
0000
0000
0000
0000
0000
0000
0000
0000
0000
0000
0000
0000
0000
0000
0001
0000
0000
0000
0000
0000
0000
0000
0000
0000
0000
0000
0000
0000
0000
0000
1000
0000
0000
0000
0000
0000
0000
0000
0000
0000
0000
0000
0000
0000
0000
0000
0001
0000
0000
0000
0000
0000
0000
0000
0000
0000
0000
0000
0000
0000
0000
0000
1000
0000
0000
0000
0000
0000
0000
0000
0000
0000
0000
0000
0000
0000
0000
0000
0001
0000
0000
0000
0000
0000
0000
0000
0000
0000
0000
0000
0000
0000
0000
0000
0020
0000
0000
0000
0000
0000
0030
0000
0000
0000
0000
0000
0000
0000
0000
0000
0000
0000
0000
0000
0000
0000
0000
0000
0000
0000
0000
0000
0000
0000
0000
0000
0000
0000
0000
0000
0000
0000
0000
0000
0000
0000
0000
0000
0000
0000
0000
0000
0000
0000
0000
0000
0000
0000
0000
0000
0000
0000
0000
0000
0000
0000
0000
0000
0000
0000
0000
0000
0000
0000
0000
0000
0000
0000
0000
0000
0000
0000
0000
0000
0000
0000
0000
0000
0000
0000
0000
0000
0000
0000
0000
0000
0000
0000
0000
0000
,
0110
0000
0100
0000
1000
0000
0100
0000
0010
0001
0010
0000
0001
0000
0100
0000
0000
0000
0010
0000
1000
0000
0100
0000
1000
0000
1000
0000
0001
0000
1000
0000
,
0001
0000
1000
0100
1000
0000
0010
0000
0100
0000
0001
0000
0010
0000
0100
0000
0000
0000
0001
0100
0001
0000
0100
0000
0010
0000
0100
0000
1000
0001
1000
0001
,
1000
0000
0100
0000
0010
0000
0001
0000
0100
0001
0100
0000
0010
0000
1000
0000
0000
0000
0100
0000
1000
0000
0001
0000
0010
0000
0100
0000
1000
0000
0100
0000
,
0220
0000
0000
0330
0202
0000
0000
0303
2200
0000
0000
3300
2020
0000
0000
3030
,
0110
0000
0000
0000
0000
0000
0100
0000
0000
0000
0000
0000
0001
0000
0000
0000
1000
0100
1000
0000
0001
0000
1000
0100
1000
0000
0001
0000
0100
0000
0010
0000
,
2000
0000
0000
0000
,
0000
0000
0000
0000
,
3100
0010
0100
0000
1000
0000
0100
0010
0100
0000
1000
0000
0001
0000
0010
0000
0100
0000
0000
0000
0000
0000
0000
0000
0001
0000
0000
0000
0000
0000
0000
0000
,
0100
1000
0001
0010
,
0100
0000
0000
0000
0000
0000
0000
0000
1000
0000
0000
0000
0000
0000
0000
0000
0001
0100
0001
0000
1000
0000
0001
0100
0001
0000
1000
0000
0100
0000
0010
0000
,
0002
0000
0000
0000
,
0000
0000
0000
0003
,
0220
0000
0000
0330
2200
0000
0000
3300
2020
0000
0000
3030
0022
0000
0000
0033
,
0100
0001
0100
0001
1000
0100
0010
0100
2100
0000
0001
3000
0021
0000
0100
0030
,
2100
0000
0010
3000
1200
0000
0010
0300
0001
0100
0001
0100
0010
1000
0100
0010
,
0021
0000
1000
0030
1200
0000
0001
0300
1020
0000
0001
0030
0201
0000
1000
0300
,
0001
0010
0100
0010
0001
0100
0010
1000
0002
0000
0000
0000
0000
0000
0000
0000
,
0000
0000
0003
0000
,
0000
0000
0000
0000
,
0000
0000
0000
0000
,
0000
0000
0000
0000
1000
1000
0010
0001
,
0020
0000
0230
0000
1300
1000
0100
0001
,
2000
0100
3020
0100
1030
1000
0100
0001
,
0200
0010
0320
0001
0130
0100
0001
0100
,
2000
0000
0000
0000
0000
0000
0000
0000
3001
0000
1000
0001
1000
0000
0000
0000
1001
0000
0000
0000
0000
0000
0000
0000
0000
0000
0000
0000
0000
0000
0000
0000
0000
0000
0000
0000
0000
0000
0000
0000
0000
0000
0000
0000
0000
0000
0000
0000
0000
0000
0000
0000
0000
0000
0000
0000
0000
0000
0000
0000
0000
0000
0000
0000
,
0000
0101
0000
0000
,
0000
0011
0000
0000
,
0000
0000
1100
0000
0000
0000
0001
0220
,
0000
0330
1001
0001
0100
0010
1000
0100
,
1000
0000
0000
0000
0000
0000
0001
0000
0000
0000
0000
0000
0010
0000
0000
0100
0000
0000
0010
0000
0000
0100
0000
0000
1000
0000
0000
0100
0000
0000
0010
0000
0000
0001
0000
0000
0100
0000
0010
0000
0100
0000
0010
0000
0100
0000
0010
0000
,
0100
0000
0010
0000
0100
0000
0010
0000
0100
0000
0010
0000
0200
0000
0000
0000
0000
0000
0000
0000
0000
0000
0000
0000
0310
0000
0000
0011
0000
0000
1100
0000
0000
0110
0000
0000
1001
0000
0000
0000
0000
0000
0000
0000
0000
0000
0000
0000
,
0100
0010
0001
0010
,
0100
0000
1000
0001
1000
0000
0010
0000
,
0100
0001
0100
0010
,
1000
0000
0001
1000
0001
0000
0010
0000
,
0100
0001
0100
0010
,
0001
0000
0100
0001
0100
0010
1000
0000
,
1100
0000
0011
0000
,
0001
0100
0001
0000
1000
0000
0100
0000
,
0010
0001
0010
0100
,
1000
0000
0001
1000
0001
0000
0100
0000
,
0010
1000
0010
0100
,
0001
0000
0010
0000
0100
0000
1010
0001
,
0010
0000
0000
0000
0101
1000
0100
0000
,
0000
0000
0101
1000
0010
0000
0000
0000
,
1100
0001
0010
0000
0000
0000
0001
1000
,
0001
1000
0002
0000
0003
0000
1001
0000
,
0001
0010
1000
0000
0001
0000
0100
0000
,
1000
0001
0010
0110
,
1000
0100
0001
0000
1000
0000
0010
0000
,
0001
0100
0010
0110
,
0100
0001
0010
0000
0100
0000
1000
0000
,
0010
1000
0100
0001
,
0110
0000
1100
0000
,
1000
0100
0010
0000
0001
0000
1001
0000
,
1000
0010
0001
0000
1000
0000
0100
0000
,
0001
1000
0010
0110
,
0001
0100
1000
0000
0001
0000
0010
0000
,
1000
0000
0100
0000
0010
0000
0101
0010
,
0100
0000
0000
0000
1010
0100
0010
0000
,
0000
0000
0101
0010
0001
0000
0000
0000
,
1100
0010
1000
0000
0001
0000
0010
0000
,
0100
0000
0000
0000
0000
0000
0000
0000
0000
0000
0000
0000
0010
0000
0000
0000
0001
0000
0000
0000
0010
0000
0000
0000
0100
0000
0000
0000
1000
0000
0000
0000
0100
0000
0000
0000
1000
0000
0000
0100
0000
0000
1000
0000
0000
0001
0000
0000
,
0100
0010
1000
0001
0000
0100
0010
0000
1100
0000
0101
0000
0001
0000
0110
0000
,
1000
0000
0110
0000
0001
0010
1000
0010
0001
1000
0100
0001
0100
1000
0001
0000
,
1001
0000
0001
0010
0100
1000
0010
0100
0001
0000
0101
0000
1000
0010
0000
0001
,
0010
0000
1000
0100
0011
0000
0000
0000
0110
0000
0000
0000
1100
0000
0001
1000
,
0002
0003
1001
0000
1010
0000
0101
0000
,
0001
1001
1100
0110
,
0100
0001
0100
0000
1100
0000
1001
0000
,
0001
0010
0001
0000
1000
0100
0010
0100
,
1000
0001
1000
0001
0000
0000
1001
0000
0000
1100
0000
0000
,
0011
0000
0110
0000
1000
0000
0001
0100
,
0010
1000
1001
0000
0011
0000
1100
0000
,
0001
0010
0100
0000
0010
0000
0110
0000
,
1100
0110
0100
0101
,
0100
0000
1001
0000
0001
0100
0001
0000
,
1001
0000
1010
0000
0100
0001
0100
0000
,
0010
0000
0000
1000
0000
0000
0100
0000
0000
0010
0000
0000
0001
0000
1000
0000
0001
0000
1000
0000
0000
0100
0000
0000
,
1000
0000
0010
0000
1100
0010
0100
0000
,
0010
0000
1100
0001
0010
0000
0100
0000
,
1010
0001
1000
0000
0010
0000
0110
0000
,
0001
0000
0100
0001
0100
0010
1000
0100
,
1000
0100
0001
0000
0100
1000
0100
1000
,
0010
0000
0001
0010
1000
0100
0001
0000
,
1000
0010
0100
1000
0010
0000
1000
0100
,
0010
0000
0000
0001
0000
0000
0100
0000
0010
0000
1000
0000
0100
0000
0010
0000
0001
0000
2000
0000
0000
0000
0000
0000
,
0000
0000
0000
0000
0000
3000
0000
0000
;

//---------------dance-single - ----------------
#NOTES:
     dance-single:
     :
     Hard:
     18:
     0.947784,2.165711,0.737986,0.479691,0.402202,899.000000,799.000000,100.000000,65.000000,0.000000,0.000000,0.947784,2.165711,0.737986,0.479691,0.402202,899.000000,799.000000,100.000000,65.000000,0.000000,0.000000:
// measure 0
0000
0000
0000
0000
,  // measure 1
0000
0000
0000
0000
,  // measure 2
0110
0000
0000
0000
,  // measure 3
0000
0000
0000
0000
,  // measure 4
0000
0000
0000
0000
,  // measure 5
0000
0000
0000
0000
0000
2002
0000
3003
,  // measure 6
0110
0000
0000
0000
,  // measure 7
0000
0000
0000
0000
,  // measure 8
0000
0000
0000
0000
,  // measure 9
0000
0000
0000
0000
0000
0220
0000
0330
,  // measure 10
1001
0100
0100
0100
,  // measure 11
1001
0010
0010
0010
,  // measure 12
0110
0001
0001
0001
,  // measure 13
0110
0000
1000
0000
1000
0220
0000
0330
,  // measure 14
0101
0000
1001
0000
1000
0100
0010
0001
,  // measure 15
1000
0010
1000
0010
0100
0001
0100
0001
0010
0100
0010
0100
0010
0100
0010
0100
,  // measure 16
0020
0000
0000
0000
0130
0100
1010
0011
1001
0000
0000
0000
0001
0000
0000
0000
,  // measure 17
1000
0010
0100
0001
,  // measure 18
0100
0010
1000
0100
,  // measure 19
1000
0001
0010
0100
,  // measure 20
0010
0001
1000
0100
,  // measure 21
1000
0010
0100
0001
,  // measure 22
0010
0110
0000
1001
,  // measure 23
1001
0000
0001
0000
1000
0010
1000
0010
,  // measure 24
0100
0010
0100
0010
1000
0000
0001
0000
,  // measure 25
1000
0001
0010
0001
,  // measure 26
0010
0001
0010
0100
,  // measure 27
0010
0100
1000
0100
,  // measure 28
1000
0001
1001
0000
,  // measure 29
0110
0000
1100
0000
,  // measure 30
0110
0000
0001
1000
,  // measure 31
0100
1000
0001
1000
,  // measure 32
0010
0000
0110
0000
,  // measure 33
0100
0001
1000
0010
,  // measure 34
0100
0010
0100
0001
,  // measure 35
0010
0100
1000
0010
,  // measure 36
0100
0001
1000
0100
,  // measure 37
1000
0100
0001
0100
,  // measure 38
0010
0100
1000
0001
,  // measure 39
1000
0000
0010
0000
0100
0010
0100
0001
,  // measure 40
1000
0001
0022
0000
,  // measure 41
0033
2200
0000
3300
,  // measure 42
2002
0000
3003
2020
,  // measure 43
3030
0202
0303
1000
,  // measure 44
0100
0000
0000
0000
0010
0100
0010
0000
,  // measure 45
0001
0000
1000
0100
1000
0000
0001
0000
,  // measure 46
0100
0010
0100
0000
1000
0000
0100
0000
,  // measure 47
0001
0010
0100
1000
,  // measure 48
0100
0000
0110
0010
,  // measure 49
0100
1000
0001
0010
,  // measure 50
0100
0010
0100
1000
,  // measure 51
0010
0100
0001
0010
,  // measure 52
0100
1000
0001
0100
,  // measure 53
0001
0100
1000
0100
,  // measure 54
0010
0100
0001
1000
,  // measure 55
0001
0000
0010
0000
0100
0010
0100
1000
,  // measure 56
0001
1000
2020
0000
,  // measure 57
3030
0202
0000
0303
,  // measure 58
2002
0000
3003
0022
,  // measure 59
0033
2200
3300
0001
,  // measure 60
0100
0000
0010
0000
1000
0100
1000
0100
,  // measure 61
0010
0001
0010
0001
0010
0100
0010
0100
,  // measure 62
1000
0001
1000
0001
2000
0000
0000
0000
,  // measure 63
0100
0000
0001
0000
,  // measure 64
0010
0000
3000
0000
0110
0100
0001
1000
,  // measure 65
0020
0000
0130
1000
0000
0100
0010
0000
,  // measure 66
1000
0000
0001
0000
1000
0000
0100
0010
,  // measure 67
0000
0100
0001
0100
1000
0100
0010
0001
,  // measure 68
0100
0010
1000
0100
1100
0000
0000
0000
,  // measure 69
0011
0000
0100
1000
,  // measure 70
0001
1000
1010
0000
,  // measure 71
0101
0000
0000
0000
0001
0010
0001
0000
,  // measure 72
1000
0010
0110
0000
,  // measure 73
0110
0000
0001
0001
,  // measure 74
0100
0001
1001
0010
,  // measure 75
0100
0000
0000
0000
1000
0010
1000
0010
,  // measure 76
0100
0001
0010
0100
2000
0000
0000
0000
,  // measure 77
0000
0000
0000
0000
,  // measure 78
0000
0000
0000
0000
,  // measure 79
0000
0000
0000
0000
,  // measure 80
0000
0000
0000
0000
3100
0010
0100
0000
,  // measure 81
1000
0000
0010
0100
0010
0000
1000
0000
,  // measure 82
0100
0010
0100
0000
1000
0001
1000
0001
,  // measure 83
1000
0001
1000
0001
1000
0001
1000
0001
,  // measure 84
1000
0000
0000
0000
0001
0000
0000
0000
1000
0000
0000
0000
0001
0000
0000
0000
2000
3000
0000
0000
0000
0000
0000
0000
0000
0000
0000
0000
0000
0000
0000
0000
,  // measure 85
1001
0001
0100
0001
0010
0100
1000
1000
0000
0001
0100
0001
1000
0001
0010
0100
,  // measure 86
1000
0000
0010
0000
0100
0000
0001
0000
0010
0000
0100
0000
0010
0000
0010
0000
0000
0000
0100
0000
1000
0000
0001
0000
1000
0000
0010
0000
0100
0001
0100
0001
,  // measure 87
1000
0100
1000
0001
0100
0010
1000
1000
0000
0100
0010
0100
1000
0001
0100
0010
,  // measure 88
2010
0000
0000
3100
0012
0000
0000
1003
2100
0000
0000
3010
0102
0000
0000
1003
,  // measure 89
1001
0000
0000
0000
0000
0000
0010
0000
0000
0000
0000
0000
0010
0000
0000
0000
0100
0010
0100
0000
0001
0000
0100
0010
0100
0000
0001
0000
1000
0000
0100
0000
,  // measure 90
0020
0000
0000
0000
,  // measure 91
0000
0000
0000
0000
,  // measure 92
0130
1000
0100
0000
0010
0000
0100
1000
0100
0000
0010
0000
0001
0000
0100
0000
0010
0000
0000
0000
0000
0000
0000
0000
1000
0000
0000
0000
0000
0000
0000
0000
,  // measure 93
0100
0010
0001
0010
,  // measure 94
0100
0000
0000
0000
0000
0000
0000
0000
1000
0000
0000
0000
0000
0000
0000
0000
0010
0100
0010
0000
1000
0000
0010
0100
0010
0000
1000
0000
0001
0000
0010
0000
,  // measure 95
0200
0000
0000
0000
,  // measure 96
0000
0000
0000
0300
,  // measure 97
0202
0000
0000
0303
2200
0000
0000
3300
2020
0000
0000
3030
0220
0000
0000
0330
,  // measure 98
0100
0001
1000
0001
0010
0100
1000
0100
0020
0000
0000
0130
2001
0000
0000
3010
,  // measure 99
0120
0000
0000
1030
2100
0000
0000
3100
0010
0001
0010
0001
0100
0010
1000
0001
,  // measure 100
2000
0000
0000
3100
0102
0000
0000
0103
2100
0000
0000
3010
0210
0000
0000
0310
,  // measure 101
1000
0100
1000
0100
0010
0001
0010
0100
2000
0000
0000
0000
0000
0000
0000
0000
,  // measure 102
0000
0000
3000
0000
,  // measure 103
0000
0000
0000
0000
,  // measure 104
0000
0000
0000
0000
,  // measure 105
0000
0000
0000
0000
1000
0100
0001
0100
,  // measure 106
2000
0000
3002
0000
1003
0010
0001
0010
,  // measure 107
1000
0100
1000
0010
0100
0001
0010
1000
,  // measure 108
0020
0000
0032
0000
1003
0100
0001
0010
,  // measure 109
2000
0000
0000
0000
0000
0000
0000
0000
3001
0000
1000
0001
1000
0000
0000
0000
1001
0000
0000
0000
0000
0000
0000
0000
0000
0000
0000
0000
0000
0000
0000
0000
0000
0000
0000
0000
0000
0000
0000
0000
0000
0000
0000
0000
0000
0000
0000
0000
0000
0000
0000
0000
0000
0000
0000
0000
0000
0000
0000
0000
0000
0000
0000
0000
,  // measure 110
0000
0110
0000
0000
,  // measure 111
0000
1100
0000
0000
,  // measure 112
0000
0000
0101
0000
0000
0000
0000
0220
,  // measure 113
0000
0330
1001
0010
0001
1000
0100
0010
,  // measure 114
0100
0000
1000
0000
0001
0100
0001
0100
0010
1000
0010
1000
0100
0010
0100
0010
,  // measure 115
0100
0010
0100
0010
0200
0000
0000
0000
0310
0010
0101
1100
1001
0000
0000
0000
,  // measure 116
0001
1000
0010
0100
,  // measure 117
0001
1000
1000
0100
,  // measure 118
1000
0001
0010
0100
,  // measure 119
1000
0001
0001
0010
,  // measure 120
0001
0100
0010
1000
,  // measure 121
0100
0000
1000
0001
1000
0001
0100
0000
,  // measure 122
1001
0000
1100
0000
,  // measure 123
1000
0001
1000
0000
0001
0000
1000
0000
,  // measure 124
0100
0010
0001
0010
,  // measure 125
0100
1000
1000
0001
,  // measure 126
0100
0010
1000
0010
,  // measure 127
0100
0001
1000
1001
,  // measure 128
1100
0000
1001
0011
,  // measure 129
0000
0110
1001
0000
,  // measure 130
0101
1010
0000
0100
,  // measure 131
0100
0200
0300
1001
,  // measure 132
0001
1000
0100
0010
,  // measure 133
0001
1000
1000
0010
,  // measure 134
1000
0001
0100
0010
,  // measure 135
1000
0001
0001
0100
,  // measure 136
0001
0010
0100
1000
,  // measure 137
0010
0000
1000
0001
1000
0001
0010
0000
,  // measure 138
1001
0000
1010
0000
,  // measure 139
1000
0001
1000
0000
0001
0000
1000
0000
,  // measure 140
0010
0100
0001
0100
,  // measure 141
0010
1000
1000
0001
,  // measure 142
0010
0100
1000
0100
,  // measure 143
0010
0001
1000
1001
,  // measure 144
1010
0000
1001
0101
,  // measure 145
0000
0110
1001
0000
,  // measure 146
0011
1100
0000
1000
,  // measure 147
0010
0000
0000
0000
0100
0000
0001
0000
0100
0000
0001
0000
1000
0100
0001
0100
,  // measure 148
1000
0001
0010
0100
0000
0100
1000
0000
1100
0000
0101
0000
0001
0000
1000
0000
,  // measure 149
1100
0000
0001
0000
1000
0100
1000
0010
0100
0010
1000
0100
0010
0100
0010
0000
,  // measure 150
1001
0000
0100
0010
0001
0100
0010
0100
0010
0000
1001
0000
0001
0010
0000
1000
,  // measure 151
0010
0000
0001
0010
0110
0000
0000
0000
1001
0000
0000
0000
0110
0000
1000
0001
,  // measure 152
2000
3000
1001
0000
0001
0000
0001
0000
,  // measure 153
0100
0010
1000
0001
,  // measure 154
1000
0100
1000
0000
0001
0000
1000
0000
,  // measure 155
0010
0100
0010
0000
0100
0001
0100
0001
,  // measure 156
1000
0100
0010
0000
0100
0000
0100
0000
,  // measure 157
1000
0000
1000
0000
0001
0000
1000
0100
,  // measure 158
0010
0001
0100
0000
1010
0000
0101
0000
,  // measure 159
0001
0010
0100
0000
1000
0000
1001
0000
,  // measure 160
0001
0001
0010
0100
,  // measure 161
1000
0000
0001
0000
1000
0010
1000
0000
,  // measure 162
0001
0000
1000
0000
0100
0010
0100
0000
,  // measure 163
0010
0001
0010
0001
1000
0010
0100
0001
,  // measure 164
0100
0000
0010
0000
1000
0100
1000
0000
,  // measure 165
0010
0000
0100
0001
0010
0000
0100
0000
,  // measure 166
0010
0001
0100
0000
0010
0000
0110
0000
,  // measure 167
1000
0000
0001
0100
0001
0000
1000
0100
,  // measure 168
1000
0100
0010
0000
0001
0100
0001
0100
,  // measure 169
0010
0000
1000
0100
0010
0100
1000
0000
,  // measure 170
0001
0010
0100
0010
0001
0000
1000
0010
,  // measure 171
1000
0010
0100
0001
0010
0100
2000
0000
,  // measure 172
0000
0000
0000
0000
0000
3000
0000
0000
;

//---------------dance-single - ----------------
#NOTES:
     dance-single:
     :
     Medium:
     17:
     0.826544,1.974619,0.715846,0.494450,0.239845,784.000000,687.000000,97.000000,67.000000,0.000000,0.000000,0.826544,1.974619,0.715846,0.494450,0.239845,784.000000,687.000000,97.000000,67.000000,0.000000,0.000000:
0000
0000
0000
0000
,
0000
0000
0000
0000
,
1001
0000
0000
0000
,
0000
0000
0000
0000
,
0000
0000
0000
0000
,
0000
0000
0000
0000
0000
0220
0000
0330
,
1001
0000
0000
0000
,
0000
0000
0000
0000
,
0000
0000
0000
0000
,
0000
0000
0000
0000
0000
0022
0000
0033
,
1100
0100
0001
0100
,
1010
0010
0001
0010
,
0011
0100
1000
0100
,
0101
0000
1000
0000
0010
0020
0000
0030
,
0110
0000
1001
0000
1000
0100
0001
0100
,
1000
0100
1000
0000
0010
0000
0100
0000
0001
0100
0001
0000
0010
0000
0100
0000
,
0020
0000
0000
0000
0130
0010
1001
0110
1001
0000
0000
0000
0001
0000
0000
0000
,
0010
1000
0010
0100
,
0010
0001
0000
1000
,
0001
0100
0010
0100
,
0001
1000
0100
0001
,
0100
1000
0001
0010
,
0100
1100
0000
0010
,
1010
0000
0000
0000
1000
0100
1000
0100
,
0010
0001
1000
0100
,
1000
0100
1000
0010
,
1000
0010
0100
0001
,
0100
0001
0010
0100
,
0010
0001
1001
0000
,
1100
0000
0101
0000
,
1001
0000
0100
0010
,
0100
0100
0010
0000
,
0110
0000
1001
0000
,
0001
0100
0010
0100
,
0001
0010
0100
1000
,
0100
1000
0001
0010
,
0100
1000
0001
1000
,
0010
1000
0001
0100
,
0001
1000
0000
0100
,
0010
0000
0001
0000
1000
0100
1000
0000
,
0001
0100
0220
0000
,
0330
2020
0000
3030
,
0022
0000
0033
0110
,
0000
0110
0000
1000
,
0001
0000
0000
0000
1000
0100
1000
0000
,
0001
0000
0100
0001
0100
0000
0001
0000
,
1000
0010
1000
0000
0010
0000
0100
0000
,
0001
0010
0100
0000
,
0100
0000
1001
0000
,
0001
0010
0100
0010
,
0001
0100
0010
1000
,
0010
1000
0001
0100
,
0010
1000
0001
1000
,
0100
1000
0001
0010
,
0001
1000
0000
0010
,
0100
0000
0001
0000
1000
0010
1000
0000
,
0001
0010
0220
0000
,
0330
2200
0000
3300
,
0202
0000
0303
0110
,
0000
0110
0000
1000
,
0001
0000
0000
0000
0010
0100
0010
0000
,
0001
0000
1000
0000
0100
0010
0100
0000
,
1000
0001
0020
0000
,
0230
0000
2300
0000
,
3001
0000
0000
0000
1001
0100
0010
0000
,
0002
0000
0013
1000
0000
0000
1000
0000
,
0010
0000
0001
0000
1000
0000
0100
1000
,
0000
0001
0100
0001
1000
0100
0010
0100
,
1000
0001
0100
0010
0110
0000
0000
0000
,
0110
0000
1000
0100
,
1000
0001
1001
0000
,
0101
0000
0010
1000
,
0001
1000
1100
0000
,
1100
0000
0010
0001
,
0100
0001
1001
1000
,
0100
0000
0000
0000
1000
0001
1000
0001
,
0010
0100
0020
0000
,
0000
0000
0000
0000
,
0000
0000
0000
0000
,
0000
0000
0000
0000
,
0000
0000
0000
0000
0130
0010
0100
0000
,
0001
0000
0100
1000
0100
0000
1000
0000
,
0001
1000
0001
0000
0010
0100
0010
0000
,
0100
0000
1000
0000
0010
0100
0010
0000
,
0100
0000
0000
0000
0000
0000
0000
0000
0001
0000
0000
0000
0000
0000
0000
0000
2000
3000
0000
0000
0000
0000
0000
0000
0000
0000
0000
0000
0000
0000
0000
0000
,
0010
0100
0100
0000
1001
0000
1000
0100
0000
0001
0100
1000
0001
1000
0100
0100
,
1000
0000
0001
0000
0001
0000
0000
0000
0110
0000
0000
0000
0001
0000
1000
0000
0000
0000
1000
0000
0010
0000
0100
0000
0001
0000
0010
0000
0100
1000
0001
0000
,
0100
0010
0010
0000
1001
0000
0001
0010
0000
1000
0010
0001
1000
0001
0010
0100
,
0220
0000
0000
0330
2200
0000
0000
3300
2002
0000
0000
3003
2020
0000
0000
3030
,
0110
0000
0000
0000
0000
0000
0100
0000
0000
0000
0000
0000
0010
0000
0000
0000
1000
0001
1000
0000
0100
0000
1000
0001
1000
0000
0010
0000
0100
0000
1000
0000
,
0200
0000
0000
0000
,
0000
0000
0000
0000
,
0301
0100
0001
0000
0010
0000
0100
1000
0100
0000
0010
0000
0100
0000
1000
0000
0001
0000
0000
0000
0000
0000
0000
0000
0010
0000
0000
0000
0000
0000
0000
0000
,
1000
0001
0100
1000
,
0100
0000
0000
0000
0000
0000
0000
0000
0000
0000
0000
0000
0000
0000
0000
0000
1000
0001
1000
0000
0010
0000
1000
0001
1000
0000
0100
0000
0010
0000
1000
0000
,
0020
0000
0000
0000
,
0000
0000
0000
0030
,
0220
0000
0000
0330
0202
0000
0000
0303
2200
0000
0000
3300
2020
0000
0000
3030
,
0100
0001
0100
0001
1000
0000
0010
0000
0220
0000
0000
0330
2200
0000
0000
3300
,
0202
0000
0000
0303
2002
0000
0000
3003
1000
0100
1000
0100
0010
0000
0001
0000
,
2002
0000
0000
3003
2020
0000
0000
3030
0022
0000
0000
0033
0220
0000
0000
0330
,
0001
0100
0001
0100
0010
0000
1000
0000
0002
0000
0000
0000
0000
0000
0000
0000
,
0000
0000
0003
0000
,
0000
0000
0000
0000
,
0000
0000
0000
0000
,
0000
0000
0000
0000
1000
0100
0001
0000
,
2000
0000
3001
0000
0001
0100
1000
0010
,
0100
0001
0010
0000
0100
1000
0010
0000
,
0200
0000
0310
0000
0010
1000
0100
0010
,
0200
0000
0000
0000
0310
0100
0010
0000
1001
0000
0000
0000
0000
0000
0000
0000
0000
0000
0000
0000
0000
0000
0000
0000
0000
0000
0000
0000
0000
0000
0000
0000
,
0000
0101
0000
0000
,
0000
1100
0000
0000
,
0000
0000
0110
0000
0000
0100
0000
2002
,
0000
3003
0110
0000
1001
0000
0001
0010
,
1000
0000
0010
0000
0001
0010
0001
0000
0100
0000
0010
0000
1000
0010
1000
0000
,
0100
0000
0010
0000
0200
0000
0000
0000
0310
0100
1001
0110
1001
0000
0000
0000
,
1000
0100
0010
0100
,
1000
0001
0000
1000
,
0001
0100
0010
0100
,
0001
1000
0000
0100
,
0010
0001
0010
0100
,
0001
0100
1000
0001
,
1001
0000
0101
0000
,
0001
1000
0100
1000
,
0001
0010
0100
0010
,
0001
1000
0000
0001
,
1000
0010
0100
0010
,
1000
0001
0000
1000
,
1100
0000
0010
0011
,
0000
0100
0110
0000
,
1000
1001
0000
0010
,
0100
0020
0030
1000
,
0001
1000
1000
0100
,
0010
0001
0000
0010
,
0100
0010
0010
0001
,
0100
0010
0000
0100
,
0001
0010
0100
1000
,
0001
1000
0010
0001
,
0011
0000
1010
0000
,
1000
0100
1000
0001
,
0001
1000
0001
0010
,
0100
1000
0000
0100
,
0100
0010
0100
1000
,
0010
0100
0000
0010
,
1010
0000
0001
0101
,
0000
0010
0110
0000
,
1000
1001
0000
0001
,
1000
0000
0000
0000
0100
0000
0010
0000
0100
0000
0000
0000
1000
0001
1000
0000
,
0101
0000
0001
0100
0000
0100
0001
0000
1100
0000
0001
0000
1000
0000
0010
0000
,
0001
0000
0010
0000
1000
0100
0010
0100
1000
0010
0100
0000
0001
0100
0001
0000
,
1100
0000
0001
0000
1000
0100
1000
0000
0101
0000
1000
0000
0001
0010
0000
0010
,
1000
0000
1000
0010
0110
0000
0000
0000
0101
0000
0000
0000
0110
0000
0000
0000
,
1001
0110
0100
0100
,
1000
0010
0010
0100
,
0001
1000
0010
0000
0100
0000
0001
0000
,
0100
0001
1000
0000
0100
0000
0010
0100
,
0010
0100
0010
0000
0100
0000
0001
0000
,
0100
1000
0010
0100
,
0001
0010
0100
0110
,
0001
1000
0010
0110
,
0010
0010
1000
0100
,
0100
0000
0010
0000
0001
1000
0100
0000
,
0010
0000
0001
0000
0010
0001
1000
0000
,
0010
0000
0100
0010
0100
0010
0100
0000
,
0110
0000
0001
0101
,
0000
0010
1010
0000
,
0010
0011
0000
0001
,
1000
0000
0010
0100
0001
0000
1000
0100
,
1000
0000
0100
0000
0001
0100
0001
0000
,
0100
0000
1000
0010
1000
0000
0010
0000
,
0001
0010
0001
0000
0010
0000
1000
0010
,
1000
0000
0001
0010
0100
1000
0002
0000
,
0000
0000
0000
0000
0000
0003
0000
0000
;

//---------------dance-single - ----------------
#NOTES:
     dance-single:
     :
     Easy:
     14:
     0.638885,1.592435,0.472311,0.398512,0.114388,606.000000,542.000000,64.000000,54.000000,0.000000,0.000000,0.638885,1.592435,0.472311,0.398512,0.114388,606.000000,542.000000,64.000000,54.000000,0.000000,0.000000:
0000
0000
0000
0000
,
0000
0000
0000
0000
,
0110
0000
0000
0000
,
0000
0000
0000
0000
,
0000
0000
0000
0000
,
0000
0000
0000
0000
0000
0200
0000
0300
,
1001
0000
0000
0000
,
0000
0000
0000
0000
,
0000
0000
0000
0000
,
0000
0000
0000
0000
0000
0200
0000
0300
,
1001
0100
0001
0000
,
1001
0100
1000
0000
,
0110
0001
0010
0000
,
0110
1000
0020
0030
,
1010
0000
0101
0000
0001
1000
0100
0000
,
1000
0010
0100
0010
1000
0100
0001
1000
,
0020
0000
0000
0000
0130
0100
0010
0110
1000
0000
0000
0000
0001
0000
0000
0000
,
0100
0000
1001
0000
,
0100
1000
0000
1000
,
0100
0010
0001
0000
,
0110
0000
1000
0100
,
1000
0000
0001
0100
,
0010
0110
0000
0001
,
0001
0000
0010
0100
,
0010
0100
1000
0100
,
1000
0000
0010
1000
,
0010
0000
0001
0010
,
0001
0000
0100
0001
,
0100
0000
1100
0000
,
1100
0000
1001
0000
,
0011
0000
0100
1000
,
0001
0000
0010
0000
,
0010
0000
0110
0000
,
0001
0000
1000
0100
,
0010
0000
0001
0000
,
0100
0000
0010
0000
,
0010
0000
1000
0000
,
0100
0000
0100
0010
,
0100
1000
0000
1000
,
0010
0000
0100
0001
,
0100
0001
2000
0000
,
3000
2000
0000
3000
,
2200
0000
3300
0001
,
0000
0001
0000
0100
,
0001
0000
1000
0000
,
0100
0010
0000
0100
,
0010
0000
0100
1000
,
0001
0000
0010
0000
,
0100
0000
0110
0000
,
0001
0000
1000
0010
,
0100
0000
0001
0000
,
0010
0000
0100
0000
,
0100
0000
1000
0000
,
0010
0000
0010
0100
,
0010
1000
0000
1000
,
0100
0000
0010
0001
,
0010
0001
2000
0000
,
3000
2000
0000
3000
,
2020
0000
3030
0001
,
0000
0001
0000
0010
,
0001
0000
1000
0100
,
1000
0100
0001
0100
,
0001
0100
2000
0000
,
3002
0000
0023
0000
,
0130
0000
0000
0000
1000
0010
0100
0000
,
0002
0000
0000
0013
0000
0000
0001
0000
,
0001
0000
0010
0000
0100
0000
1000
0001
,
0000
0100
0001
0000
1000
0100
0010
0100
,
1000
0010
0100
0000
0101
0000
0000
0000
,
0101
0000
0001
0010
,
0100
0000
1100
0000
,
1100
0000
0100
1000
,
0010
0000
0011
0000
,
0011
0000
0001
0100
,
0010
0000
1010
0000
,
1010
0000
0001
0010
,
0100
1000
0002
0000
,
0000
0000
0000
0000
,
0000
0000
0000
0000
,
0000
0000
0000
0000
,
0000
0000
0013
0010
,
0000
0100
0100
0000
,
1000
0001
1000
0010
,
1000
0010
0100
0001
,
0010
0000
0000
0000
0000
0000
0000
0000
0100
0000
0000
0000
0000
0000
0000
0000
2000
3000
0000
0000
0000
0000
0000
0000
0000
0000
0000
0000
0000
0000
0000
0000
,
1001
0000
0100
0000
0110
0000
0001
0010
0000
0010
1000
0000
0110
0000
0001
0000
,
1000
0000
0010
0000
0110
0000
1000
0100
0000
0100
0001
0000
0010
0000
0100
1000
,
0001
0000
0010
0000
0110
0000
0001
0100
0000
0100
1000
0000
0001
0010
0100
1000
,
0002
0000
0000
0003
0220
0000
0000
0330
2000
0000
0000
3000
0220
0000
0000
0330
,
0001
0000
0000
0100
0000
0000
0010
0000
1000
0000
0100
0010
0000
0100
0010
0000
,
0002
0000
0000
0000
,
0000
0000
0000
0000
,
0013
0000
0100
1000
0000
0100
1000
0000
0010
0000
0000
0000
0000
0000
0000
0000
,
0100
0000
0002
0000
,
2003
0000
0000
0000
0000
0000
0000
0000
3001
0000
0010
0100
0000
0010
0100
0000
,
2000
0000
0000
0000
,
0000
0000
0000
0000
,
3020
0000
0000
0030
0202
0000
0000
0303
2000
0000
0000
3000
0022
0000
0000
0033
,
0100
0000
0100
0000
1000
0000
0010
0000
0200
0000
0000
0300
2020
0000
0000
3030
,
0002
0000
0000
0003
2200
0000
0000
3300
0010
0000
0000
0001
0000
0000
0100
0000
,
2000
0000
0000
3000
0220
0000
0000
0330
0002
0000
0000
0003
0220
0000
0000
0330
,
1000
0000
0000
0100
0000
0000
0001
0000
0200
0000
0000
0000
0000
0000
0000
0000
,
0000
0000
0300
0000
,
0000
0000
0000
0000
,
0000
0000
0000
0000
,
0000
0000
1000
0100
,
0002
0103
1000
0010
,
0100
0100
0001
0010
,
2000
3010
0001
0100
,
0020
0000
0130
0010
1001
0000
0000
0000
0000
0000
0000
0000
0000
0000
0000
0000
,
0000
1100
0000
0000
,
0000
0011
0000
0000
,
0000
0000
0110
0000
0000
1000
0000
0002
,
0000
0003
0101
0000
1010
0000
1000
0001
,
0010
0000
0001
0100
0010
0100
0001
0010
,
1000
0000
0001
0000
0200
0000
0000
0000
0310
0010
0100
0110
0001
0000
0000
0000
,
1000
0100
1000
0001
,
0000
0101
0000
1000
,
0100
0010
0100
1000
,
0000
1001
0000
0001
,
0100
0010
1000
0010
,
0000
0010
0100
0001
,
0010
0000
0110
0000
,
1000
0001
0010
0001
,
1000
0010
0100
0001
,
0000
0101
0000
1000
,
0010
0100
0010
1000
,
0000
1001
0000
0001
,
0010
0000
1000
0010
,
0000
0100
0010
0000
,
0001
1000
0000
0010
,
0100
0020
0030
1000
,
0001
0010
0100
1000
,
0000
1100
0000
0001
,
0010
0100
0010
0001
,
0000
1001
0000
1000
,
0010
0100
0001
1000
,
0000
0100
0001
0100
,
0010
0000
0110
0000
,
0001
1000
0010
1000
,
0100
0010
0001
1000
,
0000
1100
0000
0001
,
0100
0010
1000
0001
,
0000
1001
0000
0010
,
0100
0000
1000
0010
,
0000
0100
1000
0000
,
0001
0010
0000
0100
,
0010
0000
0100
0000
0001
0000
1000
0010
,
0110
0000
0100
0001
0000
0000
1000
0000
0100
0000
0010
0000
0100
0000
1000
0000
,
0010
0000
0001
0000
0010
1000
0010
0000
0100
0001
1000
0000
0100
0010
0100
0000
,
1000
0000
0101
0000
0010
0100
0010
0000
1000
0000
0011
0000
0010
1000
0000
0010
,
0001
0000
0010
0100
0010
0000
0000
0000
0100
0000
0000
0000
1001
0000
0000
0000
,
0110
0010
0010
0010
,
0010
0010
0010
0010
,
0000
1000
1000
1000
,
1000
1000
1000
1000
,
0000
0100
0010
0001
,
0100
0010
1000
0100
,
0010
0001
0100
1100
,
0001
0100
0001
1000
,
1000
1000
1000
1000
,
1000
1000
0000
0100
,
0100
0100
0100
0100
,
0100
0100
0000
0010
,
0001
0000
0100
0010
,
0000
0001
0010
0000
,
1000
0010
0000
0100
,
0001
1000
0010
0100
,
0100
1000
0100
0100
,
0001
0010
0010
1000
,
0010
0010
0001
1000
,
0001
0010
0100
2000
,
0000
0000
0000
0000
0000
3000
0000
0000
;

//---------------dance-single - ----------------
#NOTES:
     dance-single:
     :
     Beginner:
     12:
     0.438574,1.210250,0.405892,0.214016,0.018450,416.000000,361.000000,55.000000,29.000000,0.000000,0.000000,0.438574,1.210250,0.405892,0.214016,0.018450,416.000000,361.000000,55.000000,29.000000,0.000000,0.000000:
0000
0000
0000
0000
,
0000
0000
0000
0000
,
0110
0000
0000
0000
,
0000
0000
0000
0000
,
0000
0000
0000
0000
,
0000
0000
0000
0000
0000
1001
0000
0000
,
1001
0000
0000
0000
,
0000
0000
0000
0000
,
0000
0000
0000
0000
,
0000
0000
0000
0000
0000
0110
0000
0000
,
0110
0000
0100
0000
,
1001
0000
0100
0000
,
0110
0000
0100
0000
,
1001
0000
0200
0300
,
0010
0010
0100
0100
,
1000
0010
0001
0100
,
2000
0000
0000
0000
0000
0000
0000
3000
0001
0000
0000
0000
0000
0000
0000
0000
,
0001
0000
0010
0000
,
0010
0000
1000
0000
,
0100
0000
1000
0000
,
0100
0000
0001
0000
,
0100
0000
0001
0000
,
1000
0100
0000
1000
,
0001
0000
0002
0000
,
0003
0000
1000
0000
,
1000
0000
0010
0000
,
0010
0000
0001
0000
,
0010
0000
1000
0000
,
0100
0000
0110
0000
,
0110
0000
0110
0000
,
1001
0000
0010
0000
,
0100
0000
0010
0000
,
0010
0000
0110
0000
,
1000
0000
0001
0000
,
0001
0000
1000
0000
,
0100
0000
0010
0000
,
0001
0000
0010
0000
,
0100
0000
1000
0000
,
1000
0000
0001
0000
,
0100
0000
0010
0000
,
1000
0000
0001
0000
,
0000
0001
0000
0000
,
0001
0000
0000
1000
,
0000
1000
0000
0000
,
1001
0000
0010
0000
,
0000
0010
0000
0000
,
0100
0000
0001
0000
,
0010
0000
0100
0000
,
0100
0000
0110
0000
,
0001
0000
1000
0000
,
1000
0000
0001
0000
,
0100
0000
0010
0000
,
1000
0000
0010
0000
,
0100
0000
0001
0000
,
0001
0000
1000
0000
,
0100
0000
0010
0000
,
0001
0000
1000
0000
,
0000
1000
0000
0000
,
1000
0000
0000
0001
,
0000
0001
0000
0000
,
1001
0000
0010
0000
,
0100
0000
0010
0000
,
0100
0000
0020
0000
,
0000
0000
0000
0000
,
0030
0000
0100
0000
,
0200
0000
0300
0000
,
0100
0000
0001
0010
,
0200
0000
0010
0000
,
0310
0000
0110
0000
,
0001
0000
0100
0000
,
0000
0000
1001
0000
,
0100
0000
0001
0000
,
0000
0000
0110
0000
,
1000
0000
0010
0000
,
0000
0000
1001
0000
,
0010
0000
0100
0000
,
0100
0000
0020
0000
,
0000
0000
0000
0000
,
0000
0000
0000
0000
,
0000
0000
0000
0000
,
0000
0000
0031
0100
,
0000
0001
0100
0000
,
0010
1000
0002
0000
,
0023
0000
0230
0000
,
2300
0000
3001
0000
,
0100
0000
1001
0000
1000
0100
0001
0000
,
0100
0000
1001
0000
1000
0010
0001
0010
,
0100
0000
0110
0000
0001
0010
1000
0010
,
0001
0001
1001
0001
,
0220
0000
0000
0000
0330
0000
0000
0000
1000
0000
0000
0100
0000
0000
0010
0000
,
0002
0000
0000
0000
,
0000
0000
0000
0000
,
0013
0000
0000
0100
0000
0000
1000
0000
0010
0000
0000
0000
0000
0000
0000
0000
,
0100
0000
0020
0000
,
0030
0000
0000
0000
0000
0000
0000
0000
1000
0000
0000
0100
0000
0000
0010
0000
,
0002
0000
0000
0000
,
0000
0000
0000
0000
,
1003
1000
1001
1000
,
0110
0001
0010
0010
,
0110
0010
1001
0100
,
0001
0001
1001
0001
,
0110
0100
0020
0000
,
0000
0000
0030
0000
,
0000
0000
0000
0000
,
0000
0000
0000
0000
,
0000
0000
1000
1000
,
2000
3000
0100
0100
,
0200
0300
0001
0001
,
0002
0003
0010
0010
,
0020
0030
0110
0000
0000
0000
0000
0000
,
0000
1001
0000
0000
,
0000
0110
0000
0000
,
0000
1001
0000
0000
,
0000
0100
0100
0010
,
0010
0001
0100
1000
,
0010
0000
0000
0000
0002
0000
0000
0000
0000
0000
0000
0003
1000
0000
0000
0000
,
0000
0100
0000
0010
,
0000
0010
0000
0001
,
0000
0100
0000
0010
,
0000
0010
0000
0100
,
0000
0001
0000
0010
,
0000
0100
0000
0010
,
0000
0000
0110
0000
,
0000
0001
0000
0001
,
0000
0100
0000
0010
,
0000
0010
0000
1000
,
0000
0100
0000
0010
,
0000
0010
0000
0100
,
0000
0000
0100
0000
,
0000
1001
0000
0000
,
0110
0000
0000
0010
,
0000
0010
0000
0100
,
0000
1000
0000
0001
,
0000
0010
0000
0001
,
0000
0100
0000
0010
,
0000
1000
0000
0100
,
0000
0010
0000
0001
,
0000
1000
0000
0001
,
0000
0000
0110
0000
,
0000
1000
0000
0010
,
0000
1000
0000
0001
,
0000
0100
0000
0001
,
0000
0010
0000
0100
,
0000
1000
0000
0001
,
0000
0000
0001
0000
,
0000
0110
0000
0000
,
1001
0000
0000
0100
,
0000
0000
0100
0000
0000
0000
0020
0130
,
0110
0000
1000
0001
0000
0000
1000
0000
0010
0000
0100
0000
0001
0000
0010
0000
,
1000
0010
0002
0203
0320
2030
3001
0100
,
0101
0000
0001
0000
1000
0000
0100
0000
1100
0000
1000
0000
0010
0000
0000
0010
,
0000
0100
0110
0000
1001
0000
1001
0000
,
0110
0001
0100
0001
,
0000
0010
0000
0110
,
0000
1000
0100
1000
,
0000
0010
0000
1001
,
0000
0010
0100
0010
,
0000
1000
0000
0001
,
0000
0010
0100
0110
,
0000
0001
0000
1000
,
0010
1000
0000
0100
,
0000
0110
0000
0001
,
0010
0001
0000
0100
,
0000
1001
0000
0001
,
0010
0000
0100
1000
,
0000
0010
0100
0000
,
0001
1000
0000
0100
,
0000
0110
0000
0001
,
0001
0000
1000
1000
,
0000
0100
0100
0000
,
0010
0010
0000
0001
,
0000
0100
0000
0220
,
0000
0000
0000
0000
0000
0330
0000
0000
;

//---------------dance-double - ----------------
#NOTES:
     dance-double:
     :
     Challenge:
     19:
     1.017366,2.356803,0.907722,0.590388,0.457551,965.000000,842.000000,123.000000,80.000000,0.000000,0.000000,1.017366,2.356803,0.907722,0.590388,0.457551,965.000000,842.000000,123.000000,80.000000,0.000000,0.000000:
00000000
00000000
00000000
00000000
,
00000000
00000000
00000000
00000000
,
10010000
00000000
00000000
00000000
,
00000000
00000000
00000000
00000000
,
00000000
00000000
00000000
00000000
,
00000000
00000000
00000000
00000000
00000000
00202000
00000000
00303000
,
00010010
00000000
00000000
00000000
,
00000000
00000000
00000000
00000000
,
00000000
00000000
00000000
00000000
,
00000000
00000000
00000000
00000000
00000000
00000220
00000000
00000330
,
00001001
00000000
00000010
00000000
00000010
00000000
00000010
00001000
,
00011000
00000000
00100000
00000000
00100000
00010000
01000000
00100000
,
10100000
10000000
00010000
00000000
00100000
01000000
00100000
01000000
,
10010000
00000000
01000000
00000000
00100000
00000000
00000000
00000000
00001000
00010000
00001000
00010000
00000010
00001000
00000010
00001000
,
00000100
00000010
00000001
00000001
00000101
00000100
00001000
00000100
,
00000010
00000000
00000000
00001000
00000000
00000000
00000001
00000000
00000000
00000100
00000000
00000000
00000010
00000000
00000000
00001000
00000000
00000000
00000100
00000000
00000000
00010000
00000000
00000000
00001000
00000000
00000000
00010000
00000000
00000000
00001000
00000000
00000000
00010000
00000000
00000000
00001000
00000000
00010000
00000000
00001000
00000000
00010000
00000000
00001000
00000000
00010000
00000000
,
00002000
00000000
00000000
00000000
00013000
01000000
10100000
00110000
11000000
00000000
00000000
00000000
10000000
00000000
00000000
00000000
,
01000000
00000000
00010000
00000000
00001000
00000010
00000100
00000000
,
00010000
01000000
10000000
01000000
,
10000000
00000000
00100000
00000000
01000000
00000000
00001000
00010000
,
00001000
00010000
01000000
00100000
,
00010000
00000000
00000010
00000000
00000001
00000100
00000010
00000000
,
00001010
00001010
00000000
00011000
,
00011000
00000000
00100000
00000000
01000000
10000000
01000000
00100000
,
01000000
10000000
01000000
00100000
01000000
00000000
10000000
00000000
,
01000000
10000000
00100000
10000000
,
00100000
00010000
00100000
00010000
,
00001000
00010000
00001000
00000010
,
00000001
00000010
00000110
00000000
,
00000110
00000000
00001100
00000000
,
00001001
00000000
00000010
00000100
,
00001000
00000000
00010000
00000000
00100000
00000000
01000000
10000000
,
01000000
00000000
10010000
00000000
,
00010000
01000000
00100000
10000000
,
01000000
00100000
01000000
10000000
,
00010000
00000000
10000000
00000000
00100000
00000000
01000000
00010000
,
01000000
00100000
10000000
01000000
,
00010000
00001000
00000010
00000100
,
00001000
00000001
00000010
00000000
00000100
00000000
00001000
00000000
,
00000001
00000000
00000100
00000000
00000010
00001000
00000100
00001000
,
00000001
00000010
00001000
00010000
00022000
00000000
00000000
00000000
,
00033000
02020000
00000000
03030000
,
20200000
00000000
30300000
02200000
,
03300000
22000000
33000000
00110000
,
00011000
00000000
00000000
00000000
00010000
01000000
00010000
00000000
,
00001000
00000000
00000010
00000001
00000010
00000000
00001000
00000000
,
00010000
00100000
00010000
00000000
00100000
00000000
10000000
00000000
,
01000000
00100000
00010000
00001000
,
00000100
00000000
00001001
00000000
,
00001000
00000010
00000100
00000001
,
00000010
00000100
00000010
00000001
,
00001000
00000000
00000001
00000000
00000100
00000000
00000010
00001000
,
00000010
00000100
00000001
00000010
,
00001000
00010000
01000000
00100000
,
00010000
10000000
01000000
00000000
00100000
00000000
00010000
00000000
,
10000000
00000000
00100000
00000000
01000000
00010000
00100000
00010000
,
10000000
01000000
00010000
00001000
00022000
00000000
00000000
00000000
,
00033000
00002020
00000000
00003030
,
00000202
00000000
00000303
00000220
,
00000330
00000022
00000033
00001100
,
00011000
00000000
00001000
00000000
00100000
00010000
00100000
00010000
,
10000000
01000000
10000000
01000000
00010000
00001000
00010000
00001000
,
00000100
00000001
00001000
00000010
00000100
00000001
00000020
00000000
00000000
00000000
00000000
00000000
,
00002030
00000000
00023000
00000000
,
01030000
00000000
00000000
00000000
10010000
00010000
00100000
10000000
,
00200000
00000000
00301000
00010000
00000000
00001000
00010000
00000000
,
00000010
00000000
00000100
00000000
00001001
00000000
00000001
00000020
,
00000000
00000130
00001000
00000100
00000010
00001000
00010000
00100000
,
10000000
01000000
00010000
00001000
00011000
00000000
00000000
00000000
,
00011000
00000000
00000010
00000001
,
00000010
00001000
00001010
00000000
,
00000101
00000000
00000000
00000000
00000001
00000010
00000100
00000010
,
00000001
00000010
00001100
00000000
,
00011000
00000000
00001000
01000000
,
00010000
00100000
01100000
01000000
,
00100000
00000000
00000000
00000000
00010000
10000000
00010000
10000000
,
01000000
00100000
00001000
00010000
00002000
00000000
00000000
00000000
,
00000000
00000000
00000000
00000000
,
00000000
00000000
00000000
00000000
,
00000000
00000000
00000000
00000000
,
00000000
00000000
00000000
00000000
00013000
01000000
00010000
01000000
,
00010000
00000000
00001000
00000100
00001000
00000100
00001000
00000000
,
00010000
01000000
10000000
00100000
00010000
00001000
00010000
00001000
,
00010000
00001000
00010000
00001000
00010000
00001000
00010000
00001000
,
00010000
00000000
00000000
00000000
00000000
00000000
00000000
00000000
00000000
00000000
00000000
00000000
00000000
00000000
00000000
00000000
00001000
00000000
00000000
00000000
00000000
00000000
00000000
00000000
00000000
00000000
00000000
00000000
00000000
00000000
00000000
00000000
00010000
00000000
00000000
00000000
00000000
00000000
00000000
00000000
00000000
00000000
00000000
00000000
00000000
00000000
00000000
00000000
00001000
00000000
00000000
00000000
00000000
00000000
00000000
00000000
00000000
00000000
00000000
00000000
00000000
00000000
00000000
00000000
00010000
00000000
00000000
00000000
00000000
00000000
00000000
00000000
00000000
00000000
00000000
00000000
00000000
00000000
00000000
00000000
00001000
00000000
00000000
00000000
00000000
00000000
00000000
00000000
00000000
00000000
00000000
00000000
00000000
00000000
00000000
00000000
00020000
00000000
00000000
00000000
00000000
00000000
00030000
00000000
00000000
00000000
00000000
00000000
00000000
00000000
00000000
00000000
00000000
00000000
00000000
00000000
00000000
00000000
00000000
00000000
00000000
00000000
00000000
00000000
00000000
00000000
00000000
00000000
00000000
00000000
00000000
00000000
00000000
00000000
00000000
00000000
00000000
00000000
00000000
00000000
00000000
00000000
00000000
00000000
00000000
00000000
00000000
00000000
00000000
00000000
00000000
00000000
00000000
00000000
00000000
00000000
00000000
00000000
00000000
00000000
00000000
00000000
00000000
00000000
00000000
00000000
00000000
00000000
00000000
00000000
00000000
00000000
00000000
00000000
00000000
00000000
00000000
00000000
00000000
00000000
00000000
00000000
00000000
00000000
00000000
00000000
00000000
00000000
00000000
00000000
00000000
00000000
,
01100000
00000000
00001000
00000000
00100000
00000000
00010000
00000000
00001000
00010000
00001000
00000000
00010000
00000000
00100000
00000000
00000000
00000000
00100000
00000000
00010000
00000000
00001000
00000000
00000100
00000010
00000100
00000000
00001000
00000000
00000010
00000000
,
00000100
00000000
00001000
00000000
00010000
00000000
00000100
00000000
00000010
00000001
00000010
00000000
00000100
00000000
00000001
00000000
00000000
00000000
00000100
00000000
00000010
00000000
00001000
00000000
00010000
00000000
00100000
00000000
01000000
00100000
01000000
00100000
,
01000000
00000000
00010000
00000000
10000000
00000000
01000000
00000000
00010000
00001000
00010000
00000000
00001000
00000000
00000010
00000000
00000000
00000000
00000100
00000000
00001000
00000000
00000001
00000000
00001000
00000000
00000010
00000000
00000100
00000000
00000010
00000000
,
00002020
00000000
00000000
00003030
00020200
00000000
00000000
00030300
00202000
00000000
00000000
00303000
20020000
00000000
00000000
30030000
,
11000000
00000000
00000000
00000000
00000000
00000000
00100000
00000000
00000000
00000000
00000000
00000000
00010000
00000000
00000000
00000000
10000000
00100000
10000000
00000000
00100000
00000000
00010000
00001000
00010000
00000000
00100000
00000000
10000000
00000000
01000000
00000000
,
00200000
00000000
00000000
00000000
,
00000000
00000000
00000000
00000000
,
01300000
00010000
01000000
00000000
00010000
00000000
00001000
00000100
00001000
00000000
00000100
00000000
00000001
00000010
00000001
00000000
00000010
00000000
00000000
00000000
00000000
00000000
00000000
00000000
00001000
00000000
00000000
00000000
00000000
00000000
00000000
00000000
,
00010000
00100000
00010000
00001000
,
00000100
00000000
00000000
00000000
00000000
00000000
00000000
00000000
00000000
00000000
00000000
00000000
00000000
00000000
00000000
00000000
00000001
00000010
00000001
00000000
00000010
00000000
00001000
00010000
00001000
00000000
00000010
00000000
00000001
00000000
00000100
00000000
,
00000020
00000000
00000000
00000000
,
00000000
00000000
00000000
00000030
,
00000202
00000000
00000000
00000303
00002020
00000000
00000000
00003030
00020200
00000000
00000000
00030300
00202000
00000000
00000000
00303000
,
00010000
01000000
00010000
01000000
00100000
10000000
01000000
00100000
00020000
00000000
00000000
00030000
22000000
00000000
00000000
33000000
,
00022000
00000000
00000000
00033000
00000202
00000000
00000000
00000303
00001000
00000100
00000001
00000100
00001000
00000001
00000010
00001000
,
00000020
00000000
00000000
00000030
00000202
00000000
00000000
00000303
00022000
00000000
00000000
00033000
02200000
00000000
00000000
03300000
,
00010000
00100000
01000000
00100000
00010000
01000000
00100000
00010000
00002000
00000000
00000000
00000000
00000000
00000000
00000000
00000000
,
00000000
00000000
00003000
00000000
,
00000000
00000000
00000000
00000000
,
00000000
00000000
00000000
00000000
,
00000000
00000000
00000000
00000000
00010000
00001000
00000100
00001000
,
00020000
00000000
00032000
00000000
00013000
01000000
00010000
00001000
,
00000200
00000302
00000023
00002030
00013000
01000000
10000000
00100000
,
00020000
00000000
00032000
00000000
00013000
01000000
00010000
00001000
,
00000200
00000000
00000000
00000000
00000000
00000000
00000000
00000000
00000310
00000000
00000100
00000010
00000100
00000000
00000000
00000000
00001001
00000000
00000000
00000000
00000000
00000000
00000000
00000000
00000000
00000000
00000000
00000000
00000000
00000000
00000000
00000000
00000000
00000000
00000000
00000000
00000000
00000000
00000000
00000000
00000000
00000000
00000000
00000000
00000000
00000000
00000000
00000000
00000000
00000000
00000000
00000000
00000000
00000000
00000000
00000000
00000000
00000000
00000000
00000000
00000000
00000000
00000000
00000000
,
00000000
00011000
00000000
00000000
,
00000000
10010000
00000000
00000000
,
00000000
00000000
00011000
00000000
00000000
00001001
00000000
00000202
,
00000000
00000303
00001010
00000010
00000100
00000001
00000011
00000010
,
00000100
00000000
00001000
00000000
00000010
00000100
00000001
00000010
00000100
00001000
00000010
00010000
00001000
00010000
00001000
00100000
,
01000000
00000000
10000000
00000000
01000000
00000000
10000000
00000000
01000000
00000000
10000000
00000000
00020000
00000000
00000000
00000000
00000000
00000000
00000000
00000000
00000000
00000000
00000000
00000000
00130000
00000000
00000000
10000000
00000000
00000000
01010000
00000000
00000000
00011000
00000000
00000000
00110000
00000000
00000000
00000000
00000000
00000000
00000000
00000000
00000000
00000000
00000000
00000000
,
00100000
01000000
10000000
00100000
,
01000000
00000000
00001000
00010000
00001000
00000000
00010000
00000000
,
00000100
00000010
00000001
00000100
,
00000010
00000000
00001000
00000001
00001000
00000000
00000001
00000000
,
00000100
00000010
00001000
00010000
,
00100000
00000000
01000000
10000000
01000000
00100000
00010000
00000000
,
10000000
00000000
01100000
00000000
,
10000000
00100000
10000000
00000000
01000000
00000000
00010000
00000000
,
00001000
00000100
00000010
00000100
,
00001000
00000000
00010000
00001000
00010000
00000000
01000000
00000000
,
00100000
01000000
00010000
00001000
,
00000010
00000000
00000100
00000010
00000100
00000000
00001100
00000000
,
00001001
00000000
00001010
00000101
,
00000000
00000110
00001010
00000000
,
00011000
00000000
00011000
00000000
00000000
00000000
00100000
00010000
,
00100000
02000000
03000000
10000000
,
01000000
00010000
00001000
00000010
,
00000001
00000000
00000010
00001000
00000010
00000000
00000001
00000000
,
00000100
00001000
00010000
00100000
,
10000000
00000000
00100000
00010000
00100000
00000000
10000000
00000000
,
01000000
00100000
00010000
00001000
,
00000010
00000000
00000100
00001000
00000100
00000001
00000010
00000000
,
00000100
00000000
00011000
00000000
,
00001000
00100000
00001000
00000000
00010000
00000000
00001000
00000000
,
00000100
00000001
00000010
00001000
,
00010000
00000000
00001000
00010000
00001000
00000000
00010000
00000000
,
01000000
10000000
00100000
00010000
,
00001000
00000000
00010000
00001000
00010000
00000000
00011000
00000000
,
00110000
00000000
10010000
11000000
,
00000000
01010000
01100000
00000000
,
00011000
00001010
00000000
00000100
,
00000001
00000000
00000000
00000000
00000010
00000000
00000100
00000000
00000010
00000000
00000100
00000000
00001000
00000100
00000010
00000001
,
00000010
00001000
00010000
00001000
00000000
00010000
01000000
00000000
01100000
00000000
11000000
00000000
00010000
00000000
01100000
00000000
,
00010000
00000000
00011000
00000000
00000010
00000100
00001000
00000100
00000010
00001000
00000100
00000010
00000001
00000010
00001000
00000010
,
00000001
00000000
00000101
00000000
00000100
00001000
00010000
01000000
00010000
00000000
00011000
00000000
00100000
00010000
00000000
00000010
,
00001000
00000000
00100000
00010000
00110000
00000000
00000000
00000000
00011000
00000000
00000000
00000000
00000110
00000000
00001000
00000001
,
00002000
00003000
00001001
00000000
00001001
00000000
00000011
00000000
,
00000110
00001100
00011000
01010000
,
00100000
01000000
00100000
00000000
10100000
00000000
10100000
00000000
,
00100000
10000000
00010000
00000000
00100000
01000000
00100000
01000000
,
10000000
01000000
00100000
00010000
00000000
00000000
10010000
00000000
00000000
01010000
00000000
00000000
,
00010000
00000000
10010000
00000000
11000000
00000000
01000000
00100000
,
00010000
00100000
01000000
00000000
01010000
00000000
00011000
00000000
,
00000010
00001000
00000010
00000000
00000100
00000000
00001001
00000000
,
00001001
00000011
00000110
00001100
,
00011000
00000000
01010000
00000000
00100000
01000000
00100000
00000000
,
10100000
00000000
10010000
00000000
00010000
00100000
01000000
00000000
,
10000000
00000000
00000000
01000000
00000000
00000000
00010000
00000000
00000000
01000000
00000000
00000000
10000000
00000000
00010000
00000000
00100000
00000000
01000000
00000000
00000000
00100000
00000000
00000000
,
01000000
00000000
00010000
00000000
00000100
00000010
00000100
00000000
,
00001000
00000000
00000010
00000100
00000010
00000000
00010000
00000000
,
00100000
01000000
00100000
00000000
10000000
00000000
01000000
00000000
,
00010000
00000000
01000000
10000000
00010000
00000000
10000000
01000000
,
00010000
01000000
10000000
00000000
00010000
00100000
10000000
00100000
,
00010000
00000000
00001000
00000010
00000001
00000010
00001000
00000000
,
00000001
00000100
00001000
00000100
00000001
00000000
00000010
00000100
,
00001000
00000000
00000000
00000100
00000000
00000000
00000010
00000000
00000000
00001000
00000000
00000000
00010000
00000000
00001000
00000000
00010000
00000000
00002000
00000000
00000000
00000000
00000000
00000000
,
00000000
00000000
00000000
00000000
00000000
00003000
00000000
00000000
;

//---------------dance-double - ----------------
#NOTES:
     dance-double:
     :
     Hard:
     18:
     0.895071,2.165711,0.649427,0.509210,0.354233,849.000000,761.000000,88.000000,69.000000,0.000000,0.000000,0.895071,2.165711,0.649427,0.509210,0.354233,849.000000,761.000000,88.000000,69.000000,0.000000,0.000000:
00000000
00000000
00000000
00000000
,
00000000
00000000
00000000
00000000
,
01100000
00000000
00000000
00000000
,
00000000
00000000
00000000
00000000
,
00000000
00000000
00000000
00000000
,
00000000
00000000
00000000
00000000
00000000
00022000
00000000
00033000
,
00000110
00000000
00000000
00000000
,
00000000
00000000
00000000
00000000
,
00000000
00000000
00000000
00000000
,
00000000
00000000
00000000
00000000
00000000
00022000
00000000
00033000
,
01100000
00000000
01000000
00000000
01000000
00000000
01000000
00100000
,
10010000
00000000
00100000
00000000
00100000
00000000
00100000
00010000
,
00011000
00000000
00000010
00000000
00000010
00000000
00000010
00000100
,
00000110
00000000
00000100
00000000
00000010
00000220
00000000
00000330
,
00001001
00000000
00000011
00000000
00000100
00000010
00001000
00010000
,
01000000
00100000
00010000
10000000
00100000
01000000
00100000
10000000
00010000
01000000
00010000
01000000
00001000
00010000
00001000
00010000
,
00002000
00000000
00000000
00000000
00013000
01000000
10010000
01100000
10010000
00000000
00000000
00000000
10000000
00000000
00000000
00000000
,
01000000
00000000
00100000
00000000
00001000
00010000
00001000
00000000
,
01000000
00010000
00000000
10000000
,
01000000
00010000
00001000
00001000
,
00010000
00001000
00010000
00000010
,
00001000
00000100
00000001
00000100
,
00000110
00000110
00000000
00000011
,
00001001
00000000
00000000
00000000
00000001
00000100
00000001
00000100
,
00000010
00001000
00000010
00001000
00000001
00000000
00000010
00000000
,
00000001
00000010
00000100
00000010
,
00000100
00010000
00001000
00010000
,
00001000
00100000
00010000
00100000
,
00001000
00010000
00011000
00000000
,
01001000
00000000
10010000
00000000
,
11000000
00000000
10000000
00010000
,
00100000
00000000
10000000
00000000
00010000
00000000
01000000
00100000
,
01000000
00000000
10010000
00000000
,
10000000
00100000
00010000
00100000
,
00010000
00100000
10000000
01000000
,
00010000
01000000
10000000
00010000
,
00100000
00001000
00010000
00000010
,
00010000
00000010
00000100
00001000
,
00000100
00000010
00001000
00000100
,
00000010
00000000
00000001
00000000
00000010
00000100
00000010
00000100
,
00001000
00000001
00002002
00000000
,
00003003
00000202
00000000
00000303
,
00002020
00000000
00003030
00011000
,
00000000
00011000
00000000
00100000
,
01000000
00000000
00000000
00000000
10000000
00010000
10000000
00000000
,
00100000
00000000
00010000
00100000
00010000
00000000
00100000
00000000
,
10000000
00010000
10000000
00000000
01000000
00000000
00010000
00000000
,
01000000
00010000
00001000
00000000
,
00000100
00000000
00001001
00000000
,
00000001
00000100
00001000
00000100
,
00001000
00000100
00000001
00000010
,
00001000
00000010
00000001
00001000
,
00000100
00010000
00001000
01000000
,
00001000
01000000
00100000
00010000
,
00100000
01000000
00010000
00100000
,
01000000
00000000
10000000
00000000
01000000
00100000
01000000
00100000
,
00010000
10000000
20020000
00000000
,
30030000
20200000
00000000
30300000
,
02020000
00000000
03030000
00011000
,
00000000
00011000
00000000
00000100
,
00000010
00000000
00000001
00000000
00001000
00000100
00001000
00000000
,
00000001
00000000
00000100
00000000
00000010
00001000
00000010
00000000
,
00010000
00001000
00010000
00001000
00200000
00000000
00000000
00000000
,
02300000
00000000
23000000
00000000
,
30010000
00000000
00000000
00000000
10010000
10000000
01000000
00100000
,
00020000
00000000
00031000
00010000
00000000
00000000
00100000
00000000
,
00001000
00000000
00010000
00000000
00000100
00000000
00010000
00001000
,
00000000
00001000
00010000
00000010
00000100
00000001
00001000
00000100
,
00000010
00000001
00000010
00000100
00000110
00000000
00000000
00000000
,
00001001
00000000
00000001
00000100
,
00000010
00001000
00011000
00000000
,
00011000
00000000
00010000
01000000
,
00100000
10000000
10010000
00000000
,
01100000
00000000
10000000
01000000
,
00100000
00010000
10010000
01000000
,
00100000
00000000
00000000
00000000
00010000
00001000
00010000
00001000
,
01000000
00001000
00010000
00001000
00020000
00000000
00000000
00000000
,
00000000
00000000
00000000
00000000
,
00000000
00000000
00000000
00000000
,
00000000
00000000
00000000
00000000
,
00000000
00000000
00000000
00000000
01030000
00010000
01000000
00000000
,
00010000
00000000
00001000
00000100
00001000
00000000
00000100
00000000
,
00000001
00000100
00000001
00000000
00000010
00000100
00000010
00000100
,
00000010
00000100
00000010
00000100
00000010
00000100
00000010
00000100
,
00000010
00000000
00000000
00000000
00000100
00000000
00000000
00000000
00000010
00000000
00000000
00000000
00000100
00000000
00000000
00000000
00000020
00000030
00000000
00000000
00000000
00000000
00000000
00000000
00000000
00000000
00000000
00000000
00000000
00000000
00000000
00000000
,
00000110
00000100
00000001
00000100
00001000
00000001
00000010
00000010
00000000
00000100
00010000
00001000
00100000
00100000
01000000
10000000
,
00010000
00000000
10000000
00000000
00100000
00000000
01000000
00000000
00010000
00000000
10000000
00000000
01000000
00000000
01000000
00000000
00000000
00000000
00100000
00000000
01000000
00000000
00010000
00000000
00001000
00000000
00000100
00000000
00000010
00000100
00000010
00000100
,
00000010
00000001
00000010
00001000
00000100
00000010
00000001
00000001
00000000
00000010
00001000
00010000
01000000
10000000
00010000
00100000
,
02200000
00000000
00000000
03300000
22000000
00000000
00000000
33000000
20200000
00000000
00000000
30300000
00220000
00000000
00000000
00330000
,
00011000
00000000
00000000
00000000
00000000
00000000
00000010
00000000
00000000
00000000
00000000
00000000
00001000
00000000
00000000
00000000
00000001
00000010
00000001
00000000
00000010
00000000
00000100
00001000
00000100
00000000
00000010
00000000
00000001
00000000
00000100
00000000
,
00002000
00000000
00000000
00000000
,
00000000
00000000
00000000
00000000
,
00013000
01000000
00010000
00000000
01000000
00000000
10000000
01000000
10000000
00000000
01000000
00000000
00100000
00010000
00100000
00000000
01000000
00000000
00000000
00000000
00000000
00000000
00000000
00000000
10000000
00000000
00000000
00000000
00000000
00000000
00000000
00000000
,
00100000
00010000
00002000
00000000
,
00023000
00000000
00000000
00000000
00000000
00000000
00000000
00000000
00000000
00000000
00000000
00000000
00000000
00000000
00000000
00000000
00030100
00000010
00000100
00000000
00001000
00000000
00000010
00000100
00000010
00000000
00001000
00000000
00000001
00000000
00000010
00000000
,
00002000
00000000
00000000
00000000
,
00000000
00000000
00000000
00003000
,
00220000
00000000
00000000
00330000
02020000
00000000
00000000
03030000
00022000
00000000
00000000
00033000
00002200
00000000
00000000
00003300
,
00000001
00000100
00000001
00000100
00000010
00001000
00000100
00000010
00000200
00000000
00000000
00000300
00022000
00000000
00000000
00033000
,
00200000
00000000
00000000
00300000
00022000
00000000
00000000
00033000
00000010
00000100
00000010
00000100
00001000
00000000
00010000
00000000
,
02000000
00000000
00000000
03000000
00022000
00000000
00000000
00033000
00200000
00000000
00000000
00300000
20020000
00000000
00000000
30030000
,
10000000
00100000
10000000
00100000
01000000
00010000
00100000
01000000
00200000
00000000
00000000
00000000
00000000
00000000
00000000
00000000
,
00000000
00000000
00300000
00000000
,
00000000
00000000
00000000
00000000
,
00000000
00000000
00000000
00000000
,
00000000
00000000
00000000
00000000
00010000
01000000
00010000
00001000
,
00020000
00000000
00032000
00000000
00003100
00001000
00010000
00001000
,
00100000
01000000
00010000
00010000
00001000
00000100
00001000
00010000
,
00002000
00000000
00023000
00000000
01030000
00010000
00001000
00010000
,
00000020
00000000
00000000
00000000
00000000
00000000
00000000
00000000
00000130
00000000
00000010
00000100
00000010
00000000
00000000
00000000
00001001
00000000
00000000
00000000
00000000
00000000
00000000
00000000
00000000
00000000
00000000
00000000
00000000
00000000
00000000
00000000
00000000
00000000
00000000
00000000
00000000
00000000
00000000
00000000
00000000
00000000
00000000
00000000
00000000
00000000
00000000
00000000
00000000
00000000
00000000
00000000
00000000
00000000
00000000
00000000
00000000
00000000
00000000
00000000
00000000
00000000
00000000
00000000
,
00000000
00001100
00000000
00000000
,
00000000
01010000
00000000
00000000
,
00000000
00000000
10010000
00000000
00000000
00100000
00000000
22000000
,
00000000
33000000
10010000
00000000
10100000
00000000
01000000
00100000
,
00010000
00000000
00001000
00000000
00000100
00000010
00001000
00000001
00000010
00000100
00000010
00000001
00001000
00000100
00001000
00000100
,
00010000
00001000
00010000
00001000
00020000
00000000
00000000
00000000
00031000
00000100
00001001
00000110
00001001
00000000
00000000
00000000
,
00000001
00000010
00000100
00000010
,
00001000
00010000
00000000
00010000
,
00001000
00010000
00100000
01000000
,
00100000
10000000
00000000
10000000
,
01000000
00100000
01000000
10000000
,
01000000
00010000
00001000
00000010
,
00000010
00000000
00000110
00000000
,
00001000
00000001
00001000
00000000
00000001
00000000
00000100
00000000
,
00001000
00010000
00001000
00000100
,
00000010
00010000
00000000
01000000
,
00010000
00001000
00010000
01000000
,
00100000
00001000
00000000
00011000
,
00000010
00000000
00001010
00010000
,
00000000
00011000
00100000
00000000
,
01100000
10000000
00000000
00010000
,
01000000
00020000
00030000
00010000
,
10000000
00100000
01000000
00100000
,
00010000
00001000
00000000
00001000
,
00010000
00001000
00000010
00000100
,
00000010
00000001
00000000
00000001
,
00000100
00000010
00000100
00000001
,
00000100
00001000
00010000
00100000
,
00100000
00000000
01100000
00000000
,
00010000
10000000
00010000
00000000
10000000
00000000
01000000
00000000
,
00010000
00001000
00010000
01000000
,
00100000
00001000
00000000
00000100
,
00001000
00010000
00001000
00000100
,
00000010
00010000
00000000
00011000
,
00100000
00000000
00110000
00001000
,
00000000
00011000
00000010
00000000
,
00000110
00000001
00000000
00001000
,
00000100
00000000
00000000
00000000
00000010
00000000
00000001
00000000
00000010
00000000
00000001
00000000
00001000
00000010
00000100
00000001
,
00000100
00000010
00001000
00000001
00000000
00000010
00000100
00000000
00001100
00000000
00000110
00000000
00000001
00000000
00001010
00000000
,
00010000
00000000
00001010
00000000
00000001
00000010
00000100
00001000
00000010
00000100
00001000
00010000
00001000
00010000
01000000
00100000
,
00010000
00000000
11000000
00000000
10000000
00010000
01000000
00100000
00010000
00000000
00011000
00000000
00010000
00001000
00000000
00001000
,
00000010
00000000
00000010
00000001
00001001
00000000
00000000
00000000
00000101
00000000
00000000
00000000
00001100
00000000
00001000
00010000
,
00002000
00003000
00011000
00000000
00001000
00000000
00001000
00000000
,
01000000
00010000
10000000
00100000
,
01000000
00010000
01000000
00000000
00100000
00000000
10000000
00000000
,
01000000
00010000
00001000
00000000
00010000
00001000
00010000
00000010
,
00000100
00000001
00001000
00000000
00001000
00000000
00001000
00000000
,
00000001
00000000
00000010
00000000
00000100
00000000
00001000
00000001
,
00001000
00000001
00000100
00000000
00000010
00000000
00000110
00000000
,
00000100
00000001
00001000
00000000
00000001
00000000
00001001
00000000
,
00000001
00000001
00001000
00000010
,
00010000
00000000
00001000
00000000
00100000
00010000
00100000
00000000
,
01000000
00000000
10000000
00000000
00100000
00010000
00001000
00000000
,
00010000
00001000
00010000
00000100
00000010
00000001
00001000
00000100
,
00001000
00000000
00000001
00000000
00000100
00000010
00000100
00000000
,
00000001
00000000
00000010
00000100
00000010
00000000
00001000
00000000
,
00010000
00001000
00010000
00000000
01000000
00000000
10000000
00000000
,
00010000
00000000
00100000
01000000
10000000
00000000
00010000
00100000
,
01000000
00000000
00010000
00000000
01000000
00100000
00010000
00000000
,
01000000
00000000
00100000
00010000
00001000
00000000
00010000
00000000
,
00001000
00100000
00010000
00000000
00001000
00000000
00000001
00000000
,
00001000
00000010
00000100
00000001
00000010
00000100
00002000
00000000
,
00000000
00000000
00000000
00000000
00000000
00003000
00000000
00000000
;

//---------------dance-double - ----------------
#NOTES:
     dance-double:
     :
     Medium:
     17:
     0.823381,2.102014,0.634668,0.501830,0.258295,781.000000,695.000000,86.000000,68.000000,0.000000,0.000000,0.823381,2.102014,0.634668,0.501830,0.258295,781.000000,695.000000,86.000000,68.000000,0.000000,0.000000:
00000000
00000000
00000000
00000000
,
00000000
00000000
00000000
00000000
,
01100000
00000000
00000000
00000000
,
00000000
00000000
00000000
00000000
,
00000000
00000000
00000000
00000000
,
00000000
00000000
00000000
00000000
00000000
00022000
00000000
00033000
,
00011000
00000000
00000000
00000000
,
00000000
00000000
00000000
00000000
,
00000000
00000000
00000000
00000000
,
00000000
00000000
00000000
00000000
00000000
00000220
00000000
00000330
,
00000110
00001000
00000100
00000001
,
00001001
00000001
00000010
00001000
,
00011000
00010000
01000000
10000000
,
10010000
00000000
10000000
00000000
00100000
00020000
00000000
00030000
,
01100000
00000000
01100000
00000000
10000000
01000000
10000000
00100000
,
01000000
00010000
01000000
00000000
00100000
00000000
10000000
00000000
01000000
00010000
01000000
00000000
00010000
00000000
00001000
00000000
,
00020000
00000000
00000000
00000000
00031000
00001000
00000001
00000110
00001001
00000000
00000000
00000000
00000100
00000000
00000000
00000000
,
00000001
00000010
00000100
00001000
,
00000100
00000010
00000000
00000001
,
00000010
00001000
00010000
00001000
,
00010000
01000000
00100000
01000000
,
10000000
00010000
10000000
00100000
,
01100000
01100000
00000000
10010000
,
10010000
00000000
00000000
00000000
10000000
01000000
10000000
01000000
,
00100000
01000000
10000000
00010000
,
10000000
00100000
01000000
00010000
,
01000000
00001000
00010000
00000010
,
00001000
00000010
00000100
00000001
,
00001000
00000001
00001001
00000000
,
00001100
00000000
00011000
00000000
,
00001010
00000000
00000001
00000100
,
00001000
00010000
00001000
00000010
,
00000001
00000000
00001001
00000000
,
00000001
00000010
00001000
00010000
,
00001000
00010000
00000100
00001000
,
00000001
00000010
00000100
00010000
,
00001000
00010000
00001000
00100000
,
00010000
10000000
00100000
01000000
,
00001000
00010000
00000000
00010000
,
01000000
00000000
10000000
00000000
00010000
00100000
01000000
00000000
,
10000000
00010000
20020000
00000000
,
30030000
20200000
00000000
30300000
,
02020000
00000000
03030000
00011000
,
00000000
00001010
00000000
00000100
,
00000001
00000000
00000000
00000000
00001000
00000100
00001000
00000000
,
00000001
00000000
00000010
00000100
00000010
00000000
00001000
00000000
,
00010000
00001000
00010000
00000000
01000000
00000000
10000000
00000000
,
00010000
00100000
01000000
00000000
,
01000000
00000000
10010000
00000000
,
10000000
00100000
00010000
00001000
,
00010000
00001000
01000000
00010000
,
10000000
00100000
01000000
00001000
,
00010000
00001000
00010000
00000010
,
00001000
00000001
00000010
00000100
,
00010000
00001000
00000000
00001000
,
00000100
00000000
00000001
00000000
00001000
00000010
00000100
00000000
,
00000001
00001000
00002002
00000000
,
00003003
00000022
00000000
00000033
,
00002200
00000000
00003300
00011000
,
00000000
00110000
00000000
01000000
,
10000000
00000000
00100000
00000000
01000000
10000000
01000000
00000000
,
00100000
00000000
00010000
00000000
00001000
00000100
00001000
00000000
,
00000100
00000010
00002000
00000000
,
00003002
00000000
00000023
00000000
,
00000130
00000000
00000000
00000000
00000110
00000100
00000010
00000000
,
00000002
00000000
00001003
00000010
00000000
00000000
00000010
00000000
,
00000100
00000000
00001000
00000000
00010000
00000000
01000000
00100000
,
00000000
01000000
10000000
00010000
10000000
00100000
01000000
00010000
,
00001000
00000010
00000100
00000000
00001001
00000000
00000000
00000000
,
00000110
00000000
00000001
00000010
,
00001000
00010000
00011000
00000000
,
00011000
00000000
00010000
01000000
,
10000000
00010000
10010000
00000000
,
01100000
00000000
10000000
01000000
,
00010000
00001000
00010000
00010000
,
00011000
00000000
00000000
00000000
00001000
00000100
00000010
00000000
,
00000100
00000001
00002000
00000000
,
00000000
00000000
00000000
00000000
,
00000000
00000000
00000000
00000000
,
00000000
00000000
00000000
00000000
,
00000000
00000000
00000000
00000000
00003100
00000010
00000100
00000000
,
00000010
00000000
00001000
00010000
00001000
00000000
00010000
00000000
,
01000000
00010000
01000000
00000000
00100000
00010000
00100000
00000000
,
00001000
00000000
00010000
00000000
00000010
00001000
00000010
00000000
,
00000100
00000000
00000000
00000000
00000000
00000000
00000000
00000000
00001000
00000000
00000000
00000000
00000000
00000000
00000000
00000000
00020000
00030000
00000000
00000000
00000000
00000000
00000000
00000000
00000000
00000000
00000000
00000000
00000000
00000000
00000000
00000000
,
00011000
00001000
00100000
00000000
00011000
00010000
00000010
00001000
00000000
00000001
00000010
00000100
00000010
00000001
00001000
00000001
,
00000100
00000000
00000010
00000000
00001000
00000000
00000000
00000000
00011000
00000000
00001000
00000000
00100000
00000000
00001000
00000000
00000000
00000000
00010000
00000000
01000000
00000000
10000000
00000000
00010000
00000000
00100000
00000000
01000000
10000000
01000000
00000000
,
10000000
00010000
00100000
00000000
01100000
01000000
10000000
00010000
00000000
10000000
00100000
00010000
00001000
00000100
00000001
00001000
,
00002002
00000000
00000000
00003003
00002200
00000000
00000000
00003300
00022000
00000000
00000000
00033000
00220000
00000000
00000000
00330000
,
11000000
00000000
00000000
00000000
00000000
00000000
01000000
00000000
00000000
00000000
00000000
00000000
00100000
00000000
00000000
00000000
01000000
10000000
01000000
00000000
10000000
00000000
00100000
01000000
00100000
00000000
01000000
00000000
00001000
00000000
00010000
00000000
,
00002000
00000000
00000000
00000000
,
00000000
00000000
00000000
00000000
,
00103000
00010000
00100000
00000000
00001000
00000000
00010000
00001000
00010000
00000000
00001000
00000000
00100000
00010000
00100000
00000000
01000000
00000000
00000000
00000000
00000000
00000000
00000000
00000000
00010000
00000000
00000000
00000000
00000000
00000000
00000000
00000000
,
00001000
00010000
00002000
00000000
,
00003200
00000000
00000000
00000000
00000000
00000000
00000000
00000000
00000000
00000000
00000000
00000000
00000000
00000000
00000000
00000000
00000301
00000100
00000001
00000000
00001000
00000000
00000100
00000010
00000100
00000000
00000010
00000000
00001000
00000000
00010000
00000000
,
00002000
00000000
00000000
00000000
,
00000000
00000000
00000000
00003000
,
00202000
00000000
00000000
00303000
20020000
00000000
00000000
30030000
22000000
00000000
00000000
33000000
02200000
00000000
00000000
03300000
,
00001000
00100000
00001000
00010000
00001000
00000000
00010000
00000000
00000020
00000000
00000000
00000030
00000202
00000000
00000000
00000303
,
00002002
00000000
00000000
00003003
00000220
00000000
00000000
00000330
00001000
00000010
00000100
00000001
00000010
00000000
00000100
00000000
,
00000020
00000000
00000000
00000030
00022000
00000000
00000000
00033000
00000200
00000000
00000000
00000300
00202000
00000000
00000000
00303000
,
00010000
01000000
00100000
10000000
01000000
00000000
00100000
00000000
02000000
00000000
00000000
00000000
00000000
00000000
00000000
00000000
,
00000000
00000000
03000000
00000000
,
00000000
00000000
00000000
00000000
,
00000000
00000000
00000000
00000000
,
00000000
00000000
00000000
00000000
10000000
01000000
00010000
00000000
,
00002000
00000000
00003200
00000000
00000301
00000100
00001000
00000000
,
00010000
01000000
10000000
00000000
10000000
00100000
00010000
00000000
,
00002000
00000000
00003020
00000000
00000031
00000010
00001000
00000000
,
00020000
00000000
00000000
00000000
00031000
00010000
00001000
00000000
00011000
00000000
00000000
00000000
00000000
00000000
00000000
00000000
00000000
00000000
00000000
00000000
00000000
00000000
00000000
00000000
00000000
00000000
00000000
00000000
00000000
00000000
00000000
00000000
,
00000000
01100000
00000000
00000000
,
00000000
00011000
00000000
00000000
,
00000000
00000000
00000110
00000000
00000000
00000100
00000000
00002002
,
00000000
00003003
00000110
00000000
00000110
00000000
00000001
00000100
,
00000001
00000000
00000010
00000000
00000100
00001000
00000100
00000000
00000010
00000000
00000001
00000000
00000100
00001000
00000100
00000000
,
00001000
00000000
00010000
00000000
00002000
00000000
00000000
00000000
00013000
00010000
10000000
01100000
10010000
00000000
00000000
00000000
,
01000000
10000000
00100000
01000000
,
00010000
10000000
00000000
01000000
,
00010000
00001000
00010000
01000000
,
00100000
00010000
00000000
10000000
,
00100000
01000000
00010000
00001000
,
00000000
00001000
00000100
00000010
,
00000001
00000000
00001100
00000000
,
00000100
00000010
00000001
00000000
00001000
00000000
00000001
00000000
,
00000100
00000001
00000010
00000100
,
00001000
00000001
00000000
00000100
,
00001000
00010000
00001000
00000100
,
00000010
00001000
00000000
00000001
,
00000011
00000000
00000010
00001010
,
00000000
00001000
00011000
00000000
,
00010000
00110000
00000000
01000000
,
00100000
02000000
03000000
10000000
,
00100000
00010000
00001000
00010000
,
00100000
01000000
00000000
00010000
,
00100000
01000000
00100000
00001000
,
00010000
00001000
00000000
00010000
,
00001000
00000100
00000001
00001000
,
00000001
00000010
00000100
00000010
,
00001000
00000000
00011000
00000000
,
00001000
00000010
00000001
00000000
00000010
00000000
00000001
00000000
,
00000100
00001000
00010000
00001000
,
00000100
00000010
00000000
00001000
,
00000100
00000010
00000100
00010000
,
00001000
00010000
00000000
01000000
,
11000000
00000000
00100000
00110000
,
00000000
00000010
00001010
00000000
,
00010000
00011000
00000000
00000100
,
00000010
00000000
00000000
00000000
00000100
00000000
00001000
00000000
00000100
00000000
00000010
00000000
00000001
00000010
00000001
00000000
,
00001001
00000000
00000001
00000010
00000000
00000010
00001000
00000000
00011000
00000000
00000100
00000000
00100000
00000000
00011000
00000000
,
00000010
00000000
00011000
00000000
00010000
01000000
10000000
00000000
01000000
00100000
00010000
00000000
10000000
01000000
00010000
00001000
,
00010000
00000000
00011000
00000000
00001000
00000100
00000001
00001000
00000001
00000000
00001001
00000000
00000001
00000010
00000000
00001000
,
00010000
00000000
00100000
10000000
00010000
00000000
00000000
00000000
00101000
00000000
00000000
00000000
00010000
00000000
00000000
00000000
,
01001000
00010000
00010000
01000000
,
00001000
00010000
00001000
00100000
,
00010000
00100000
01000000
00000000
10000000
00000000
00010000
00000000
,
10000000
01000000
10000000
00000000
00100000
00000000
01000000
00010000
,
01000000
00010000
01000000
00000000
00100000
00000000
00010000
00000000
,
00001000
00000100
00000100
00000001
,
00001000
00000100
00000010
00001001
,
00000001
00000100
00000001
00001000
,
00001000
00000010
00010000
00001000
,
00010000
00000000
00000100
00000000
00001000
00000100
00000010
00000000
,
00000001
00000000
00001000
00000000
00000001
00000010
00000001
00000000
,
00000100
00000000
00000010
00001000
00000010
00001000
00000010
00000100
,
00000010
00000000
00000000
00000000
00000100
00001000
00000100
00000000
,
00000000
00000000
00001000
00010000
00001000
00000000
00000000
00000000
,
00010000
01000000
00010000
00000000
00000000
00000000
01000000
00000000
,
10000000
00000000
00100000
10000000
00100000
00000000
00010000
00100000
,
00010000
00000000
00100000
00000000
10000000
01000000
10000000
00000000
,
01000000
00000000
00010000
00001000
00010000
00000000
00001000
00000000
,
00000100
00000001
00000100
00000000
00000001
00000000
00000010
00000100
,
00000010
00000000
00000100
00010000
00001000
00010000
00002000
00000000
,
00000000
00000000
00000000
00000000
00000000
00003000
00000000
00000000
;

//---------------dance-double - ----------------
#NOTES:
     dance-double:
     :
     Easy:
     14:
     0.631505,1.592435,0.487071,0.405892,0.114388,599.000000,533.000000,66.000000,55.000000,0.000000,0.000000,0.631505,1.592435,0.487071,0.405892,0.114388,599.000000,533.000000,66.000000,55.000000,0.000000,0.000000:
00000000
00000000
00000000
00000000
,
00000000
00000000
00000000
00000000
,
00011000
00000000
00000000
00000000
,
00000000
00000000
00000000
00000000
,
00000000
00000000
00000000
00000000
,
00000000
00000000
00000000
00000000
00000000
00220000
00000000
00330000
,
01100000
00000000
00000000
00000000
,
00000000
00000000
00000000
00000000
,
00000000
00000000
00000000
00000000
,
00000000
00000000
00000000
00000000
00000000
00002020
00000000
00003030
,
00000110
00000100
00000001
00000001
,
00001001
00001000
00000100
00000100
,
00011000
00010000
00100000
00100000
,
01100000
10000000
02000000
03000000
,
01100000
00000000
10010000
00000000
10000000
00100000
00010000
00000000
,
00001000
00000010
00000001
00000010
00001000
00010000
01000000
10000000
,
00020000
00000000
00000000
00000000
00031000
00010000
10000000
10010000
10000000
00000000
00000000
00000000
01000000
00000000
00000000
00000000
,
00100000
00000000
00100000
01000000
,
10000000
00100000
00000000
00100000
,
01000000
00100000
00010000
00000000
,
00001000
00000000
00010000
00001000
,
00000010
00000000
00000010
00000100
,
00001000
00000001
00000000
00001000
,
00000010
00000000
00000100
00000001
,
00000100
00000001
00001000
00000100
,
00001000
00000000
00000100
00010000
,
00000100
00000000
00010000
00001000
,
00010000
00000000
00001000
01000000
,
00001000
00000000
00010000
00000000
,
01100000
00000000
10000000
00000000
,
01100000
00000000
00010000
10000000
,
01000000
10000000
00010000
00000000
,
01000000
00000000
10010000
00000000
,
01000000
00000000
10000000
00010000
,
00100000
00000000
01000000
00000000
,
00010000
00000000
00001000
00000000
,
00000100
00000000
00000010
00000000
,
00000010
00000000
00001000
00000100
,
00000010
00000001
00000000
00000001
,
00000100
00000000
00000010
00010000
,
00000010
00010000
00002000
00000000
,
00003000
00002000
00000000
00003000
,
00002000
00000000
00003000
00011000
,
00000000
00011000
00000000
00100000
,
00010000
00000000
10000000
00000000
,
00100000
01000000
00000000
00001000
,
00010000
00000000
01000000
10000000
,
00010000
00000000
00100000
00000000
,
01000000
00000000
10010000
00000000
,
00100000
00000000
10000000
00010000
,
01000000
00000000
00100000
00000000
,
00010000
00000000
00001000
00000000
,
00000010
00000000
00000100
00000000
,
00000100
00000000
00001000
00000010
,
00000100
00000001
00000000
00000001
,
00000010
00000000
00000100
00010000
,
00000100
00010000
00002000
00000000
,
00003000
00002000
00000000
00003000
,
00002000
00000000
00003000
00011000
,
00000000
00011000
00000000
01000000
,
00010000
00000000
10000000
01000000
,
10000000
01000000
00100000
00001000
,
00010000
00001000
02000000
00000000
,
03200000
00000000
00320000
00000000
,
00031000
00000000
00011000
00010000
,
00000200
00000000
00000000
00001300
00000000
00000000
00000010
00000000
,
00000100
00000000
00000010
00000000
00001000
00000000
00000100
00000001
,
00000000
00000100
00001000
00000000
00000001
00000010
00001000
00000000
,
00010000
01000000
10000000
00000000
10010000
00000000
00000000
00000000
,
10010000
00000000
00100000
01000000
,
00100000
00000000
00011000
00000000
,
00011000
00000000
00000010
00000100
,
00000010
00000000
00001001
00000000
,
00001001
00000000
00000100
00000010
,
00000100
00000000
00011000
00000000
,
00011000
00000000
01000000
00010000
,
01000000
00100000
20000000
00000000
,
00000000
00000000
00000000
00000000
,
00000000
00000000
00000000
00000000
,
00000000
00000000
00000000
00000000
,
00000000
00000000
31000000
01000000
,
00000000
00010000
00010000
00000000
,
00001000
00001000
00010000
00000010
,
00010000
00000010
00000100
00000001
,
00000010
00000000
00000000
00000000
00000000
00000000
00000000
00000000
00000100
00000000
00000000
00000000
00000000
00000000
00000000
00000000
00002000
00003000
00000000
00000000
00000000
00000000
00000000
00000000
00000000
00000000
00000000
00000000
00000000
00000000
00000000
00000000
,
00001001
00000000
00000100
00000000
00000110
00000000
00000001
00000010
00000000
00000010
00001000
00000000
00011000
00000000
00000100
00000000
,
00001000
00000000
00001000
00000000
00110000
00000000
00001000
00010000
00000000
00010000
01000000
00000000
10000000
00000000
01000000
00100000
,
01000000
00000000
01000000
00000000
10010000
00000000
00100000
00010000
00000000
00010000
00001000
00000000
00010000
00001000
00000100
00000010
,
00000220
00000000
00000000
00000330
00000020
00000000
00000000
00000030
00002002
00000000
00000000
00003003
00000200
00000000
00000000
00000300
,
00011000
00000000
00000000
00001000
00000000
00000000
00001000
00000000
00100000
00000000
00010000
10000000
00000000
00010000
10000000
00000000
,
02000000
00000000
00000000
00000000
,
00000000
00000000
00000000
00000000
,
03100000
00000000
00001000
00010000
00000000
00001000
00010000
00000000
00000100
00000000
00000000
00000000
00000000
00000000
00000000
00000000
,
00000010
00000000
00000200
00000000
,
00002300
00000000
00000000
00000000
00000000
00000000
00000000
00000000
00003010
00000000
00001000
00000001
00000000
00001000
00000001
00000000
,
00000200
00000000
00000000
00000000
,
00000000
00000000
00000000
00000300
,
00000220
00000000
00000000
00000330
00000020
00000000
00000000
00000030
00002002
00000000
00000000
00003003
00000200
00000000
00000000
00000300
,
00011000
00000000
00001000
00000000
00100000
00000000
00010000
00000000
20000000
00000000
00000000
30000000
02200000
00000000
00000000
03300000
,
00020000
00000000
00000000
00030000
02200000
00000000
00000000
03300000
10000000
00000000
00000000
00100000
00000000
00000000
00010000
00000000
,
00002000
00000000
00000000
00003000
00000220
00000000
00000000
00000330
00000002
00000000
00000000
00000003
00000220
00000000
00000000
00000330
,
00001000
00000000
00000000
00000100
00000000
00000000
00000010
00000000
00000002
00000000
00000000
00000000
00000000
00000000
00000000
00000000
,
00000000
00000000
00000003
00000000
,
00000000
00000000
00000000
00000000
,
00000000
00000000
00000000
00000000
,
00000000
00000000
00000010
00001000
,
00020000
00032000
00013000
01000000
,
10000000
00100000
00100000
00010000
,
00002000
00023000
00031000
00000100
,
00000020
00000000
00000130
00000010
00001001
00000000
00000000
00000000
00000000
00000000
00000000
00000000
00000000
00000000
00000000
00000000
,
00000000
00010100
00000000
00000000
,
00000000
00001010
00000000
00000000
,
00000000
00000000
00011000
00000000
00000000
00100000
00000000
02000000
,
00000000
03000000
01100000
00000000
10010000
00000000
10000000
00100000
,
00010000
00000000
00001000
00000010
00000001
00000010
00001000
00010000
,
01000000
00000000
10000000
00000000
00020000
00000000
00000000
00000000
00031000
00010000
10000000
10010000
10000000
00000000
00000000
00000000
,
01000000
00100000
00000000
00010000
,
00000000
00011000
00000000
00001000
,
00000100
00000010
00000000
00000001
,
00000000
00001001
00000000
00000001
,
00000100
00000010
00000000
00001000
,
00000000
00001000
00000100
00010000
,
00001000
00000000
00011000
00000000
,
00001000
00010000
00000000
00010000
,
01000000
10000000
00000000
00010000
,
00000000
10010000
00000000
10000000
,
01000000
00010000
00000000
00001000
,
00000000
00011000
00000000
00010000
,
00001000
00000000
00000100
00000001
,
00000000
00000010
00001000
00000000
,
00000010
00000001
00000000
00000010
,
00000000
00001001
00000000
00000001
,
00000100
00000010
00000000
00001000
,
00000000
00011000
00000000
00010000
,
01000000
00100000
00000000
10000000
,
00000000
10010000
00000000
10000000
,
01000000
00100000
00000000
00010000
,
00000000
00010000
00100000
00001000
,
01000000
00000000
01100000
00000000
,
00010000
00001000
00010000
00001000
,
00000010
00000001
00000000
00001000
,
00000000
00001001
00000000
00000001
,
00000010
00001000
00000000
00010000
,
00000000
00011000
00000000
00001000
,
00010000
00000000
00100000
10000000
,
00000000
01000000
00010000
00000000
,
01000000
10000000
00000000
00010000
,
00100000
00000000
01000000
00000000
10000000
00000000
00010000
00100000
,
01100000
00000000
00010000
00001000
00000000
00000000
00000100
00000000
00000001
00000000
00001000
00000000
00000001
00000000
00000010
00000000
,
00001000
00000000
00000010
00000000
00000001
00000010
00000100
00000000
00001000
00010000
00100000
00000000
01000000
00100000
00010000
00000000
,
00100000
00000000
11000000
00000000
10000000
00100000
01000000
00000000
00100000
00000000
01010000
00000000
10000000
01000000
00000000
00010000
,
01000000
00000000
10000000
01000000
00100000
00000000
00000000
00000000
01000000
00000000
00000000
00000000
00100000
00000000
00000000
00000000
,
10010000
10000000
10000000
00100000
,
00100000
01000000
01000000
00010000
,
00000000
00001000
00001000
00000100
,
00000100
00000010
00000010
00000001
,
00000000
00001000
00000100
00000010
,
00000001
00000100
00000010
00001000
,
00000100
00010000
00001000
00011000
,
00010000
00001000
00000010
00000001
,
00000001
00000010
00000010
00000100
,
00000100
00001000
00000000
00010000
,
00010000
01000000
01000000
00100000
,
00100000
10000000
00000000
01000000
,
00010000
00000000
01000000
10000000
,
00000000
00100000
00010000
00000000
,
00001000
00010000
00000000
00001000
,
00000010
00000001
00000010
00001000
,
00001000
00100000
00010000
00010000
,
10000000
01000000
01000000
00010000
,
00001000
00001000
00010000
00100000
,
10000000
01000000
00010000
00002000
,
00000000
00000000
00000000
00000000
00000000
00003000
00000000
00000000
;
