#TITLE:In My Soul;
#SUBTITLE:;
#ARTIST:Masayoshi Iimori;
#TITLETRANSLIT:;
#SUBTITLETRANSLIT:;
#ARTISTTRANSLIT:;
#GENRE:Monstercat;
#CREDIT:;
#BANNER:In My Soul.png;
#BACKGROUND:In My Soul-bg.png;
#LYRICSPATH:;
#CDTITLE:../cdtitle.png;
#MUSIC:In My Soul.ogg;
#OFFSET:2.616000;
#SAMPLESTART:67.150002;
#SAMPLELENGTH:15.000000;
#LASTBEATHINT:2.316267;
#SELECTABLE:YES;
#BPMS:0.000000=86.000000
,82.000000=172.000000
;
#STOPS:82.000000=1.047000,
111.000000=1.047000,
174.000000=0.349000,
203.000000=1.047000,
266.000000=0.349000
;
#BGCHANGES:-99.000=../bg.avi=1.000=0=0=1=====,
99999=-nosongbg-=1.000=0=0=0 // don't automatically add -songbackground-
;
#KEYSOUNDS:;
#ATTACKS:;

//---------------dance-single - ----------------
#NOTES:
     dance-single:
     :
     Hard:
     11:
     0.355418,0.415581,0.236283,0.229334,0.000000,358.000000,324.000000,34.000000,33.000000,0.000000,0.000000,0.355418,0.415581,0.236283,0.229334,0.000000,358.000000,324.000000,34.000000,33.000000,0.000000,0.000000:
// measure 0
0000
0000
0000
0000
,  // measure 1
0000
0000
0000
0000
,  // measure 2
0000
0000
0000
0000
,  // measure 3
0000
0000
0000
0000
,  // measure 4
0000
0000
0000
0000
,  // measure 5
0000
0000
0000
0000
,  // measure 6
0000
0000
0000
0000
,  // measure 7
0000
0000
0000
0000
,  // measure 8
0000
0000
0000
0000
,  // measure 9
2000
3100
0002
0103
,  // measure 10
0020
0130
2000
3010
,  // measure 11
0002
0013
2000
3010
,  // measure 12
0200
0310
0002
0103
,  // measure 13
2000
0100
3001
0000
0002
0100
1003
0000
,  // measure 14
2000
0100
3010
0000
0020
0100
1030
0000
,  // measure 15
0200
0010
0301
0000
0200
0010
1300
0000
,  // measure 16
0020
0100
0031
0000
0020
0100
1030
0000
,  // measure 17
2002
0000
0000
0000
,  // measure 18
0000
0000
0000
0000
,  // measure 19
0000
0000
0000
0000
,  // measure 20
0000
0000
3003
0011
,  // measure 21
0010
0100
0100
0010
,  // measure 22
0010
0001
0001
0100
,  // measure 23
0100
0010
0010
1000
,  // measure 24
1000
0000
0100
0000
0100
0000
0010
0100
,  // measure 25
1000
0000
0100
0010
0001
0000
0100
0010
,  // measure 26
1000
0000
0010
0100
0001
0000
1000
0100
,  // measure 27
0010
0001
1000
0100
0010
0001
1000
0000
,  // measure 28
0101
0000
1000
0010
0001
0010
1000
0000
,  // measure 29
0011
0000
0100
1000
0010
1000
0100
0000
,  // measure 30
0110
0000
0001
1000
0010
0100
0001
0000
,  // measure 31
0011
0000
0100
0010
0000
0100
0100
0000
,  // measure 32
1010
0000
0001
0010
1000
0010
0001
0000
,  // measure 33
1100
0000
0020
0000
0130
0100
0010
0001
,  // measure 34
2000
0000
3010
0100
0000
0010
0000
0010
,  // measure 35
2000
0000
3100
0010
0100
0010
0001
0000
,  // measure 36
0101
0000
1000
0010
0100
0010
1000
0000
,  // measure 37
0011
0000
0001
0010
1000
0010
0001
0000
,  // measure 38
1001
0000
0010
0100
1000
0001
0010
0000
,  // measure 39
0110
0000
1000
0001
0000
0100
0010
0000
,  // measure 40
1001
0000
0010
0100
1000
0100
0010
0000
,  // measure 41
1100
0020
0230
0320
,  // measure 42
0031
0000
0010
1000
0000
0010
0001
0000
,  // measure 43
0000
0100
0010
0000
0110
0000
1001
0000
,  // measure 44
0001
1000
1000
0100
,  // measure 45
0100
0010
0010
1000
,  // measure 46
1000
0001
0001
0100
,  // measure 47
0100
0000
0010
0000
0010
0000
0001
0100
,  // measure 48
0001
0000
0100
0010
1000
0000
1000
0100
,  // measure 49
1000
0000
0100
0010
0001
0000
0010
0010
,  // measure 50
1000
0010
0010
0001
0100
0010
1000
0000
,  // measure 51
0021
0001
0001
0001
,  // measure 52
0100
0100
1000
1030
,  // measure 53
0110
0000
1000
0001
0100
0010
1000
0000
,  // measure 54
1100
0000
0010
0100
0000
0010
0010
0000
,  // measure 55
0101
0000
1000
0100
0001
0100
1000
0000
,  // measure 56
0011
0000
0200
0000
0310
0010
0100
1000
,  // measure 57
0002
0000
0103
0010
0000
0100
0000
0100
,  // measure 58
0002
0000
0013
0100
0010
0100
1000
0000
,  // measure 59
1010
0000
0001
0100
0010
0100
0001
0000
,  // measure 60
1100
0000
1000
0100
0001
0100
1000
0000
,  // measure 61
1001
0000
0100
0010
0001
1000
0100
0000
,  // measure 62
0110
0000
0001
1000
0000
0010
0100
0000
,  // measure 63
1001
0000
0100
0010
0001
0010
0100
0000
,  // measure 64
0011
0200
0320
0230
,  // measure 65
1300
0000
0100
0001
0000
0100
1000
0000
,  // measure 66
0000
0010
0100
0000
0110
0000
1001
0000
,  // measure 67
0001
0010
0000
0001
0100
0000
0010
0000
,  // measure 68
1000
0100
0000
0100
0010
0100
1100
0000
,  // measure 69
1000
0010
0000
0100
0010
0000
0101
0000
,  // measure 70
0010
0001
0000
0010
0010
0000
1001
0000
,  // measure 71
1000
0100
0000
1000
0010
0000
0110
0000
,  // measure 72
0002
0000
0013
0100
0010
0001
1000
0000
,  // measure 73
0010
0001
0000
0010
1000
0000
2100
0000
,  // measure 74
0000
0000
0000
3001
;

//---------------dance-single - ----------------
#NOTES:
     dance-single:
     :
     Medium:
     10:
     0.323649,0.467528,0.284930,0.229334,0.000000,326.000000,285.000000,41.000000,33.000000,0.000000,0.000000,0.323649,0.467528,0.284930,0.229334,0.000000,326.000000,285.000000,41.000000,33.000000,0.000000,0.000000:
// measure 0
0000
0000
0000
0000
,  // measure 1
0000
0000
0000
0000
,  // measure 2
0000
0000
0000
0000
,  // measure 3
0000
0000
0000
0000
,  // measure 4
0000
0000
0000
0000
,  // measure 5
0000
0000
0000
0000
,  // measure 6
0000
0000
0000
0000
,  // measure 7
0000
0000
0000
0000
,  // measure 8
0000
0000
0000
0000
,  // measure 9
0000
1000
0100
0000
0000
0001
0100
0000
,  // measure 10
0000
0010
0100
0000
0000
1000
0010
0000
,  // measure 11
0000
0001
0010
0000
0000
1000
0010
0000
,  // measure 12
0000
0100
0010
0000
0000
1000
0100
0000
,  // measure 13
0000
0010
0011
0010
0000
0100
0101
0100
,  // measure 14
0000
1000
1100
1000
0000
0010
0110
0010
,  // measure 15
0000
1000
1100
0010
0000
0001
0101
0010
,  // measure 16
0000
0010
0110
0001
0000
0100
0110
1000
,  // measure 17
0002
0000
0000
0000
,  // measure 18
0000
0000
0000
0000
,  // measure 19
0000
0000
0000
0000
,  // measure 20
0000
0000
0003
1001
,  // measure 21
1000
1000
1000
0100
,  // measure 22
0100
0100
0100
0010
,  // measure 23
0010
0010
0010
0001
,  // measure 24
0001
0000
0001
0000
0001
0000
1000
0100
,  // measure 25
0010
0000
0100
0010
0001
0000
0001
0100
,  // measure 26
0010
0000
0100
0010
1000
0000
0002
0000
,  // measure 27
0023
2030
3200
0301
,  // measure 28
0110
0000
0001
0010
0000
1000
0010
0000
,  // measure 29
1100
0000
0010
0001
0000
0100
0001
0000
,  // measure 30
0110
0000
1000
0010
0000
1000
0100
0000
,  // measure 31
0110
0000
0010
0010
0000
0001
1000
0000
,  // measure 32
0110
0000
0001
0010
0000
1000
0010
0000
,  // measure 33
1100
0000
0020
0000
0031
1000
0010
0000
,  // measure 34
0200
0000
1000
0000
0000
0001
0000
0000
,  // measure 35
0320
0000
0001
1030
,  // measure 36
1001
0000
0010
0001
0000
0010
1000
0000
,  // measure 37
0101
0000
1000
0001
0000
1000
0010
0000
,  // measure 38
0011
0000
0100
1000
0000
0100
0001
0000
,  // measure 39
0110
0000
0001
2000
0000
0100
3100
0000
,  // measure 40
0110
0000
1000
0100
0000
0001
0100
0000
,  // measure 41
1100
0020
0032
2003
,  // measure 42
3010
0000
0100
0010
0000
0100
0010
0000
,  // measure 43
0000
1000
0100
0000
0110
0000
0001
0000
,  // measure 44
0001
0010
0010
0100
,  // measure 45
0100
0010
0010
0001
,  // measure 46
0001
0100
0100
0010
,  // measure 47
0010
0000
1000
0000
1000
0000
0001
0100
,  // measure 48
0010
0000
0100
0010
1000
0000
1000
0100
,  // measure 49
0010
0000
0100
0010
0001
0000
2000
0000
,  // measure 50
3020
0032
0203
1300
,  // measure 51
1002
0000
0010
0010
,  // measure 52
0010
0000
0100
0103
,  // measure 53
0110
0000
1000
0100
0000
1000
0010
0000
,  // measure 54
0110
0000
0100
0100
0000
0001
1000
0000
,  // measure 55
0110
0000
0001
0100
0000
1000
0100
0000
,  // measure 56
1010
0000
0200
0000
0301
1000
0100
0000
,  // measure 57
0020
0000
1000
0000
0000
0001
0000
0000
,  // measure 58
0230
0000
0001
1300
,  // measure 59
1001
0000
0100
0001
0000
0100
1000
0000
,  // measure 60
0011
0000
1000
0001
0000
1000
0100
0000
,  // measure 61
0101
0000
0010
1000
0000
0010
0001
0000
,  // measure 62
0110
0000
0001
2000
0000
0010
3010
0000
,  // measure 63
0110
0000
1000
0010
0000
0001
0010
0000
,  // measure 64
1010
0200
0302
2003
,  // measure 65
3100
0000
0010
0100
0000
0010
0100
0000
,  // measure 66
0000
1000
0010
0000
0110
0000
1001
0000
,  // measure 67
0001
0200
0000
0301
1000
0000
1001
0000
,  // measure 68
1000
0200
0000
1300
0010
0000
0011
0000
,  // measure 69
0100
0002
0000
1003
0010
0000
0110
0000
,  // measure 70
0001
0020
0000
0130
1000
0000
1001
0000
,  // measure 71
1000
0200
0000
0301
0100
0000
1100
0000
,  // measure 72
0020
0032
2003
3010
,  // measure 73
0100
0010
0000
0100
0010
0000
1200
0000
,  // measure 74
0000
0000
0000
0301
;

//---------------dance-single - ----------------
#NOTES:
     dance-single:
     :
     Easy:
     6:
     0.224370,0.285712,0.166788,0.250182,0.000000,226.000000,202.000000,24.000000,36.000000,0.000000,0.000000,0.224370,0.285712,0.166788,0.250182,0.000000,226.000000,202.000000,24.000000,36.000000,0.000000,0.000000:
// measure 0
0000
0000
0000
0000
,  // measure 1
0000
0000
0000
0000
,  // measure 2
0000
0000
0000
0000
,  // measure 3
0000
0000
0000
0000
,  // measure 4
0000
0000
0000
0000
,  // measure 5
0000
0000
0000
0000
,  // measure 6
0000
0000
0000
0000
,  // measure 7
0000
0000
0000
0000
,  // measure 8
0000
0000
0000
0000
,  // measure 9
0200
0001
0000
0001
,  // measure 10
0000
0010
0000
0310
,  // measure 11
0020
1000
0000
1000
,  // measure 12
0000
0100
0000
0130
,  // measure 13
0002
0010
0000
0010
,  // measure 14
0203
0010
0000
0310
,  // measure 15
2000
0100
0000
0100
,  // measure 16
3020
0100
0000
0130
,  // measure 17
2002
0000
0000
0000
,  // measure 18
3003
0000
0000
0000
,  // measure 19
0000
0000
0000
0000
,  // measure 20
0000
0000
0000
0010
,  // measure 21
0001
0010
0001
0100
,  // measure 22
0001
0100
0001
1000
,  // measure 23
0010
1000
0010
1000
,  // measure 24
0100
1000
0100
0010
,  // measure 25
0010
0100
0100
1000
,  // measure 26
1000
0001
0001
0200
,  // measure 27
0320
0230
0320
0130
,  // measure 28
1100
0001
0000
0001
,  // measure 29
1010
0100
0000
0100
,  // measure 30
0011
1000
0000
1000
,  // measure 31
0010
0010
0001
0010
,  // measure 32
1010
0001
0000
0001
,  // measure 33
1100
0020
0032
0203
,  // measure 34
0320
0000
0000
0000
,  // measure 35
0200
0000
0000
0330
,  // measure 36
1001
0100
0000
0100
,  // measure 37
1001
0010
0000
0010
,  // measure 38
0101
1000
0000
1000
,  // measure 39
0100
0100
0001
0100
,  // measure 40
1100
0001
0000
0001
,  // measure 41
1010
0200
0302
0023
,  // measure 42
0130
0000
0000
0100
0000
0000
0100
0000
,  // measure 43
0000
0100
0110
0100
,  // measure 44
1000
0100
1000
0010
,  // measure 45
1000
0010
1000
0001
,  // measure 46
0100
0001
0100
0001
,  // measure 47
0010
0001
0010
0100
,  // measure 48
0100
0010
0010
0001
,  // measure 49
0001
1000
1000
0020
,  // measure 50
0230
0320
0230
0310
,  // measure 51
0011
0000
0010
0010
,  // measure 52
0010
0000
1000
0000
,  // measure 53
1100
0001
0000
0001
,  // measure 54
0100
0100
1000
0100
,  // measure 55
0101
1000
0000
1000
,  // measure 56
0011
0200
2300
3020
,  // measure 57
0230
0000
0000
0000
,  // measure 58
0020
0000
0000
0330
,  // measure 59
1001
0010
0000
0010
,  // measure 60
1001
0100
0000
0100
,  // measure 61
1010
0001
0000
0001
,  // measure 62
0010
0010
1000
0010
,  // measure 63
0011
1000
0000
1000
,  // measure 64
0101
0020
2030
3200
,  // measure 65
0310
0000
0000
0010
0000
0000
0010
0000
,  // measure 66
0000
0010
0110
0010
,  // measure 67
1000
0010
0001
0010
,  // measure 68
0100
0010
0000
0110
,  // measure 69
0100
0001
0100
1000
,  // measure 70
0100
0010
0010
1001
,  // measure 71
0100
0001
0100
1000
,  // measure 72
0200
0320
0032
1003
,  // measure 73
0000
1000
0000
0000
1000
0000
2000
0000
,  // measure 74
0000
0000
0000
3001
;

//---------------dance-single - ----------------
#NOTES:
     dance-single:
     :
     Beginner:
     2:
     0.092329,0.155843,0.076445,0.041697,0.000000,93.000000,82.000000,11.000000,6.000000,0.000000,0.000000,0.092329,0.155843,0.076445,0.041697,0.000000,93.000000,82.000000,11.000000,6.000000,0.000000,0.000000:
// measure 0
0000
0000
0000
0000
,  // measure 1
0000
0000
0000
0000
,  // measure 2
0000
0000
0000
0000
,  // measure 3
0000
0000
0000
0000
,  // measure 4
0000
0000
0000
0000
,  // measure 5
0000
0000
0000
0000
,  // measure 6
0000
0000
0000
0000
,  // measure 7
0000
0000
0000
0000
,  // measure 8
0000
0000
0000
0000
,  // measure 9
0000
0001
0000
0001
,  // measure 10
0000
0010
0000
0010
,  // measure 11
0000
0001
0000
0001
,  // measure 12
0000
0100
0000
0100
,  // measure 13
0000
1000
0000
1000
,  // measure 14
0000
0100
0000
0100
,  // measure 15
0000
1000
0000
1000
,  // measure 16
0000
0010
0000
0010
,  // measure 17
0110
0000
0000
0000
,  // measure 18
0000
0000
0000
0000
,  // measure 19
0000
0000
0000
0000
,  // measure 20
0000
0000
0000
1000
,  // measure 21
0000
0100
0000
1000
,  // measure 22
0000
0100
0000
0010
,  // measure 23
0000
0001
0000
0010
,  // measure 24
0000
0001
0000
1000
,  // measure 25
0000
1000
0000
1000
,  // measure 26
0000
1000
0000
0002
,  // measure 27
0000
0000
0000
0003
,  // measure 28
0110
0000
0000
0000
,  // measure 29
0100
0000
0000
0000
,  // measure 30
0010
0000
0000
0000
,  // measure 31
0010
0000
0000
0000
,  // measure 32
1001
0000
0000
0000
,  // measure 33
0010
0000
0000
0000
,  // measure 34
0200
0000
0000
0000
,  // measure 35
0300
0000
0000
0000
,  // measure 36
0110
0000
0000
0000
,  // measure 37
0010
0000
0000
0000
,  // measure 38
0100
0000
0000
0000
,  // measure 39
0100
0000
0000
0000
,  // measure 40
1001
0000
0000
0000
,  // measure 41
0100
0000
0000
0000
,  // measure 42
0010
0000
0010
0000
,  // measure 43
0000
0010
0010
0001
,  // measure 44
0000
0100
0000
0001
,  // measure 45
0000
0100
0000
0010
,  // measure 46
0000
1000
0000
0010
,  // measure 47
0000
1000
0000
0001
,  // measure 48
0000
0001
0000
0001
,  // measure 49
0000
0001
0000
2000
,  // measure 50
0000
0000
0000
3000
,  // measure 51
1001
0000
0000
0000
,  // measure 52
0000
0000
0000
0000
,  // measure 53
0110
0000
0000
0000
,  // measure 54
0001
0000
0000
0000
,  // measure 55
1001
0000
0000
0000
,  // measure 56
0010
0000
0000
0000
,  // measure 57
2000
0000
0000
0000
,  // measure 58
3000
0000
0000
0000
,  // measure 59
1001
0000
0000
0000
,  // measure 60
0010
0000
0000
0000
,  // measure 61
0110
0000
0000
0000
,  // measure 62
1000
0000
0000
0000
,  // measure 63
1001
0000
0000
0000
,  // measure 64
0100
0000
0000
0000
,  // measure 65
0002
0000
0000
0000
,  // measure 66
0003
0000
0000
1000
,  // measure 67
0000
0000
0000
1000
,  // measure 68
0000
0000
0000
0010
,  // measure 69
0000
0000
0000
1000
,  // measure 70
0000
0000
0000
0001
,  // measure 71
0000
0000
0000
0001
,  // measure 72
0000
0000
0000
0100
,  // measure 73
0000
0001
0000
0020
,  // measure 74
0000
0000
0000
0030
;

//---------------dance-single - ----------------
#NOTES:
     dance-single:
     :
     Challenge:
     13:
     0.448740,0.623371,0.403072,0.138990,0.104243,452.000000,394.000000,58.000000,20.000000,0.000000,0.000000,0.448740,0.623371,0.403072,0.138990,0.104243,452.000000,394.000000,58.000000,20.000000,0.000000,0.000000:
// measure 0
0000
0000
0000
0000
,  // measure 1
0000
0000
0000
0000
,  // measure 2
0000
0000
0000
0000
,  // measure 3
0000
0000
0000
0000
,  // measure 4
0000
0000
0000
0000
,  // measure 5
0000
0000
0000
0000
,  // measure 6
0000
0000
0000
0000
,  // measure 7
0000
0000
0000
0000
,  // measure 8
0000
0000
0000
0000
,  // measure 9
0000
0000
1000
0100
0010
0000
0010
0000
0000
0000
0001
0100
0010
0000
0010
0000
,  // measure 10
0000
0000
1000
0100
0001
0000
0001
0000
0000
0000
0100
1000
0001
0000
0001
0010
,  // measure 11
0000
0000
0001
0100
0010
0000
0010
0000
0000
0000
1000
0100
0010
0000
0010
0000
,  // measure 12
0000
0000
0001
0100
1000
0000
1000
0000
0000
0000
0100
0001
1000
0000
1000
0100
,  // measure 13
0010
0000
0010
0001
1001
0000
0001
0000
0000
0000
0100
0010
1010
0000
1000
0000
,  // measure 14
0000
0000
0100
1000
1010
0000
0010
0000
0000
0000
0100
0001
0011
0000
0100
0010
,  // measure 15
0100
0000
0100
1000
1001
0000
1000
0000
0000
0000
0010
0100
0101
0000
0001
0000
,  // measure 16
0000
0000
0010
0001
0101
0000
0100
0000
0000
0000
0010
1000
1100
0000
0010
0100
,  // measure 17
2002
0000
0000
0000
,  // measure 18
0000
0000
0000
0000
,  // measure 19
0000
0000
0000
0000
,  // measure 20
0000
0000
3003
1000
,  // measure 21
0101
1000
0110
1000
,  // measure 22
0011
0100
1001
0001
,  // measure 23
1100
0001
0110
0001
,  // measure 24
1010
0000
0100
0000
1001
0000
1000
0100
,  // measure 25
0010
0100
1000
0100
0001
0100
1000
0010
,  // measure 26
0100
0000
0010
0000
1000
0000
0010
0000
0001
0000
0010
0000
1000
0100
1000
0000
,  // measure 27
0100
0010
0001
0010
0100
1000
0010
0000
,  // measure 28
2001
0000
3100
1000
0010
1000
0100
0000
,  // measure 29
0012
0000
1003
0100
0010
0001
0100
0001
,  // measure 30
1100
0000
0001
0010
0100
1000
0100
0000
,  // measure 31
0011
0000
1000
0001
0100
0010
0010
0000
,  // measure 32
1100
0000
0001
0100
0010
1000
0010
0000
,  // measure 33
0101
0000
0002
0000
0103
0010
1000
0100
,  // measure 34
0020
0000
0000
0000
0031
0000
1000
0100
1000
0000
0001
0000
1000
0100
1000
0000
,  // measure 35
0002
0000
0000
0000
0103
0000
0010
0100
0010
0000
1000
0000
0100
0000
0100
0000
,  // measure 36
0110
0000
0001
0100
1000
0100
0001
0000
,  // measure 37
1010
0000
0100
0001
1000
0010
0001
0010
,  // measure 38
0101
0000
0010
1000
0001
0010
0001
0000
,  // measure 39
1100
0000
0100
0010
0001
1000
1000
0000
,  // measure 40
0101
0000
0010
0001
1000
0100
1000
0000
,  // measure 41
0011
0000
0020
0000
0130
0100
1000
0001
,  // measure 42
0010
0000
1000
0010
0000
0001
0010
0000
,  // measure 43
0000
0000
0000
0000
0000
0000
0000
0000
0100
0000
0000
0000
0000
0000
0000
0000
0100
0000
0000
0000
0000
0000
0000
0000
0000
0000
0000
0000
0000
0000
0000
0000
0220
0330
0000
0000
0000
0000
0000
0000
0000
0000
0000
0000
0000
0000
0000
0000
0001
0000
0000
0000
0000
0000
0000
0000
0000
0000
0000
0000
0000
0000
0000
0000
,  // measure 44
1010
0001
0110
0001
,  // measure 45
1100
0010
1001
1000
,  // measure 46
0011
1000
0110
1000
,  // measure 47
0101
0000
0010
0000
1001
0000
0001
0010
,  // measure 48
0100
0010
0001
0010
1000
0010
0001
0100
,  // measure 49
0010
0000
0100
0000
0001
0000
0100
0000
1000
0000
0100
0000
0001
0100
0001
0000
,  // measure 50
0010
0000
0100
0010
0100
0000
1000
0000
0100
0010
0001
0000
0100
0000
0000
0000
,  // measure 51
1002
0010
0010
0013
,  // measure 52
2001
0100
0100
3100
,  // measure 53
0011
0000
1000
0100
0010
0001
0010
0000
,  // measure 54
1100
0000
0001
1000
0010
0100
0100
0000
,  // measure 55
0011
0000
1000
0010
0100
0001
0100
0000
,  // measure 56
1010
0000
2000
0000
3010
0100
0001
0010
,  // measure 57
0200
0000
0000
0000
1300
0000
0001
0010
0001
0000
1000
0000
0001
0010
0001
0000
,  // measure 58
2000
0000
0000
0000
3010
0000
0100
0010
0100
0000
0001
0000
0010
0000
0010
0000
,  // measure 59
0110
0000
1000
0010
0001
0010
1000
0000
,  // measure 60
0101
0000
0010
1000
0001
0100
1000
0100
,  // measure 61
1010
0000
0100
0001
1000
0100
1000
0000
,  // measure 62
0011
0000
0010
0100
1000
0001
0001
0000
,  // measure 63
1010
0000
0100
1000
0001
0010
0001
0000
,  // measure 64
1100
0000
0200
0000
0310
0010
0001
1000
,  // measure 65
0100
0000
0001
0100
0000
1000
0100
0000
,  // measure 66
0000
0000
0000
0000
0000
0000
0000
0000
0010
0000
0000
0000
0000
0000
0000
0000
0010
0000
0000
0000
0000
0000
0000
0000
0000
0000
0000
0000
0000
0000
0000
0000
0220
0330
0000
0000
0000
0000
0000
0000
0000
0000
0000
0000
0000
0000
0000
0000
1100
0000
0000
0000
0000
0000
0000
0000
0000
0000
0000
0000
0000
0000
0000
0000
,  // measure 67
0010
0100
0001
0100
0010
0000
0101
0000
,  // measure 68
0010
0100
1000
0100
0010
0010
0110
0000
,  // measure 69
0001
1000
0010
0100
0001
0000
0011
0000
,  // measure 70
0010
0100
0010
0010
0100
0000
1010
0000
,  // measure 71
0100
0010
0001
0010
0100
0000
0011
0000
,  // measure 72
2000
0000
3010
0010
1000
0001
0100
0000
,  // measure 73
1000
0100
0000
0001
0100
0000
0120
0000
,  // measure 74
0000
0000
0000
0130
;
