#VERSION:0.83;
#TITLE:Imperfection;
#SUBTITLE:;
#ARTIST:THE CHARM PARK;
#TITLETRANSLIT:;
#SUBTITLETRANSLIT:;
#ARTISTTRANSLIT:;
#GENRE:J-Music;
#ORIGIN:;
#CREDIT:;
#BANNER:Imperfection.png;
#BACKGROUND:Imperfection-bg.png;
#PREVIEWVID:;
#JACKET:Imperfection-jacket.png;
#CDIMAGE:;
#DISCIMAGE:;
#LYRICSPATH:;
#CDTITLE:../cdtitle.png;
#MUSIC:Imperfection.ogg;
#OFFSET:0.655000;
#SAMPLESTART:50.520000;
#SAMPLELENGTH:15.000000;
#SELECTABLE:YES;
#BPMS:0.000=136.000;
#STOPS:;
#DELAYS:;
#WARPS:;
#TIMESIGNATURES:0.000=4=4;
#TICKCOUNTS:0.000=4;
#COMBOS:0.000=1;
#SPEEDS:0.000=1.000=0.000=0;
#SCROLLS:0.000=1.000;
#FAKES:;
#LABELS:0.000=Song Start;
#BGCHANGES:1.500=Imperfection.avi=1.000=0=0=0=StretchNoLoop====,
99999=-nosongbg-=1.000=0=0=0 // don't automatically add -songbackground-
;
#KEYSOUNDS:;
#ATTACKS:
;

//---------------dance-single - ----------------
#NOTEDATA:;
#CHARTNAME:;
#STEPSTYPE:dance-single;
#DESCRIPTION:;
#CHARTSTYLE:;
#DIFFICULTY:Challenge;
#METER:11;
#RADARVALUES:0.458196,0.434845,0.123360,0.226161,0.071960,312.000000,300.000000,12.000000,22.000000,24.000000,0.000000,0.000000,0.000000,0.000000,0.458196,0.434845,0.123360,0.226161,0.071960,312.000000,300.000000,12.000000,22.000000,24.000000,0.000000,0.000000,0.000000,0.000000;
#CREDIT:led_light;
#NOTES:
0000
0000
0000
0000
,
0000
0000
0000
0000
,
0000
0000
0000
0000
,
0000
0000
0000
0000
,
0000
0000
0000
0000
,
2001
0000
3100
1000
0001
MMMM
0100
1000
,
0001
MMMM
0100
1000
0001
0100
0010
1000
,
0001
0010
0020
0000
0100
0000
0100
0000
,
1000
0000
1000
0000
0130
0010
0110
0000
,
1002
0000
0103
0001
1000
MMMM
0100
0001
,
1000
MMMM
0100
0001
1000
0100
0010
0001
,
1000
0010
0020
0000
0100
0000
0100
0000
,
1030
0001
1000
0000
0100
0010
0010
0000
,
0101
0100
0001
1000
0010
0000
0010
0000
,
0010
0010
0010
0010
,
0011
0010
0001
1000
0100
0000
0100
0000
,
0100
0100
0100
0100
,
1001
0001
0100
0010
1000
0000
1000
0000
,
1000
0100
1000
0000
0001
0100
0001
0000
,
1000
1000
0100
0000
0001
0001
0010
0000
,
1000
0100
0010
0001
0010
0100
1000
0000
,
0001
0100
0010
1000
0100
0000
0110
0000
,
0100
1000
0010
0000
0010
0100
0001
0000
,
0010
0010
0010
0000
0100
0100
0100
0000
,
1000
0001
0100
0010
1000
0000
1001
0000
,
0001
0010
0001
0000
1000
0100
1000
0000
,
0001
0100
0001
0000
0100
0000
0110
0000
,
0100
0001
0100
0001
1000
0100
0010
0100
,
0000
0100
0010
0100
0010
0100
2000
0000
,
3001
0000
0010
0000
0100
0000
1000
0000
0001
0000
0000
0001
0000
0000
0001
0000
,
0100
0000
0000
0100
0000
0000
0100
0000
0010
0000
1000
0000
0100
0000
1000
0000
,
0100
0000
0010
0000
0001
0000
0010
0000
0100
0000
0000
0100
0000
0000
0100
0000
,
1000
0000
0000
1000
0000
0000
1000
0000
0001
0000
0100
0000
0010
0000
1000
0000
,
0001
0000
0010
0000
1000
0000
0010
0000
0001
0000
0000
0001
0000
0000
0001
0000
,
1000
0010
1000
0000
0001
0100
0001
0000
,
0010
0000
0100
0010
0100
0000
0010
0000
0001
0000
0100
0000
0010
0000
1000
0000
,
0002
0000
0000
0023
0000
0000
2030
0000
0000
0000
3200
0000
0302
0000
0000
0000
,
1003
0000
0100
0000
0010
0000
0001
0000
1000
0000
0000
1000
0000
0000
1000
0000
,
0010
0000
0000
0010
0000
0000
0010
0000
0100
0000
0001
0000
0010
0000
0001
0000
,
0010
0000
0100
0000
1000
0000
0100
0000
0010
0000
0000
0010
0000
0000
0010
0000
,
0001
0100
0001
0000
0100
0010
1000
0001
,
1000
0000
0100
0000
0001
0000
0100
0000
1000
0000
0000
1000
0000
0000
1000
0000
,
0001
0100
0001
0000
1000
0010
1000
0000
,
0100
0000
0010
0100
0010
0000
0100
0000
1000
0000
0010
0000
0100
0000
0001
0000
,
2000
0000
0000
3200
0000
0000
0302
0000
0000
0000
0023
0000
2030
0000
0000
0000
,
3002
0000
0103
0001
0020
0000
0130
1000
,
0020
0000
1030
0001
0020
0000
0130
0010
,
0001
1000
0020
0000
0100
0000
0100
0000
,
1030
0000
0000
0001
0000
0000
0100
0000
0010
0000
0100
0000
0110
0000
0000
0000
,
2001
0000
3100
1000
0001
MMMM
0100
1000
,
0001
MMMM
0100
1000
0001
0100
0010
1000
,
0001
0010
0020
0000
0100
0000
0100
0000
,
0031
0100
0001
0100
0010
1000
0001
0110
;

//---------------dance-single - ----------------
#NOTEDATA:;
#CHARTNAME:;
#STEPSTYPE:dance-single;
#DESCRIPTION:;
#CHARTSTYLE:;
#DIFFICULTY:Hard;
#METER:11;
#RADARVALUES:0.462601,0.462023,0.092520,0.287841,0.077100,315.000000,306.000000,9.000000,28.000000,0.000000,0.000000,0.000000,0.000000,0.000000,0.462601,0.462023,0.092520,0.287841,0.077100,315.000000,306.000000,9.000000,28.000000,0.000000,0.000000,0.000000,0.000000,0.000000;
#CREDIT:led_light;
#NOTES:
0000
0000
0000
0000
,
0000
0000
0000
0000
,
0000
0000
0000
0000
,
0000
0000
0000
0000
,
0000
0000
0000
0000
,
2001
0000
3001
0100
0002
0000
1003
0100
,
2000
0000
3001
0100
0001
0010
0100
1000
,
0010
0100
0020
0000
0100
0000
0100
0000
,
1030
0000
0100
0000
0010
0100
0100
0000
,
1002
0000
1003
0010
2000
0000
3001
0010
,
0002
0000
1003
0010
1000
0100
0010
0001
,
0100
0010
0200
0000
0010
0000
0010
0000
,
0301
0010
0001
0000
0010
0100
0110
0000
,
0001
1000
0001
0100
0010
0000
0010
0000
,
0010
0010
0010
0010
,
1000
0001
1000
0100
0010
0000
0010
0000
,
0010
0010
0010
0010
,
0001
0100
0001
0100
0010
1000
0001
0000
,
0010
0100
0010
0100
1000
0100
0010
0000
,
0001
0100
0001
0000
1000
0100
1000
0000
,
0001
0100
0010
1000
0100
0010
0001
0000
,
1000
0000
0100
0000
0001
0000
0100
0000
1000
0000
0000
1000
0000
0000
1000
0000
,
0001
0100
0010
0000
1000
0000
1001
0000
,
0001
0100
0001
0000
1000
0100
1000
0000
,
0001
0100
0010
1000
0100
0000
0110
0000
,
0100
1000
0001
0000
0100
0010
0100
0000
,
0010
1000
0100
1000
0100
0000
0110
0000
,
0100
1000
0100
1000
0001
0100
1000
0100
,
0000
0001
0010
0001
0010
0100
2000
0000
,
3010
0000
1000
0000
0010
0000
0100
0000
0001
0000
0000
0001
0000
0000
0010
0000
,
0100
0000
0000
0100
0000
0000
1000
0000
0001
0000
1000
0000
0100
0000
0010
0000
,
0001
0000
0100
0000
0010
0000
0100
0000
0001
0000
0000
0001
0000
0000
1000
0000
,
0010
0000
0000
0010
0000
0000
0100
0000
0001
0000
1000
0000
0100
0000
0010
0000
,
0001
0000
0010
0000
0100
0000
1000
0000
0010
0000
0000
0010
0000
0000
0001
0000
,
0010
0100
0010
1000
0100
0010
0001
0000
,
1000
0000
0100
0010
0100
0000
0010
0000
0001
0000
0100
0000
0010
0000
1000
0000
,
0002
0000
0000
0023
0000
0000
0230
0000
0000
0000
2300
0000
3002
0000
0000
0000
,
0103
0000
0001
0000
0100
0000
0010
0000
1000
0000
0000
1000
0000
0000
0100
0000
,
0010
0000
0000
0010
0000
0000
0001
0000
1000
0000
0001
0000
0010
0000
0100
0000
,
1000
0000
0010
0000
0100
0000
0010
0000
1000
0000
0000
1000
0000
0000
0001
0000
,
0100
0001
0100
0010
1000
0001
0010
0100
,
1000
0000
0100
0000
0010
0000
0001
0000
0100
0000
0000
0100
0000
0000
1000
0000
,
0100
0010
0100
0001
0010
0100
1000
0000
,
0001
0000
0010
0100
0010
0000
0100
0000
1000
0000
0010
0000
0100
0000
0001
0000
,
2000
0000
0000
3200
0000
0000
0320
0000
0000
0000
0032
0000
2003
0000
0000
0000
,
3002
0000
1003
0100
0020
0000
0031
0100
,
0020
0000
0130
0001
0020
0000
0130
1000
,
0010
0100
0020
0000
0100
0000
0100
0000
,
1030
0000
0000
0100
0000
0000
0010
0000
0100
0000
0010
0000
0110
0000
0000
0000
,
1002
0000
1003
0010
2000
0000
3001
0010
,
0002
0000
1003
0010
1000
0100
0010
0001
,
0100
0010
0200
0000
0010
0000
0010
0000
,
0301
0010
0001
0010
0100
1000
0001
1001
;

//---------------dance-single - ----------------
#NOTEDATA:;
#CHARTNAME:;
#STEPSTYPE:dance-single;
#DESCRIPTION:;
#CHARTSTYLE:;
#DIFFICULTY:Medium;
#METER:8;
#RADARVALUES:0.348052,0.380490,0.143920,0.174760,0.010280,237.000000,223.000000,14.000000,17.000000,0.000000,0.000000,0.000000,0.000000,0.000000,0.348052,0.380490,0.143920,0.174760,0.010280,237.000000,223.000000,14.000000,17.000000,0.000000,0.000000,0.000000,0.000000,0.000000;
#CREDIT:led_light;
#NOTES:
0000
0000
0000
0000
,
0000
0000
0000
0000
,
0000
0000
0000
0000
,
0000
0000
0000
0000
,
0000
0000
0000
0000
,
2000
0000
3000
0100
0002
0000
0003
0100
,
2000
0000
3000
0100
0001
0000
0100
0000
,
1000
0100
2000
0000
0000
0000
0001
0000
,
0000
3100
1000
1001
,
0002
0000
0003
0010
2000
0000
3000
0010
,
0002
0000
0003
0010
1000
0000
0010
0000
,
0001
0010
0002
0000
0000
0000
1000
0000
,
0000
0013
0001
1001
,
1000
0100
1000
0000
0010
0000
0010
0000
,
0100
0100
0010
1000
,
0001
0010
0001
0000
0100
0000
0100
0000
,
0010
0010
0100
0001
,
1000
0100
0010
0000
0100
0000
0100
0000
,
0001
0100
0010
0000
0100
0000
0100
0000
,
1000
0100
1000
0000
0001
0100
0001
0000
,
1000
0100
0010
0000
0001
0000
1001
0000
,
0001
0100
1000
0000
0100
0000
0101
0000
,
1000
0100
0001
0001
,
1000
0010
0001
0000
1000
0000
1000
0000
,
0001
0010
1000
0000
0001
0000
0100
0000
,
1000
0100
1000
0000
0010
0100
0010
0000
,
0100
0001
0100
0000
0001
0000
1001
0000
,
0010
0000
0010
0000
1000
0100
0001
0100
,
0000
1000
0001
0000
1000
0100
1000
0000
,
0001
0100
0001
0000
0010
0000
1010
0000
,
1000
0000
1100
0000
0100
0001
0100
0000
,
0010
1000
0010
0000
1000
0000
1100
0000
,
0010
0000
0100
0000
0010
0001
1000
0000
,
0001
0100
0010
0000
1000
0000
1001
0000
,
0001
0010
0001
0000
1000
0000
1000
0000
,
0000
0100
1000
0000
0100
0000
0010
0000
,
0001
0000
0000
0001
0000
0000
0001
0000
0000
0000
1000
0000
0010
0000
0000
0000
,
1000
0100
1000
0000
0010
0000
0011
0000
,
0001
0000
0101
0000
0100
1000
0100
0000
,
0010
0001
0010
0000
0001
0000
0101
0000
,
0100
0010
0100
0000
0010
1000
0001
0000
,
1000
0100
0010
0000
0001
0000
1001
0000
,
1000
0010
1000
0000
0001
0000
0001
0000
,
0000
0100
0001
0000
0100
0000
0010
0000
,
1000
0000
0000
1000
0000
0000
1000
0000
0000
0000
0001
0000
0010
0000
0000
0000
,
0200
0000
0300
1000
0020
0000
0030
0001
,
0020
0000
0030
1000
0200
0000
0300
0010
,
0001
1000
0002
0000
0000
0000
0010
0000
,
0000
0103
0010
1001
,
0002
0000
0003
0010
2000
0000
3000
0010
,
0002
0000
0003
0010
1000
0000
0010
0000
,
0001
0010
0002
0000
0010
0000
0013
0000
,
0100
0000
0100
0000
1000
0001
1000
0001
;

//---------------dance-single - ----------------
#NOTEDATA:;
#CHARTNAME:;
#STEPSTYPE:dance-single;
#DESCRIPTION:;
#CHARTSTYLE:;
#DIFFICULTY:Easy;
#METER:5;
#RADARVALUES:0.221755,0.298249,0.092520,0.174760,0.000000,151.000000,142.000000,9.000000,17.000000,0.000000,0.000000,0.000000,0.000000,0.000000,0.221755,0.298249,0.092520,0.174760,0.000000,151.000000,142.000000,9.000000,17.000000,0.000000,0.000000,0.000000,0.000000,0.000000;
#CREDIT:led_light;
#NOTES:
0000
0000
0000
0000
,
0000
0000
0000
0000
,
0000
0000
0000
0000
,
0000
0000
0000
0000
,
0000
0000
0000
0000
,
2000
3000
0020
0030
,
2000
3000
0100
0010
,
0001
2000
0000
0100
,
0000
0010
3000
0110
,
0002
0003
0020
0030
,
0002
0003
0100
0010
,
1000
0002
0000
0100
,
0000
0010
0003
0110
,
0001
0001
1000
0000
,
0000
0000
0000
0000
,
1000
1000
0001
0000
,
0000
0000
0000
0000
,
0001
0001
1000
0000
,
0100
0100
0010
0000
,
0001
0001
0100
0001
,
1000
1000
0100
0110
,
0001
0100
0001
0101
,
0000
0001
0010
0010
,
0001
1010
0000
0010
,
0000
0010
1000
0000
,
0001
0100
1000
0100
,
0001
1000
0001
0000
,
1000
0010
0001
0010
,
0000
1000
0001
0000
,
1000
0100
0010
0001
,
0010
0100
1000
0010
,
0000
0100
0010
0100
,
0001
0001
1000
0100
,
0000
1000
0010
0100
,
0010
0010
1000
0001
,
0000
0010
0100
1000
,
1000
0001
0000
1001
,
0001
0100
0010
1000
,
0010
0100
0001
0010
,
0000
0100
0010
0100
,
1000
1000
0001
0100
,
0000
0001
0010
0100
,
0010
0010
0001
1000
,
0000
0010
0100
0001
,
1000
0100
0000
1001
,
0020
0030
2000
3000
,
0200
0300
0002
0003
,
0010
0200
0000
0010
,
0000
0010
0300
0110
,
0002
0003
0020
0030
,
0002
0003
0100
0010
,
1000
0002
0000
0103
,
0001
0001
1000
0110
;

//---------------dance-single - ----------------
#NOTEDATA:;
#CHARTNAME:;
#STEPSTYPE:dance-single;
#DESCRIPTION:;
#CHARTSTYLE:;
#DIFFICULTY:Beginner;
#METER:2;
#RADARVALUES:0.089583,0.135568,0.010280,0.061680,0.000000,61.000000,60.000000,1.000000,6.000000,0.000000,0.000000,0.000000,0.000000,0.000000,0.089583,0.135568,0.010280,0.061680,0.000000,61.000000,60.000000,1.000000,6.000000,0.000000,0.000000,0.000000,0.000000,0.000000;
#CREDIT:led_light;
#NOTES:
0000
0000
0000
0000
,
0000
0000
0000
0000
,
0000
0000
0000
0000
,
0000
0000
0000
0000
,
0000
0000
0000
0000
,
0100
0000
1000
0000
,
0100
0000
1000
0000
,
0020
0000
0000
0000
,
0000
0000
0030
0000
,
0100
0000
0001
0000
,
0100
0000
0001
0000
,
0020
0000
0000
0000
,
0000
0000
0030
0000
,
0100
0000
0000
0000
,
0000
0000
0000
0000
,
0100
0000
0000
0000
,
0000
0000
0000
0000
,
0010
0000
0000
0000
,
0010
0000
0000
0000
,
0001
0000
0001
0000
,
0001
0000
0000
0000
,
1000
0000
1000
0000
,
0000
0000
0000
0000
,
0001
0000
0000
0000
,
0010
0000
0000
0000
,
0100
0000
0100
0000
,
0100
0000
0000
0000
,
1000
0000
1000
0000
,
1000
0000
0000
0000
,
0001
0000
0001
0000
,
0001
0000
0000
0000
,
0010
0000
0010
0000
,
0100
0000
0000
0000
,
0010
0000
0010
0000
,
1000
0000
0000
0000
,
0000
0100
0100
0000
,
0010
0000
0000
0000
,
1000
0000
1000
0000
,
1000
0000
0000
0000
,
0100
0000
0100
0000
,
0010
0000
0000
0000
,
0100
0000
0100
0000
,
0001
0000
0000
0000
,
0000
0010
0010
0000
,
0100
0000
0000
0000
,
0002
0000
0003
0000
,
2000
0000
3000
0000
,
0020
0000
0000
0000
,
0000
0000
0030
0000
,
0100
0000
0001
0000
,
0100
0000
0001
0000
,
0020
0000
0000
0000
,
0000
0030
0000
1001
;

//---------------dance-double - ----------------
#NOTEDATA:;
#CHARTNAME:;
#STEPSTYPE:dance-double;
#DESCRIPTION:;
#CHARTSTYLE:;
#DIFFICULTY:Challenge;
#METER:11;
#RADARVALUES:0.458196,0.434845,0.154200,0.226161,0.071960,312.000000,297.000000,15.000000,22.000000,48.000000,0.000000,0.000000,0.000000,0.000000,0.458196,0.434845,0.154200,0.226161,0.071960,312.000000,297.000000,15.000000,22.000000,48.000000,0.000000,0.000000,0.000000,0.000000;
#CREDIT:led_light;
#NOTES:
// measure 0
00000000
00000000
00000000
00000000
,  // measure 1
00000000
00000000
00000000
00000000
,  // measure 2
00000000
00000000
00000000
00000000
,  // measure 3
00000000
00000000
00000000
00000000
,  // measure 4
00000000
00000000
00000000
00000000
,  // measure 5
00021000
00000000
00030100
00010000
00001000
MMMMMMMM
00000100
00010000
,  // measure 6
00001000
MMMMMMMM
00000100
00010000
00001000
00000100
00000001
00000100
,  // measure 7
00000010
00001000
00000200
00000000
00000010
00000000
00000010
00000000
,  // measure 8
00000001
00000000
00000001
00000000
00010300
00001000
00011000
00000000
,  // measure 9
00102000
00000000
00013000
00001000
01000000
MMMMMMMM
00010000
00001000
,  // measure 10
01000000
MMMMMMMM
00010000
00001000
01000000
00010000
00100000
01000000
,  // measure 11
10000000
01000000
00200000
00000000
01000000
00000000
01000000
00000000
,  // measure 12
10300000
00100000
00010000
00000000
00100000
00001000
00011000
00000000
,  // measure 13
00100000
00001000
01000000
00010000
00100000
00000000
00100000
00000000
,  // measure 14
00100000
00100000
00100000
00011000
,  // measure 15
00000100
00001000
00000010
00000100
00000001
00000000
00000001
00000000
,  // measure 16
00000001
00000001
00000001
00000110
,  // measure 17
00001000
00000100
00000010
00000100
00001000
00000000
00000001
00000000
,  // measure 18
00001000
00000100
00001000
00000000
00000010
00000100
00000010
00000000
,  // measure 19
00000100
00000001
00000100
00000000
00001000
00000100
00001000
00000000
,  // measure 20
00010000
00100000
01000000
10000000
01000000
00100000
00010000
00000000
,  // measure 21
00001000
00010000
01000000
10000000
01000000
00000000
01100000
00000000
,  // measure 22
00010000
10000000
00010000
00000000
10000000
00000000
10100000
00000000
,  // measure 23
01000000
01000000
01000000
00000000
00010000
00010000
00010000
00000000
,  // measure 24
01000000
00001000
00010000
00000100
00010000
00000000
00011000
00000000
,  // measure 25
00000010
00001000
00000010
00000000
00001000
00000100
00001000
00000000
,  // measure 26
00000001
00000100
00000001
00000000
00001000
00000000
00010100
00000000
,  // measure 27
00001000
00010000
00001000
00010000
01000000
10000000
00100000
00010000
,  // measure 28
00000000
00100000
01000000
00100000
01000000
00001000
00020000
00000000
,  // measure 29
00031000
00000000
00010000
00000000
01000000
00000000
00010000
00000000
00001000
00000000
00000000
00001000
00000000
00000000
00001000
00000000
,  // measure 30
00010000
00000000
00000000
00010000
00000000
00000000
00010000
00000000
00000100
00000000
00001000
00000000
00000010
00000000
00010000
00000000
,  // measure 31
00001000
00000000
00100000
00000000
00010000
00000000
00100000
00000000
00001000
00000000
00000000
00001000
00000000
00000000
00001000
00000000
,  // measure 32
00000100
00000000
00000000
00000100
00000000
00000000
00000100
00000000
00000001
00000000
00000100
00000000
00001000
00000000
00000100
00000000
,  // measure 33
00000001
00000000
00001000
00000000
00000001
00000000
00000010
00000000
00000100
00000000
00000000
00000100
00000000
00000000
00000100
00000000
,  // measure 34
00010000
00001000
00010000
00000000
00001000
00000000
00011000
00000000
,  // measure 35
00100000
00000000
00010000
10000000
00010000
00000000
10000000
00000000
01000000
00000000
00100000
00000000
00010000
00000000
10000000
00000000
,  // measure 36
00020000
00000000
00000000
02030000
00000000
00000000
03200000
00000000
00000000
00000000
00320000
00000000
00032000
00000000
00000000
00000000
,  // measure 37
00013000
00000000
00001000
00000000
00000010
00000000
00001000
00000000
00010000
00000000
00000000
00010000
00000000
00000000
00010000
00000000
,  // measure 38
00001000
00000000
00000000
00001000
00000000
00000000
00001000
00000000
00100000
00000000
00010000
00000000
01000000
00000000
00001000
00000000
,  // measure 39
00010000
00000000
00000100
00000000
00001000
00000000
00000100
00000000
00010000
00000000
00000000
00010000
00000000
00000000
00010000
00000000
,  // measure 40
00100000
01000000
00100000
00000000
10000000
00100000
00010000
00100000
,  // measure 41
10000000
00000000
00010000
00000000
10000000
00000000
01000000
00000000
00100000
00000000
00000000
00100000
00000000
00000000
00100000
00000000
,  // measure 42
00001000
00010000
00001000
00000000
00010000
00000000
00011000
00000000
,  // measure 43
00000100
00000000
00001000
00000001
00001000
00000000
00000001
00000000
00000010
00000000
00000100
00000000
00001000
00000000
00000001
00000000
,  // measure 44
00002000
00000000
00000000
00003020
00000000
00000000
00000230
00000000
00000000
00000000
00002300
00000000
00023000
00000000
00000000
00000000
,  // measure 45
00030200
00000000
00000310
00001000
00020000
00000000
01030000
00010000
,  // measure 46
00002000
00000000
00003100
00000001
00000020
00000000
00001030
00010000
,  // measure 47
00100000
01000000
00200000
00000000
00010000
00000000
00010000
00000000
,  // measure 48
10300000
00000000
00000000
00010000
00000000
00000000
00100000
00000000
00001000
00000000
00010000
00000000
00011000
00000000
00000000
00000000
,  // measure 49
00020100
00000000
00031000
00010000
00000010
MMMMMMMM
00001000
00010000
,  // measure 50
00000010
MMMMMMMM
00001000
00010000
00000010
00001000
00000100
00000010
,  // measure 51
00000001
00000010
00000200
00000000
00000010
00000000
00000010
00000000
,  // measure 52
00001300
00000100
00000010
00000100
00001000
00000010
00010000
00101000
;

//---------------dance-double - ----------------
#NOTEDATA:;
#CHARTNAME:;
#STEPSTYPE:dance-double;
#DESCRIPTION:;
#CHARTSTYLE:;
#DIFFICULTY:Hard;
#METER:11;
#RADARVALUES:0.467007,0.462023,0.102800,0.287841,0.087380,318.000000,308.000000,10.000000,28.000000,0.000000,0.000000,0.000000,0.000000,0.000000,0.467007,0.462023,0.102800,0.287841,0.087380,318.000000,308.000000,10.000000,28.000000,0.000000,0.000000,0.000000,0.000000,0.000000;
#CREDIT:led_light;
#NOTES:
00000000
00000000
00000000
00000000
,
00000000
00000000
00000000
00000000
,
00000000
00000000
00000000
00000000
,
00000000
00000000
00000000
00000000
,
00000000
00000000
00000000
00000000
,
00210000
00000000
00301000
00010000
00002000
00000000
01003000
00010000
,
02000000
00000000
03001000
00010000
00001000
00000010
00000100
00001000
,
00000010
00000100
00000020
00000000
00000100
00000000
00000100
00000000
,
00000031
00000000
00000001
00000000
00000010
00001000
00001000
00000000
,
00001200
00000000
00010300
00001000
00020000
00000000
00030010
00001000
,
00000020
00000000
00010030
00001000
00010000
01000000
00100000
00010000
,
01000000
00100000
02000000
00000000
00100000
00000000
00100000
00000000
,
13000000
01000000
00100000
00000000
00100000
10000000
11000000
00000000
,
01000000
10000000
00010000
00100000
00001000
00000000
00001000
00000000
,
00001000
00001000
00001000
00001000
,
00010000
00000010
00001000
00000001
00000100
00000000
00000100
00000000
,
00000100
00000100
00000100
00000100
,
00000010
00001000
00000100
00000010
00000001
00000000
00000001
00000000
,
00001000
00000100
00001000
00000100
00010000
00001000
01000000
00000000
,
00010000
00100000
00010000
00000000
10000000
01000000
10000000
00000000
,
00010000
01000000
00100000
00010000
00001000
00010000
00100000
00000000
,
10000000
00000000
00010000
00000000
01000000
00000000
00010000
00000000
10000000
00000000
00000000
11000000
00000000
00000000
00100000
00000000
,
00000000
00000000
00010000
00000000
01000000
00000000
00100000
00000000
01000000
00000000
00000000
10010000
00000000
00000000
01000000
00000000
,
10000000
10000000
10000000
00000000
00010000
00010000
00010000
00000000
,
00100000
00010000
01000000
00001000
00010000
00000000
00011000
00000000
,
00000100
00001000
00000100
00001000
00000010
00000100
00000010
00000100
,
00000001
00000000
00001000
00000000
00000100
00000000
00000010
00000000
00000001
00000000
00000000
00000110
00000000
00000000
00000000
00000000
,
00000001
00001000
00000100
00001000
00000001
00001000
00000010
00000100
,
00000000
00001000
00010000
00001000
00010000
01000000
20000000
00000000
,
30010000
00000000
00100000
00000000
10000000
00000000
00100000
00000000
00010000
00000000
00000000
00010000
00000000
00000000
00100000
00000000
,
01000000
00000000
00000000
01000000
00000000
00000000
10000000
00000000
00010000
00000000
10000000
00000000
01000000
00000000
10000000
00000000
,
00100000
00000000
01000000
00000000
10000000
00000000
01000000
00000000
00100000
00000000
00000000
00100000
00000000
00000000
00010000
00000000
,
00001000
00000000
00000000
00001000
00000000
00000000
00010000
00000000
00001000
00000000
00000010
00000000
00000001
00000000
00000010
00000000
,
00001000
00000000
00010000
00000000
00000100
00000000
00010000
00000000
00001000
00000000
00000000
00001000
00000000
00000000
00010000
00000000
,
00000010
00010000
00001000
00000010
00000001
00000100
00001000
00000000
,
00010000
00000000
00001000
00010000
00001000
00000000
00100000
00000000
01000000
00000000
10000000
00000000
00100000
00000000
01000000
00000000
,
00200000
00000000
00000000
00320000
00000000
00000000
00032000
00000000
00000000
00000000
00003020
00000000
00000032
00000000
00000000
00000000
,
00001003
00000000
00000100
00000000
00000001
00000000
00000100
00000000
00001000
00000000
00000000
00001000
00000000
00000000
00000100
00000000
,
00000010
00000000
00000000
00000010
00000000
00000000
00000001
00000000
00001000
00000000
00000001
00000000
00000010
00000000
00000001
00000000
,
00000100
00000000
00000010
00000000
00000001
00000000
00000010
00000000
00000100
00000000
00000000
00000100
00000000
00000000
00001000
00000000
,
00010000
00001000
00010000
01000000
10000000
01000000
00100000
01000000
,
00010000
00000000
00001000
00000000
00100000
00000000
00001000
00000000
00010000
00000000
00000000
00010000
00000000
00000000
00001000
00000000
,
01000000
00001000
00010000
01000000
10000000
00100000
00010000
00000000
,
00001000
00000000
00010000
00001000
00010000
00000000
00000100
00000000
00000010
00000000
00000001
00000000
00000100
00000000
00000010
00000000
,
00000200
00000000
00000000
00002300
00000000
00000000
00023000
00000000
00000000
00000000
02030000
00000000
23000000
00000000
00000000
00000000
,
30020000
00000000
00130000
00001000
00020000
00000000
01030000
10000000
,
00020000
00000000
01030000
00100000
00020000
00000000
00031000
01000000
,
00010000
10000000
02000000
00000000
00100000
00000000
00100000
00000000
,
13000000
00000000
00000000
00010000
00000000
00000000
10000000
00000000
00100000
00000000
01000000
00000000
01100000
00000000
00000000
00000000
,
02010000
00000000
03001000
00010000
00002000
00000000
00103000
00010000
,
00200000
00000000
00301000
00010000
00001000
00000100
00000010
00001000
,
00000100
00000010
00000200
00000000
00000010
00000000
00000010
00000000
,
00010300
00001000
00010000
00001000
00100000
00010000
01000000
01100000
;

//---------------dance-double - ----------------
#NOTEDATA:;
#CHARTNAME:;
#STEPSTYPE:dance-double;
#DESCRIPTION:;
#CHARTSTYLE:;
#DIFFICULTY:Medium;
#METER:8;
#RADARVALUES:0.328961,0.353312,0.061680,0.174760,0.010280,224.000000,218.000000,6.000000,17.000000,0.000000,0.000000,0.000000,0.000000,0.000000,0.328961,0.353312,0.061680,0.174760,0.010280,224.000000,218.000000,6.000000,17.000000,0.000000,0.000000,0.000000,0.000000,0.000000;
#CREDIT:led_light;
#NOTES:
00000000
00000000
00000000
00000000
,
00000000
00000000
00000000
00000000
,
00000000
00000000
00000000
00000000
,
00000000
00000000
00000000
00000000
,
00000000
00000000
00000000
00000000
,
00200000
00000000
00300000
00001000
00020000
00000000
00030000
00000010
,
00002000
00000000
00003000
00000100
00010000
00000000
00001000
00000000
,
01000000
00100000
02000000
00000000
00000000
00000000
10000000
00000000
,
00000000
03010000
00000000
10010000
,
00020000
00000000
00030000
00100000
00002000
00000000
00003000
00010000
,
00000200
00000000
00000300
00001000
00000010
00000000
00010000
00000000
,
00001000
00010000
00002000
00000000
00000000
00000000
01000000
00000000
,
00000000
00013000
00001000
00011000
,
00100000
00010000
00100000
00000000
00001000
00000000
00001000
00000000
,
00010000
00010000
00000010
00010000
,
00000100
00001000
00000100
00000000
00010000
00000000
00010000
00000000
,
00001000
00001000
01000000
00001000
,
00100000
00001000
00100000
00000000
00010000
00000000
00010000
00000000
,
10000000
01000000
00010000
00000000
00001000
00000000
00010000
00000000
,
00000010
00001000
00000010
00000000
00000100
00000001
00000100
00000000
,
00001000
00010000
00001000
00000000
00010000
00000000
00011000
00000000
,
00001000
00010000
01000000
00000000
10000000
00000000
10010000
00000000
,
00000000
00010000
10000000
00010000
,
10000000
00100000
00010000
00000000
00100000
00000000
00000000
00000000
,
00010000
00001000
00000010
00000000
00001000
00000000
00000000
00000000
,
00010000
01000000
00010000
00000000
01000000
10000000
01000000
00000000
,
00100000
00010000
00100000
00000000
00001000
00000000
00011000
00000000
,
00010000
00000000
00010000
00000000
00000100
00001000
00000010
00000100
,
00000000
00000001
00001000
00000000
00001000
00000001
00001000
00000000
,
00000001
00000010
00001000
00000000
00010000
00000000
00010000
00000000
,
00001000
00000000
00001000
00000000
00100000
00010000
01000000
00000000
,
00100000
10000000
01000000
00000000
00100000
00000000
00100000
00000000
,
01000000
00000000
01000000
00000000
00010000
00001000
00010000
00000000
,
00000100
00001000
00000010
00000000
00000010
00000000
00010000
00000000
,
00001000
00010000
00001000
00000000
00000010
00000000
00000001
00000000
,
00000000
00000001
00000100
00000000
00000010
00000000
00010000
00000000
,
00001000
00000000
00000000
00001000
00000000
00000000
00001000
00000000
00000000
00000000
00100000
00000000
00010000
00000000
00000000
00000000
,
10000000
01000000
00010000
00000000
00001000
00000000
00001000
00000000
,
00010000
00000000
00010000
00000000
00000100
00001000
00000010
00000000
,
00000100
00000001
00000010
00000000
00000100
00000000
00000100
00000000
,
00000010
00001000
00000010
00000000
00001000
00010000
00001000
00000000
,
00100000
00010000
01000000
00000000
01000000
00000000
00001000
00000000
,
00010000
00001000
00010000
00000000
01000000
00000000
10000000
00000000
,
00000000
10000000
00100000
00000000
01000000
00000000
00001000
00000000
,
00010000
00000000
00000000
00010000
00000000
00000000
00010000
00000000
00000000
00000000
00000100
00000000
00001000
00000000
00000000
00000000
,
00000002
00000000
00000003
00000001
00000200
00000000
00000300
00000100
,
00002000
00000000
00003000
00001000
00020000
00000000
00030000
00010000
,
00100000
01000000
00200000
00000000
00000000
00000000
00010000
00000000
,
00000000
10300000
00000000
10010000
,
00020000
00000000
00030000
00100000
00002000
00000000
00003000
00010000
,
00000200
00000000
00000300
00001000
00000010
00000000
00010000
00000000
,
00001000
00010000
00002000
00000000
00010000
00000000
00013000
00000000
,
00001000
00000000
00001000
00000000
00100000
01000000
10000000
00010000
;

//---------------dance-double - ----------------
#NOTEDATA:;
#CHARTNAME:;
#STEPSTYPE:dance-double;
#DESCRIPTION:;
#CHARTSTYLE:;
#DIFFICULTY:Easy;
#METER:5;
#RADARVALUES:0.221755,0.298249,0.092520,0.195321,0.000000,151.000000,142.000000,9.000000,19.000000,0.000000,0.000000,0.000000,0.000000,0.000000,0.221755,0.298249,0.092520,0.195321,0.000000,151.000000,142.000000,9.000000,19.000000,0.000000,0.000000,0.000000,0.000000,0.000000;
#CREDIT:led_light;
#NOTES:
00000000
00000000
00000000
00000000
,
00000000
00000000
00000000
00000000
,
00000000
00000000
00000000
00000000
,
00000000
00000000
00000000
00000000
,
00000000
00000000
00000000
00000000
,
00200000
00300000
00002000
00003000
,
00020000
00030000
00000100
00001000
,
00000001
00000200
00000000
00000010
,
00000000
00000010
00000300
00000110
,
00000020
00000030
00020000
00030000
,
00002000
00003000
01000000
00010000
,
10000000
02000000
00000000
00100000
,
00000000
00100000
03000000
01100000
,
00010000
10000000
00010000
00000000
,
00000000
00000000
00000000
00000000
,
00001000
00010000
00001000
00000000
,
00000000
00000000
00000000
00000000
,
00000001
00001000
00000001
00000000
,
00001000
00001000
00000100
00000000
,
00000010
00000010
00000100
00000100
,
00000010
00000100
00000010
00001001
,
00000001
00000001
00001010
00000000
,
00000100
00000100
00001000
00000000
,
00010000
00011000
00001000
00000000
,
00100000
00100000
00010000
00000000
,
10000000
00100000
10000000
00100000
,
01000000
00001000
00010000
00000000
,
00000100
00000010
00000100
00000010
,
00000000
00000100
00001000
00000000
,
00000001
00000100
00001000
00000100
,
00000001
00000100
00001000
00010000
,
00000000
00001000
00010000
01000000
,
10000000
01000000
00010000
01000000
,
00000000
10000000
00010000
00010000
,
00100000
01000000
10000000
00100000
,
00000000
10000000
01000000
00100000
,
00020000
00030000
00010000
10010000
,
10000000
00100000
00010000
00100000
,
10000000
00100000
00010000
00001000
,
00000000
00010000
00001000
00000010
,
00000001
00000010
00001000
00000010
,
00000000
00000001
00001000
00001000
,
00000100
00000010
00000001
00000100
,
00000000
00000001
00000010
00000100
,
00002000
00003000
00001000
00001001
,
00000020
00000030
00000200
00000300
,
00002000
00003000
00020000
00030000
,
00100000
02000000
00000000
00100000
,
00000000
00100000
03000000
01100000
,
02000000
03000000
00002000
00003000
,
00020000
00030000
00000010
00001000
,
00000001
00000020
00000000
00000130
,
00001000
00001000
00000001
00000110
;
