#VERSION:0.83;
#TITLE:INVISIBLE STRIX;
#SUBTITLE:;
#ARTIST:L.E.D.;
#TITLETRANSLIT:;
#SUBTITLETRANSLIT:;
#ARTISTTRANSLIT:;
#GENRE:BEMANI;
#ORIGIN:;
#CREDIT:;
#BANNER:INVISIBLE STRIX.png;
#BACKGROUND:INVISIBLE STRIX-bg.png;
#PREVIEWVID:;
#JACKET:INVISIBLE STRIX-jacket.png;
#CDIMAGE:;
#DISCIMAGE:;
#LYRICSPATH:;
#CDTITLE:../cdtitle.png;
#MUSIC:INVISIBLE STRIX.ogg;
#OFFSET:0.366000;
#SAMPLESTART:60.937000;
#SAMPLELENGTH:15.000000;
#SELECTABLE:YES;
#DISPLAYBPM:92.000000:184.000000;
#BPMS:0.000=184.000,
80.000=92.000,
81.000=184.000,
115.000=92.000,
115.500=184.000,
116.000=92.000,
116.500=184.000,
117.000=92.000,
117.500=184.000,
118.000=92.000,
118.500=184.000,
149.000=92.000,
149.250=368.000,
149.750=92.000,
150.000=368.000,
150.500=92.000,
150.750=368.000,
151.250=184.000,
151.500=92.000,
151.667=368.000,
152.000=92.000,
152.167=368.000,
152.500=184.000,
177.000=92.000,
177.500=184.000,
292.000=92.000,
292.500=368.000,
293.500=184.000,
294.000=92.000,
294.500=368.000,
295.500=92.000,
296.500=368.000,
297.500=184.000,
298.000=92.000,
298.500=368.000,
299.500=184.000;
#STOPS:177.500=0.082,
178.000=0.082,
178.500=0.082,
179.000=0.082,
179.500=0.082,
180.000=0.082,
198.875=0.326,
213.875=0.326,
228.875=0.326,
293.500=1.141,
297.500=0.326,
299.500=0.326;
#DELAYS:;
#WARPS:;
#TIMESIGNATURES:0.000=4=4;
#TICKCOUNTS:0.000=4;
#COMBOS:0.000=1;
#SPEEDS:0.000=1.000=0.000=0;
#SCROLLS:0.000=1.000;
#FAKES:;
#LABELS:0.000=Song Start;
#BGCHANGES:0.000=INVISIBLE STRIX.avi=1.000=0=0=0=StretchNoLoop====,
99999=-nosongbg-=1.000=0=0=0 // don't automatically add -songbackground-
;
#KEYSOUNDS:;
#ATTACKS:
;

//---------------dance-single - ----------------
#NOTEDATA:;
#CHARTNAME:;
#STEPSTYPE:dance-single;
#DESCRIPTION:;
#CHARTSTYLE:;
#DIFFICULTY:Challenge;
#METER:18;
#RADARVALUES:0.885031,1.039707,0.535389,0.305937,0.558334,810.000000,740.000000,70.000000,40.000000,0.000000,0.000000,0.000000,0.000000,0.000000,0.885031,1.039707,0.535389,0.305937,0.558334,810.000000,740.000000,70.000000,40.000000,0.000000,0.000000,0.000000,0.000000,0.000000;
#CREDIT:led_light;
#DISPLAYBPM:92.000000:184.000000;
#NOTES:
// measure 0
0000
0000
0000
0000
,  // measure 1
0000
0000
0000
0000
,  // measure 2
0000
0000
0000
0000
,  // measure 3
0000
0000
0000
0000
,  // measure 4
0000
0000
0000
0000
,  // measure 5
2100
0000
3001
0000
0100
0010
0000
0000
,  // measure 6
1010
0000
0000
0002
0200
0000
0303
0000
,  // measure 7
0102
0000
1003
0000
0100
0010
0000
0000
,  // measure 8
0011
0000
0000
2000
0200
0000
3300
0000
,  // measure 9
0110
0000
0001
0000
1000
0100
0010
0000
,  // measure 10
0100
1000
0001
0000
0100
0010
0001
0000
,  // measure 11
0010
0000
0100
0000
0010
0000
1000
0000
0001
0010
0001
0010
0100
1000
0001
0100
,  // measure 12
0010
0000
0100
0001
0000
0100
0001
0000
0100
0001
0000
0100
0001
0000
0100
0001
,  // measure 13
1000
0001
1010
0001
1000
0010
1100
0001
,  // measure 14
0010
0000
0100
0000
1010
0000
0001
0000
1000
0000
0010
0100
0001
0000
1000
0000
,  // measure 15
0001
0100
0011
1000
0100
0010
0101
1000
,  // measure 16
0001
0000
0010
0000
0101
0000
0010
0000
0001
0000
1000
0100
0010
0000
0100
0000
,  // measure 17
1000
0001
1010
0100
0010
0001
1100
0010
,  // measure 18
0001
0000
0010
0000
1100
0000
0001
0000
1000
0000
0001
0010
0100
0000
1000
0000
,  // measure 19
0001
0000
1000
0000
0011
0000
1000
0000
0100
0000
0010
0001
0010
0000
0100
1000
,  // measure 20
0002
0000
0000
1003
0001
0100
0001
0100
0010
1000
0100
0010
0001
0000
1000
0000
,  // measure 21
0101
1000
0001
0100
0011
1000
0100
0010
,  // measure 22
0101
0000
1000
0000
0001
0000
0100
0010
1000
0000
0001
0000
1000
0000
0010
0000
,  // measure 23
1100
0001
0010
0100
1010
0001
1000
0100
,  // measure 24
1010
0000
0100
0000
1000
0000
0001
0010
0100
0000
0010
0000
0001
0000
1000
0000
,  // measure 25
0101
0010
0100
1000
0011
0100
1000
0100
,  // measure 26
0011
0000
1000
0000
0001
0000
1000
0100
0010
0000
0001
0000
1000
0000
0001
0000
,  // measure 27
1100
0000
0001
0000
0010
0000
0100
1000
0100
0000
0010
0001
2000
0000
0000
0000
,  // measure 28
0000
0000
3001
0000
0100
0001
0100
0001
1000
0100
0010
0001
2000
0000
3000
0000
,  // measure 29
2000
0000
3000
0000
0002
0000
0003
0000
0002
0000
0003
0000
1000
0010
1000
0010
,  // measure 30
0100
0001
0010
0100
1000
0000
0001
0000
1010
0000
0001
1000
0010
0000
0100
0000
,  // measure 31
0011
0000
1000
0000
0001
0000
0100
0000
0011
0000
1000
0001
1000
0000
0100
0000
,  // measure 32
0010
0000
0010
0000
0001
0000
1000
0000
0101
0000
1000
0001
2000
0000
3010
0000
,  // measure 33
0002
0000
0013
0000
1000
0000
0001
0000
1100
0000
0001
1000
0000
1000
0010
0000
,  // measure 34
0100
0000
0001
1000
0001
0000
1000
0000
0011
0000
0100
0001
0010
0000
0100
0000
,  // measure 35
1010
0000
0001
0000
1000
0000
0001
0000
1100
0000
0001
1000
0001
0000
0010
0000
,  // measure 36
0100
0000
0010
0000
0001
0000
1000
0000
0101
0000
1000
0001
1000
0000
0010
0000
,  // measure 37
0100
0000
0010
0000
1000
0000
0000
1010
0000
0000
0001
0000
0000
0010
0001
0000
,  // measure 38
1000
0000
0001
1000
0001
0000
1000
0000
0101
0000
1000
0100
1000
0000
0001
0000
,  // measure 39
0100
0000
0100
0000
0010
0000
1000
0000
0101
0000
0010
0001
1000
0100
1000
0000
,  // measure 40
0010
0000
0100
0000
0001
0000
1000
0000
0011
0000
1000
0010
1000
0000
0001
0000
,  // measure 41
0010
0000
0010
0000
0100
0000
1000
0000
0011
0000
0100
0001
0000
0100
0010
0000
,  // measure 42
0100
0000
0001
0010
0100
0000
1000
0000
0101
0000
1000
0001
1000
0000
0001
0000
,  // measure 43
0100
0000
0010
0000
1000
0000
0001
0000
1010
0000
0001
1000
0000
1000
0001
0000
,  // measure 44
0010
0100
2000
3001
0001
1000
1000
0001
,  // measure 45
0001
0000
0100
0000
0010
0000
1000
0010
1000
0000
0001
1000
0001
0000
0100
0000
,  // measure 46
0011
0000
1000
0100
1000
0001
1000
0000
0010
0000
0100
0001
1000
0000
0001
0000
,  // measure 47
0010
0000
0100
0010
0100
0010
0001
0000
1000
0000
0100
0000
1000
0000
0001
0000
,  // measure 48
1010
0000
0001
1000
0010
0100
0010
0000
1000
0000
0001
0100
0001
0000
1000
0000
,  // measure 49
0100
0000
0010
0100
0000
0010
0001
0000
2000
0000
0000
0000
3001
0000
1000
0100
,  // measure 50
1000
0001
0100
0000
0010
0000
0100
0001
0100
0000
0010
0000
1000
0000
0001
0100
,  // measure 51
0000
0100
0010
0000
1000
0000
0200
0000
0310
0000
0020
0000
0001
0000
0032
0000
,  // measure 52
1000
2003
0010
3020
0230
0302
0023
0230
,  // measure 53
2300
0000
0000
0002
3000
0000
0020
0033
0101
0000
1000
0010
1000
0001
1000
0000
,  // measure 54
0100
0000
0010
0001
1000
0000
0001
0000
0100
0000
0010
0100
0010
0100
0001
0000
,  // measure 55
1000
0000
0010
0000
1000
0000
0001
0000
1100
0000
0001
1000
0100
0010
0100
0000
,  // measure 56
1000
0000
0001
0010
0001
0000
1000
0000
0010
0000
0100
0010
0000
0100
0001
0000
,  // measure 57
2000
0000
0000
0000
3001
0000
1000
0010
1000
0001
0010
0000
0100
0000
0010
0001
,  // measure 58
0010
0000
0100
0000
1000
0000
0001
0010
0000
0010
0100
0000
1000
0000
0001
0000
,  // measure 59
1000
0100
1000
0001
0100
0010
0100
0001
,  // measure 60
0010
0000
0010
0000
0100
0000
0100
0000
1000
0001
1000
0010
0100
0001
0010
0100
,  // measure 61
2000
0000
0000
0000
,  // measure 62
0000
0000
0000
0000
,  // measure 63
0000
0000
0000
0000
,  // measure 64
0000
0000
0000
0000
,  // measure 65
3001
0000
0001
0100
1000
0000
0101
0000
,  // measure 66
1000
0000
0000
0000
0100
0000
0001
0000
0100
0000
1000
0001
1000
0000
0000
0000
,  // measure 67
0001
0000
0001
0010
1000
0000
0011
0000
,  // measure 68
1000
0000
0000
0000
0010
0000
0001
0000
0010
0000
0000
0000
1000
0000
0001
1000
,  // measure 69
0001
0001
0100
0100
0010
0010
1000
1000
,  // measure 70
0001
0001
0010
0010
0100
0100
1000
1000
,  // measure 71
0001
0010
0100
0010
0001
1000
0100
1000
,  // measure 72
0001
0100
0001
0100
0010
1000
0010
1000
0100
0010
0001
0010
0100
1000
0010
0100
,  // measure 73
0002
0000
0000
0003
0201
0000
0000
0310
,  // measure 74
2010
0000
0000
3001
0102
0000
0000
0013
,  // measure 75
1000
0100
1000
0100
0010
0001
0010
0100
1000
0000
0001
0000
1010
0000
0100
0010
,  // measure 76
0100
0000
1000
0000
0101
0000
1000
0000
0010
0000
0100
0000
0011
0000
1000
0010
,  // measure 77
1000
0001
0100
0000
0011
0000
1000
0000
0100
0000
0010
0000
0101
0000
1000
0100
,  // measure 78
1000
0000
0001
0000
1100
0000
0001
0000
1000
0000
0100
0000
0010
0000
0100
1000
,  // measure 79
0002
0000
0013
0001
2000
0000
3100
1000
0001
0000
1000
0000
0011
0000
0100
0010
,  // measure 80
0100
0000
0001
0000
1100
0000
0001
0000
0010
0000
0100
0000
1010
0000
0001
0010
,  // measure 81
0001
1000
0100
0000
1010
0000
0001
0000
0100
0000
0010
0000
1100
0000
0001
0100
,  // measure 82
0001
0000
1000
0000
0101
0000
1000
0000
0001
0000
0100
0000
0010
0000
0100
0001
,  // measure 83
0000
1000
0100
1000
0002
0000
0103
0001
1000
0000
0001
0000
1010
0000
0100
0010
,  // measure 84
0100
0000
1000
0000
0101
0000
1000
0000
0010
0000
0100
0000
0011
0000
1000
0010
,  // measure 85
1000
0001
0100
0000
0011
0000
1000
0000
0100
0000
0010
0000
0101
0000
1000
0100
,  // measure 86
1000
0000
0001
0000
1100
0000
0001
0000
1000
0000
0100
0000
0010
0000
0100
1000
,  // measure 87
0002
0000
0013
0001
2000
0000
3100
1000
0001
0000
1000
0010
1000
0000
0001
0010
,  // measure 88
0001
0000
1000
0100
1000
0000
0001
0100
0001
0000
0100
0010
0100
0000
0010
1000
,  // measure 89
0100
0010
0100
0010
0100
1000
0001
0000
1000
0100
1000
0100
1000
0100
1010
0000
,  // measure 90
0000
0000
0001
0000
1000
0010
1000
0010
1000
0010
1100
0000
0000
0000
0001
0000
,  // measure 91
1000
0100
0010
0100
1000
0010
0100
0001
0020
0000
0000
0000
0000
0000
0000
0000
,  // measure 92
0000
0000
0000
0000
,  // measure 93
0000
0000
0000
0030
;

//---------------dance-single - ----------------
#NOTEDATA:;
#CHARTNAME:;
#STEPSTYPE:dance-single;
#DESCRIPTION:;
#CHARTSTYLE:;
#DIFFICULTY:Hard;
#METER:17;
#RADARVALUES:0.810732,0.932151,0.206507,0.336530,0.520092,742.000000,715.000000,27.000000,44.000000,0.000000,0.000000,0.000000,0.000000,0.000000,0.810732,0.932151,0.206507,0.336530,0.520092,742.000000,715.000000,27.000000,44.000000,0.000000,0.000000,0.000000,0.000000,0.000000;
#CREDIT:led_light;
#DISPLAYBPM:92.000000:184.000000;
#NOTES:
0000
0000
0000
0000
,
0000
0000
0000
0000
,
0000
0000
0000
0000
,
0000
0000
0000
0000
,
0000
0000
0000
0000
,
0110
0000
0001
0000
1000
0100
0000
0000
,
1100
0000
0000
0002
0200
0000
0303
0000
,
0110
0000
1000
0000
0001
0010
0000
0000
,
0011
0000
0000
2000
0020
0000
3030
0000
,
0101
0000
0001
0000
1000
0100
0010
0000
,
1100
0000
1000
0001
0200
0000
0310
0000
,
1000
0000
0100
0000
1000
0000
0001
0000
0100
0010
0100
0010
1000
0100
0010
0001
,
1000
0000
0010
0100
0000
0010
0100
0000
0010
0100
0000
0010
0100
0000
0010
0100
,
0001
1000
0010
1000
0001
0001
0010
0100
,
1000
0000
0001
0000
0100
0000
0001
0000
1000
0000
0100
0010
0100
0000
0100
0000
,
1000
0001
0100
0010
1000
1000
0001
0010
,
1000
0000
0010
0000
0001
0000
1000
0000
0100
0000
1000
0001
1000
0000
0001
0100
,
0001
1000
0100
1000
0001
0001
0100
0010
,
1000
0000
0001
0000
0010
0000
0001
0000
1000
0000
0010
0100
0010
0000
0010
0000
,
1000
0000
0001
0000
0010
0000
0100
0000
1000
0000
0001
0100
0001
0000
0100
0010
,
2000
0000
0000
3001
1000
0100
1000
0100
0010
0001
0010
0100
1000
0000
0001
0000
,
0100
0001
1000
1000
0100
0010
0001
1000
,
0010
0000
1000
0000
0001
0000
0010
0100
0010
0000
0010
0000
0001
0000
1000
0000
,
0010
0100
0001
0001
1000
0100
0001
0100
,
1000
0000
0001
0000
0010
0000
0001
1000
0001
0000
1000
0010
1000
0000
0001
0000
,
0010
0001
1000
1000
0010
0100
0001
1000
,
0100
0000
1000
0000
0001
0000
0100
0010
0100
0000
0100
0000
0001
0000
1000
0000
,
0100
0000
0010
0000
0001
0000
1000
0010
1000
0000
0010
0100
0002
0000
0000
0000
,
0000
0000
1003
0000
0001
0010
0001
0010
0100
1000
0100
0010
0002
0000
0003
0000
,
0002
0000
0003
0000
2000
0000
3000
0000
2000
0000
3000
0000
0100
1000
0100
1000
,
0001
0100
0010
1000
0001
0000
0010
0000
0100
0000
0010
0001
0000
0010
0001
0000
,
1000
0000
0001
0000
0010
0000
0100
0000
1000
0000
0100
1000
0000
0001
1000
0000
,
0001
0000
0001
0000
0100
0000
0010
0000
1000
0000
0100
0010
0002
0000
0013
0000
,
2000
0000
3010
0000
0001
0000
1000
0000
0001
0000
0100
0001
0000
0100
0010
0000
,
1000
0000
0001
1000
0001
0000
1000
0000
0100
0000
0010
0100
0000
0010
0001
0000
,
0010
0000
0100
0000
0001
0000
0100
0000
0010
0000
0001
1000
0000
0001
1000
0000
,
0001
0000
0100
0000
0010
0000
1000
0000
0100
0000
1000
0001
0000
0100
0001
0000
,
0100
0000
0010
0000
1010
0000
0000
1010
0000
0000
0011
0000
0000
0010
0100
0000
,
1001
0000
1000
0001
1000
0000
1000
0000
0001
0000
1000
0100
1000
0000
0001
0000
,
0100
0000
0010
0000
1000
0000
1000
0000
0001
0000
1000
0100
0000
1000
0100
0000
,
0001
0000
0100
1000
0100
0000
1000
0000
0001
0000
0100
0010
0100
0000
0010
0000
,
0001
0000
0010
0000
1000
0000
1000
0000
0001
0000
0010
0100
0000
0010
0100
0000
,
1000
0000
0001
0100
0001
0000
0100
0000
0010
0000
1000
0100
1000
0000
0010
0000
,
0100
0000
0001
0000
0010
0000
0010
0000
0100
0000
0010
0001
0000
0010
0001
0000
,
0010
0100
2000
3010
0010
0001
0001
0100
,
0100
0000
1000
0000
0001
0000
1000
0100
1000
0000
0001
0100
0001
0000
1000
0000
,
0010
0000
0100
0001
0000
0100
0001
0000
0010
0000
0010
0000
0100
0000
1000
0000
,
0001
0000
1000
0001
0000
1000
0010
0000
0100
0000
0010
0000
1000
0000
0001
0000
,
0010
0000
0100
1000
0000
0100
1000
0000
0010
0000
0010
0000
0100
0000
0001
0000
,
1000
0000
0001
1000
0000
0001
0010
0000
0200
0000
0000
0000
0310
0000
0001
1000
,
0000
0001
1000
0000
0001
0000
0100
0000
0010
0000
0100
0000
0001
0000
1000
0100
,
0000
1000
0010
0000
0100
0000
0200
0000
0301
0000
0002
0000
0013
0000
0020
0000
,
0230
0320
0032
2003
3002
0203
0320
2030
,
3200
0000
0000
0320
0000
0000
0032
0003
1001
0000
1000
0010
0000
1000
0010
0000
,
0001
0000
0001
0000
0010
0000
1000
0000
0100
0000
0010
0001
0000
0010
0001
0000
,
1000
0000
0001
0000
0100
0000
0010
0000
0001
0000
0010
1000
0000
0010
1000
0000
,
0001
0000
0001
0000
0010
0000
0100
0000
1000
0000
0100
0010
0000
0100
0010
0000
,
0002
0000
0000
0000
1003
0000
0010
0100
0000
0010
0100
0000
0010
0000
1000
0000
,
0001
0000
0010
0000
0100
0000
0010
0001
0000
0010
0001
0000
0010
0000
0100
0000
,
1000
0001
0100
0010
1000
0010
0100
0001
,
0010
0000
0010
0000
0100
0000
0100
0000
1000
0001
1000
0001
0100
0010
1000
0100
,
0020
0000
0000
0000
,
0000
0000
0000
0000
,
0000
0000
0000
0000
,
0000
0000
0000
0000
,
0130
0000
0011
0001
0100
0000
1010
0000
,
0001
0000
0000
0000
0010
0000
0100
0000
1000
0000
0001
1000
0001
0000
0000
0000
,
0100
0000
1010
1000
0100
0000
0011
0000
,
1000
0000
0000
0000
0010
0000
0100
0000
0010
0000
0000
0000
1000
0000
0001
1000
,
0001
1000
0100
1000
0001
1000
0100
1000
,
0010
0100
0010
0001
0010
0100
0010
0001
,
0010
0010
1000
1000
0100
0100
0010
0010
,
0001
0010
0001
0010
0100
0010
0100
0010
0001
1000
0001
0100
0010
1000
0100
0010
,
0002
0000
0000
0003
2200
0000
3300
1001
,
0202
0000
0303
0110
2200
0000
3300
0110
,
1000
0001
1000
0001
0100
0010
1000
0001
0010
0000
0010
0000
0100
0000
0010
0001
,
0010
0000
0100
0000
0110
0000
0001
0000
1000
0000
1000
0000
0001
0000
1000
0010
,
1000
0010
0110
0001
1000
1000
0100
1000
,
0001
0000
0100
0000
1000
0000
0100
0000
0001
0000
0001
0000
0010
0000
0100
0010
,
0200
0000
1300
0001
2000
0000
3010
0000
0100
0000
0100
0000
0010
0000
1000
0001
,
0010
0000
0100
0000
0110
0000
1000
0000
0100
0000
0100
0000
0010
0000
0001
1000
,
0010
0100
0110
0001
1000
1000
0010
0100
,
0001
0000
0010
0000
1000
0000
0010
0000
0001
0000
0001
0000
0100
0000
0010
0001
,
0000
0010
1000
0010
2000
0000
3001
0010
0100
0000
0100
0000
0010
0000
0100
1000
,
0100
0000
0010
0000
0110
0000
1000
0000
0001
0000
0001
0000
1000
0000
0001
0100
,
0001
0100
0110
1000
0001
0001
0010
0001
,
1000
0000
0010
0000
0001
0000
0010
0000
1000
0000
1000
0000
0100
0000
0010
0100
,
0020
0000
0031
1000
0002
0000
0103
0010
1000
0000
1000
0000
0100
0000
0100
0000
,
0010
0000
0010
0000
0001
0000
0001
0000
1000
0000
0001
0100
0010
0000
1000
0100
,
0010
0000
0001
0010
0100
1000
0001
0000
1000
0010
1000
0010
1000
0010
0001
0000
,
0000
0000
0010
0000
1000
0100
1000
0100
1000
0100
0001
0000
0000
0000
0100
0000
,
1000
0001
1000
0010
0100
0001
0010
0100
2000
0000
0000
0000
0000
0000
0000
0000
,
0000
0000
0000
0000
,
0000
0000
0000
3000
;

//---------------dance-single - ----------------
#NOTEDATA:;
#CHARTNAME:;
#STEPSTYPE:dance-single;
#DESCRIPTION:;
#CHARTSTYLE:;
#DIFFICULTY:Beginner;
#METER:4;
#RADARVALUES:0.183562,0.286816,0.053539,0.053539,0.000000,168.000000,161.000000,7.000000,7.000000,0.000000,0.000000,0.000000,0.000000,0.000000,0.183562,0.286816,0.053539,0.053539,0.000000,168.000000,161.000000,7.000000,7.000000,0.000000,0.000000,0.000000,0.000000,0.000000;
#CREDIT:led_light;
#DISPLAYBPM:92.000000:184.000000;
#NOTES:
0000
0000
0000
0000
,
0000
0000
0000
0000
,
0000
0000
0000
0000
,
0000
0000
0000
0000
,
0000
0000
0000
0000
,
0110
0000
0000
0000
,
0100
0000
0000
0000
,
0110
0000
0000
0000
,
0010
0000
0000
0000
,
1000
0000
1000
0000
,
0001
0000
0001
0000
,
1000
1000
1000
1000
,
1000
0000
0000
0000
,
0010
0000
0001
0000
,
0010
0000
1000
0000
,
0100
0000
0001
0000
,
0100
0000
0100
0000
,
1000
0000
0010
0000
,
0001
0000
1000
0000
,
0100
0000
0001
0000
,
0002
0003
0000
0010
,
0000
1000
0000
0010
,
0000
0001
0000
0100
,
0000
1000
0000
0100
,
0000
0100
0000
0001
,
0000
0010
0000
1000
,
0000
0001
0000
0100
,
0000
1000
0000
0001
,
0000
0002
0000
0003
,
0000
0000
0000
0000
,
0000
1000
0000
0010
,
0000
0001
0000
0001
,
0000
0100
0000
1000
,
0000
0001
0000
0001
,
0000
1000
0000
0100
,
0000
0010
0000
0010
,
0000
0001
0000
0100
,
0000
0010
0000
0000
,
0000
1000
0000
0001
,
0000
0010
0010
0010
,
0000
0001
0000
1000
,
0000
0010
0010
0010
,
0000
0100
0000
0001
,
0000
1000
1000
1000
,
0000
0001
0000
0000
,
0000
0000
0000
1000
,
0000
1000
0000
0001
,
0000
1000
0000
0100
,
0000
0010
0000
0001
,
0000
1000
0000
0000
,
0001
0000
1000
0000
,
0001
0000
0200
0000
,
0300
0000
0020
0000
,
0000
0030
0000
1000
,
0000
0001
0000
1000
,
0000
0100
0000
0010
,
0000
0001
0000
1000
,
0000
0000
0001
0000
,
1000
0000
0001
0000
,
0010
0010
0010
0000
,
0100
0100
0100
0100
,
0200
0000
0000
0000
,
0000
0000
0000
0000
,
0300
0000
0000
0000
,
0000
0000
0000
0000
,
0010
0000
0100
0000
,
0010
0000
0100
0000
,
1000
0000
0001
0000
,
1000
0000
0001
0000
,
1000
1000
1000
0000
,
0010
0010
0010
0000
,
0001
0001
0001
0000
,
0100
0100
0100
0000
,
1001
0000
0000
0000
,
0000
0000
0000
0000
,
0000
0000
0001
0000
,
0001
0000
1000
0000
,
0010
0000
0001
0000
,
0001
0000
1000
0000
,
0100
0000
0001
0000
,
0001
0000
1000
0000
,
0001
0000
0010
0000
,
0100
0000
1000
0000
,
0001
0000
1000
0000
,
1000
0000
0001
0000
,
0100
0000
1000
0000
,
1000
0000
0001
0000
,
0010
0000
1000
1000
,
1000
0000
0001
0001
,
0001
0000
1001
0000
,
0000
0110
0000
0000
,
1001
0000
0220
0000
,
0000
0000
0000
0000
,
0000
0000
0000
0330
;

//---------------dance-single - ----------------
#NOTEDATA:;
#CHARTNAME:;
#STEPSTYPE:dance-single;
#DESCRIPTION:;
#CHARTSTYLE:;
#DIFFICULTY:Easy;
#METER:10;
#RADARVALUES:0.488406,0.573631,0.382421,0.206507,0.007648,447.000000,397.000000,50.000000,27.000000,0.000000,0.000000,0.000000,0.000000,0.000000,0.488406,0.573631,0.382421,0.206507,0.007648,447.000000,397.000000,50.000000,27.000000,0.000000,0.000000,0.000000,0.000000,0.000000;
#CREDIT:led_light;
#DISPLAYBPM:92.000000:184.000000;
#NOTES:
0000
0000
0000
0000
,
0000
0000
0000
0000
,
0000
0000
0000
0000
,
0000
0000
0000
0000
,
0000
0000
0000
0000
,
2000
0000
3001
0000
0000
0001
0000
0000
,
0101
0000
0000
0001
2000
0000
0000
0000
,
3002
0000
1003
0000
0000
1000
0000
0000
,
1100
0000
0000
1000
0002
0000
0000
0000
,
1003
1100
0100
0101
,
0001
0011
0010
1010
,
1000
0001
1000
0001
0010
0100
0010
0100
,
2000
0000
0000
0000
,
3001
0000
0101
0000
0001
0010
0100
0000
,
0010
0000
0001
1000
0000
1000
0010
0000
,
0100
0000
1010
0000
1000
0001
0010
0000
,
0100
0000
1000
0001
0000
0001
1000
0010
,
0100
0000
0101
0000
0001
1000
0100
0000
,
0010
0000
0100
1000
0000
1000
0010
0000
,
0100
0000
1100
0000
0100
0001
1000
0000
,
2002
3003
0001
0010
0001
0010
0100
0000
,
1001
0000
0001
0100
0010
0000
1000
0000
,
0100
0010
0000
0010
0001
1000
0001
0000
,
1010
0000
0001
1000
0100
0000
0001
0000
,
0100
1000
0000
1000
0001
1000
0010
0000
,
0101
0000
0010
1000
0100
0000
0010
0000
,
0100
1000
0000
1000
0001
0100
0010
0000
,
1010
0000
1000
0001
0010
0000
0210
0000
,
0000
0000
1300
0001
1000
0010
0200
0000
,
0000
0000
0000
0000
0000
0000
0310
1000
,
0010
1000
0001
0000
0011
0000
0001
0100
,
0010
0000
0100
0000
0001
1000
0000
1000
,
0100
0000
0010
0000
1100
0000
2000
3001
,
0200
0300
0010
0000
1000
0001
0000
0001
,
1000
0100
0010
0000
0011
0000
0001
1000
,
0010
0000
0100
0000
0010
1000
0000
1000
,
0100
0000
0010
0000
1010
0000
0010
0001
,
1000
0000
0000
0000
0001
0000
0000
0010
0000
0000
0100
0000
0000
1000
0000
0000
,
0001
0000
1001
0000
0100
0000
0001
1000
,
0100
0000
1000
0010
0100
0010
1000
0000
,
1010
0000
1001
0000
0100
0000
1000
0001
,
0100
0000
0001
0010
0100
0010
0001
0000
,
0011
0000
1001
0000
0010
0000
0001
1000
,
0010
0000
1000
0100
0010
0100
1000
0000
,
1100
0000
2000
3001
0001
1000
1000
0010
,
0010
0100
0010
0000
0110
0000
1001
0000
,
0100
0000
1000
0100
1000
0000
0001
0100
,
0001
0010
0010
0100
,
1001
0000
0001
0100
0010
0000
1000
0100
,
0010
0000
0001
0000
0002
0003
1001
0000
,
1000
0010
0100
0000
0001
0010
0100
0000
,
1000
1000
0001
0102
,
2003
0100
0010
0100
,
0001
0000
0200
3300
0110
0000
0001
0010
,
0001
0000
1000
0010
1000
0000
0100
0000
,
0100
0000
0010
0000
1001
0000
1000
0010
,
0100
0000
0001
0010
0100
0000
1000
0000
,
2000
3000
1001
0000
0001
0100
0010
0000
,
1000
0100
0010
0000
0001
0000
0001
0000
,
1000
1000
0010
0010
,
0100
0001
0100
0001
0010
0100
0010
0100
,
2000
0000
0000
0000
,
0000
0000
0000
0000
,
3000
0000
0000
0000
,
0000
0000
0000
0000
,
0001
0100
0000
0101
,
1000
0000
0100
1000
0000
1000
0001
0000
,
1000
0010
0000
1010
,
0001
0000
0010
0001
0000
0000
0001
0000
,
1000
1010
0010
0011
,
0001
0101
0100
1100
,
1000
0010
0001
0100
,
1000
0001
0100
0010
,
2002
0000
0000
3003
0200
0000
0000
1300
,
2000
0000
0000
3001
0002
0000
0000
1003
,
1000
0001
1000
0001
0010
0000
1100
0000
,
0001
1000
0010
0010
,
0001
0010
0001
0000
0010
0000
0010
0000
,
1000
1000
0001
0010
,
0100
1000
0002
0000
1003
0000
0101
0000
,
0001
1000
0100
0001
,
0100
0010
0100
0000
1000
0000
1100
0000
,
0001
0000
0101
0000
1000
1000
1000
0000
,
0020
0130
0010
0101
,
1000
0001
0010
0010
,
1000
0010
1000
0000
0010
0000
0010
0000
,
0001
0001
1000
0010
,
0100
0001
2000
0000
3001
0000
1100
0000
,
1000
0101
0001
1010
,
1000
0000
0011
0000
1000
0100
0001
0100
,
0000
0000
1000
0010
0001
0010
0000
0000
,
1000
0100
0001
0100
0020
0000
0000
0000
,
0000
0000
0000
0000
,
0000
0000
0000
0030
;

//---------------dance-single - ----------------
#NOTEDATA:;
#CHARTNAME:;
#STEPSTYPE:dance-single;
#DESCRIPTION:;
#CHARTSTYLE:;
#DIFFICULTY:Medium;
#METER:13;
#RADARVALUES:0.651208,0.645335,0.122375,0.275343,0.015297,596.000000,580.000000,16.000000,36.000000,0.000000,0.000000,0.000000,0.000000,0.000000,0.651208,0.645335,0.122375,0.275343,0.015297,596.000000,580.000000,16.000000,36.000000,0.000000,0.000000,0.000000,0.000000,0.000000;
#CREDIT:led_light;
#DISPLAYBPM:92.000000:184.000000;
#NOTES:
0000
0000
0000
0000
,
0000
0000
0000
0000
,
0000
0000
0000
0000
,
0000
0000
0000
0000
,
0000
0000
0000
0000
,
2000
0000
3010
0000
0100
0010
0000
0000
,
0011
0000
0000
0001
2000
0000
0000
0000
,
3002
0000
0013
0000
0100
0010
0000
0000
,
1010
0000
0000
1000
0002
0000
0003
0000
,
1001
0000
0100
0000
1001
0100
0010
0000
,
0110
0000
1000
0001
0201
0000
0310
0000
,
1000
0100
1000
0100
0010
0001
0100
0010
,
2000
0000
0000
0000
,
3001
0100
0001
0001
1000
0100
0010
0010
,
0100
1000
0001
1000
0010
0100
0010
0000
,
1000
0100
1000
1000
0001
0010
0100
0100
,
0010
0001
0100
0010
0000
0010
1000
0001
,
1000
0001
0010
0010
0100
0010
0001
0001
,
1000
0010
0100
0001
0010
0100
0010
0000
,
0001
0010
0001
0001
1000
0010
0100
0010
,
2000
0000
0000
3001
0010
0000
0100
0000
0010
0000
0100
0000
1000
0000
0100
0000
,
1000
1000
0001
0100
0010
0010
0100
0001
,
1000
0001
0000
0010
0100
0010
0001
0100
,
0001
0001
1000
0010
0100
0100
0010
1000
,
0100
0010
0000
0010
0001
1000
0001
1000
,
0010
0010
0100
0010
1000
1000
0001
0010
,
0100
1000
0000
0010
0100
0010
1000
0010
,
1000
1000
0001
0010
0100
0010
0002
0000
,
0000
1003
0100
0010
0001
0100
0020
0030
,
2000
3000
0200
0300
0002
0003
0100
1000
,
0100
1000
0001
0010
0001
0001
1000
0010
,
0100
0100
0010
1000
0001
1000
0000
1000
,
0100
0010
0100
1000
0010
0010
2000
3001
,
0200
0310
0100
0001
0010
0100
0000
0100
,
1000
0001
1000
0001
0100
0100
0010
0100
,
0001
0001
1000
0100
0010
0001
0000
0100
,
0010
0100
0001
0100
0001
0001
1000
0100
,
0010
0000
0100
0000
1000
0000
0000
1000
0000
0000
0001
0000
0000
0100
0010
0000
,
1000
0000
0000
0001
1000
0000
0100
0000
1000
0000
1000
0000
0001
0000
0100
0000
,
0001
0001
0010
0100
1000
0001
1000
0100
,
0010
0001
1000
0001
1000
1000
0100
1000
,
0010
0010
0001
0010
0001
0010
1000
0100
,
0010
0001
1000
0010
0100
0100
0010
1000
,
0001
0001
0010
0100
1000
0001
1000
0010
,
0100
0001
0020
0130
0100
1000
1000
0001
,
0001
0100
0010
0010
0001
0010
0100
0010
,
1000
1000
0100
0010
0001
0001
1000
0010
,
0100
0001
0010
0100
1000
0001
1000
0100
,
0010
0010
0001
0100
0010
0010
1000
0001
,
0010
0100
1000
0001
0020
0000
0130
0100
,
1000
0010
0001
0001
0010
1000
0001
0010
,
0100
0001
0100
0010
0001
1000
0001
0001
,
1000
1000
0010
0010
0200
0302
2003
3200
,
0320
0032
2003
0000
3001
0001
0010
0100
,
1000
1000
0001
0100
0010
1000
0100
0010
,
0001
1000
0001
0010
0100
0100
1000
0010
,
0100
0100
0001
1000
0100
0010
0001
1000
,
0200
0000
0310
0010
0001
0100
1000
1000
,
0100
0001
1000
0100
0010
1000
0010
0100
,
1000
1000
0001
0001
0100
0100
0010
0010
,
1000
0100
1000
0001
0100
0010
1000
0100
,
0020
0000
0000
0000
,
0000
0000
0000
0000
,
0000
0000
0000
0000
,
0000
0000
0000
0000
,
0130
0000
1001
0001
0100
0000
1001
0000
,
0100
0000
1000
0001
0100
0010
0010
0000
,
0100
0000
1001
1000
0100
0000
1001
0000
,
0100
0000
0001
1000
0100
0000
0110
0100
,
1000
0100
1000
0000
0001
0100
0001
0000
,
1000
0010
1000
0000
0001
0010
0001
0000
,
1000
0001
0100
0001
1000
0010
0100
0010
,
1000
0100
0010
0001
1000
0100
0010
0001
,
2002
0000
0000
3003
0002
0000
0000
0103
,
2001
0000
0000
3100
1002
0000
0000
0103
,
0001
1000
0001
1000
0100
0010
0001
1000
,
0010
1000
0010
0100
0001
1000
0001
0100
,
0001
1000
0100
1000
0001
0100
0010
1000
,
0001
0010
1000
0010
0001
1000
0001
1000
,
0020
0031
0020
0030
1000
0001
0010
0100
,
0010
0001
0010
0001
1000
0001
0010
0100
,
1000
0001
1000
0010
0001
0010
0001
0010
,
1000
0001
1000
0001
0010
0100
1000
0100
,
0010
0001
2000
0000
3010
0100
0001
1000
,
0100
1000
0100
0010
0001
1000
0001
0010
,
0001
1000
0010
1000
0001
0010
0100
1000
,
0001
0100
1000
0100
0001
1000
0001
1000
,
0200
0301
0200
0300
1000
0000
1000
0000
,
0001
0000
0001
0000
1000
0001
0100
0010
,
1000
0100
0010
0001
1000
0100
1000
1100
,
0000
1000
0001
0100
0001
0101
0000
0001
,
1000
0100
1000
0010
0002
0000
0000
0000
,
0000
0000
0000
0000
,
0000
0000
0000
0003
;
