#TITLE:INVISIBLE STRIX;
#SUBTITLE:;
#ARTIST:L.E.D.;
#TITLETRANSLIT:;
#SUBTITLETRANSLIT:;
#ARTISTTRANSLIT:;
#GENRE:;
#CREDIT:;
#BANNER:INVISIBLE STRIX [ITG Edit].png;
#BACKGROUND:INVISIBLE STRIX [ITG Edit]-bg.png;
#LYRICSPATH:;
#CDTITLE:;
#MUSIC:INVISIBLE STRIX [ITG Edit].ogg;
#OFFSET:0.375000;
#SAMPLESTART:60.937000;
#SAMPLELENGTH:15.000000;
#SELECTABLE:YES;
#BPMS:0.000000=184.000000
;
#STOPS:203.875000=0.326000,
218.875000=0.326000,
233.875000=0.326000
;
#BGCHANGES:;
#KEYSOUNDS:;
#ATTACKS:;

//---------------dance-single - ----------------
#NOTES:
     dance-single:
     :
     Challenge:
     12:
     0.903606,1.254723,0.596577,0.351827,0.642467,827.000000,749.000000,78.000000,46.000000,20.000000,4.000000,0.903606,1.254723,0.596577,0.351827,0.642467,827.000000,749.000000,78.000000,46.000000,20.000000,4.000000:
// measure 0
0000
0000
0000
0000
,  // measure 1
0000
0000
0000
0000
,  // measure 2
0000
0000
0000
0000
,  // measure 3
0000
0000
0000
0000
,  // measure 4
0000
0000
0000
0000
,  // measure 5
2100
0000
3001
0000
0100
0010
0000
0000
,  // measure 6
1010
0000
0000
0002
0200
0000
0303
0000
,  // measure 7
0102
0000
1003
0000
0100
0010
0000
0000
,  // measure 8
0011
0000
0000
2000
0200
0000
3300
0000
,  // measure 9
0110
0000
0001
0000
1001
0001
0100
0000
,  // measure 10
0110
0000
0100
0001
2000
0000
0100
0000
,  // measure 11
3010
0000
0100
0000
0010
0000
1000
0000
0001
0010
0001
0010
0100
1000
0001
0100
,  // measure 12
0010
0000
0100
0001
0000
0100
0001
0000
0100
0001
0000
0100
0001
0000
0100
0001
,  // measure 13
1000
0001
1010
0001
1000
0010
1100
0001
,  // measure 14
0010
0000
0100
0000
1010
0000
0001
0000
1000
0000
0010
0100
0001
0000
1000
0000
,  // measure 15
0001
0100
0011
1000
0100
0010
0101
1000
,  // measure 16
0001
0000
0010
0000
0101
0000
0010
0000
0001
0000
1000
0100
0001
0000
0001
0100
,  // measure 17
1000
0001
1010
0100
0010
0001
1100
0010
,  // measure 18
0001
0000
0010
0000
1100
0000
0001
0000
1000
0000
0001
0010
0100
0000
1000
0000
,  // measure 19
0001
0000
1000
0000
0011
0000
1000
0000
0100
0000
0010
0001
0010
0000
0100
1000
,  // measure 20
0002
0000
0000
0000
0000
0000
1003
0000
0001
0100
0001
0100
0010
1000
0100
0010
,  // measure 21
0001
1000
0101
1000
0001
0100
0011
1000
,  // measure 22
0100
0000
0010
0000
0101
0000
1000
0000
0001
0000
0100
0010
1000
0000
0001
0000
,  // measure 23
1000
0010
1100
0001
0010
0100
1010
0001
,  // measure 24
1000
0000
0100
0000
1010
0000
0100
0000
1000
0000
0001
0010
1000
0000
1000
0010
,  // measure 25
0001
1000
0101
0010
0100
1000
0011
0100
,  // measure 26
1000
0000
0100
0000
0011
0000
1000
0000
0001
0000
1000
0100
0010
0000
0001
0000
,  // measure 27
1000
0000
0001
0000
1100
0000
0001
0000
0010
0000
0100
1000
0100
0000
0010
0001
,  // measure 28
2000
0000
0000
0000
0000
0000
3001
0000
0100
0001
0100
0001
1000
0010
0100
0001
,  // measure 29
2000
0000
3000
2000
0000
3000
0002
0000
,  // measure 30
0003
0000
0002
0000
0000
0000
0003
0000
1000
0100
1000
0100
0010
0001
0100
0010
,  // measure 31
1000
0000
0001
0000
1010
0000
0001
1000
0100
0000
1000
0000
0101
0000
1000
0000
,  // measure 32
0010
0000
0100
0000
0011
0000
1000
0001
0010
0000
0100
0000
0001
MMM0
0001
0000
,  // measure 33
0010
0000
0001
0000
1100
0000
0010
1000
0020
0000
0031
0000
0020
0000
1030
0000
,  // measure 34
0001
0000
1000
0000
0101
0000
0010
1000
0MMM
1000
0100
0000
1000
0000
0001
0100
,  // measure 35
0001
0000
1000
0000
0011
0000
0100
0001
0010
0000
0100
0000
1010
0000
0001
0000
,  // measure 36
1000
0000
0001
0000
1100
0000
0010
1000
0010
0000
0100
0000
1000
0MMM
1000
0000
,  // measure 37
0010
0000
1000
0000
0011
0000
1000
0001
1000
0000
0100
0000
0001
0000
0100
0000
,  // measure 38
1000
0000
0000
1001
0000
0000
0110
0000
0000
1000
0001
0000
0010
0000
0001
0100
,  // measure 39
0010
0000
1000
0000
0101
0000
1000
0100
1000
0000
0001
0000
0100
00M0
0100
0000
,  // measure 40
1000
0000
0001
0000
1010
0000
0100
1000
0001
0010
0100
0000
0010
0M00
0010
0000
,  // measure 41
1000
0000
0001
0000
1010
0000
0100
1000
0100
0000
1000
0000
0010
0M00
0010
0000
,  // measure 42
0100
0000
1000
0000
0011
0000
0100
0001
0000
0100
0010
0000
0100
00M0
0100
1000
,  // measure 43
0001
0000
1000
0000
0011
0000
0100
0001
1000
0000
0100
0000
0010
0M00
0010
0000
,  // measure 44
1000
0000
0010
0000
1100
0000
0001
1000
0000
1000
0001
0000
0010
0000
0100
0000
,  // measure 45
2000
0000
0000
0000
3001
0000
0000
0001
0000
0000
0010
0000
0000
0010
0000
0000
,  // measure 46
0001
0000
0000
0001
0000
0000
0100
0000
0010
0000
1000
0010
1000
0000
0001
1000
,  // measure 47
0001
0000
0100
0000
0011
0000
1000
0100
1000
0001
1000
0000
0010
0000
0100
0001
,  // measure 48
1000
0000
0001
0000
0010
0000
0100
0010
0100
0010
0001
0000
1000
0000
0100
0000
,  // measure 49
1000
0000
0001
0000
1010
0000
0001
1000
0010
0100
0010
0000
1000
0000
0001
0100
,  // measure 50
0001
0000
1000
0000
0100
0000
0010
0100
0000
0010
0001
0000
2000
0000
0000
0000
,  // measure 51
3M01
0000
1000
0100
1000
0001
0100
0000
0010
0000
0100
0001
0100
0000
0010
0000
,  // measure 52
1000
0000
0001
0100
0000
0100
0010
0000
1000
0000
0200
0000
0310
0000
0020
0000
,  // measure 53
0001
0032
1000
2003
0010
3020
0230
0302
,  // measure 54
0023
0000
0230
0000
2300
0000
0000
0002
3000
0000
0020
0003
M131
0000
1000
0010
,  // measure 55
1000
0001
1000
0000
0100
0000
0010
0001
1000
0000
0001
0000
0100
0000
0010
0100
,  // measure 56
0010
0100
0001
0000
1000
0000
0010
0000
1000
0000
0001
0000
1100
0000
0001
1000
,  // measure 57
0100
0010
0100
0000
1000
0000
0001
0010
0001
0000
1000
0000
0010
0000
0100
0010
,  // measure 58
0000
0100
0001
0000
2000
0000
0000
0000
30M1
0000
1000
0010
1000
0001
0010
0000
,  // measure 59
0100
0000
0010
0001
0010
0000
0100
0000
1000
0000
0001
0010
0000
0010
0100
0000
,  // measure 60
1000
0001
1000
0100
1000
0001
0100
0010
,  // measure 61
0100
0000
0001
0000
0010
0000
0010
0000
0100
0000
0100
0000
1000
0001
1000
0010
,  // measure 62
0100
0001
0010
0100
2000
0000
0000
0000
0000
0000
0000
0000
0000
0000
0000
0000
,  // measure 63
0000
0000
0000
0000
,  // measure 64
0000
0000
0000
0000
,  // measure 65
0000
0000
0000
0000
,  // measure 66
0000
0000
3001
0000
0001
0100
1000
0000
,  // measure 67
0101
0000
0000
0000
1000
0000
0000
0000
0100
0000
0001
0000
0100
0000
1000
0001
,  // measure 68
1000
0000
0001
0000
0001
0010
1000
0000
,  // measure 69
0011
0000
1000
0000
0010
0001
0010
0000
,  // measure 70
1000
0000
0001
1000
0001
0000
0001
0000
0100
0000
0100
0000
0010
0000
0010
0000
,  // measure 71
1000
1000
0001
0001
0010
0010
0100
0100
,  // measure 72
1000
0000
1000
0000
0001
0010
0001
0010
0100
0010
0100
0010
0100
1000
0100
1000
,  // measure 73
0001
0010
0001
0010
0100
1000
0001
0010
0001
0100
0010
1000
0100
0010
0001
0010
,  // measure 74
0100
1000
0010
0100
0022
0000
0000
0000
0000
0000
0033
0000
0000
0000
0000
0000
,  // measure 75
0000
0000
0000
0000
0000
2020
0000
0000
,  // measure 76
3131
0000
0202
0000
0000
1313
0000
0000
,  // measure 77
0022
0000
0000
0000
0000
0000
1133
0000
0000
0000
0000
0000
1000
0100
1000
0100
,  // measure 78
0010
0001
0010
0100
1000
0000
0001
0000
1010
0000
0100
0010
0100
0000
1000
0000
,  // measure 79
0101
0000
1000
0000
0010
0000
0100
0000
0011
0000
1000
0010
1000
0001
0100
0000
,  // measure 80
0011
0M00
0010
0000
0100
0000
0010
0000
0101
0000
1000
0100
1000
0000
0001
0000
,  // measure 81
1100
0000
0001
0000
1000
0000
0100
0000
0010
0000
0100
1000
0002
0000
0013
0001
,  // measure 82
2000
0000
3100
1000
0001
0000
1000
0000
0011
0000
0100
0010
0100
0000
0001
0000
,  // measure 83
1100
0000
0001
0000
0010
0000
0100
0000
1010
0000
0001
0010
0001
1000
0100
0000
,  // measure 84
1010
0M00
0010
0000
0100
0000
0010
0000
1100
0000
0001
0100
0001
0000
1000
0000
,  // measure 85
0101
0000
1000
0000
0001
0000
0100
0000
0010
0000
1000
0001
0000
1000
0100
0010
,  // measure 86
0002
0000
0013
0100
1000
0000
0001
0000
1010
0000
0100
0010
0100
0000
1000
0000
,  // measure 87
0101
0000
1000
0000
0010
0000
0100
0000
0011
0000
1000
0010
1000
0001
0100
0000
,  // measure 88
0011
0M00
0010
0000
0100
0000
0010
0000
0101
0000
1000
0100
1000
0000
0001
0000
,  // measure 89
1100
0000
0001
0000
1000
0000
0100
0000
0010
0000
0100
1000
0002
0000
0013
0001
,  // measure 90
2000
0000
3100
1000
0001
0000
1000
0010
1000
0000
0001
0010
0001
0000
1000
0100
,  // measure 91
1000
0000
0001
0100
0001
0000
0100
0010
0100
0000
0010
1000
0100
0010
0100
0010
,  // measure 92
0100
1000
0001
0000
1000
0100
1000
0100
1000
0100
1010
0000
0000
0000
0001
0000
,  // measure 93
1000
0010
1000
0010
1000
0010
1100
0000
0000
0000
0001
0000
1000
0100
0010
0100
,  // measure 94
1000
0010
0100
0001
2020
0000
0000
0000
0000
0000
0000
0000
0000
0000
0000
0000
,  // measure 95
0000
0000
0000
0000
,  // measure 96
0000
0000
3030
0000
;
