#TITLE:INSOMNIA;
#SUBTITLE:;
#ARTIST:ジャカルタファンクブラザーズ;
#TITLETRANSLIT:;
#SUBTITLETRANSLIT:;
#ARTISTTRANSLIT:Jakarta Funk Brothers;
#GENRE:BEMANI;
#CREDIT:;
#BANNER:INSOMNIA.png;
#BACKGROUND:INSOMNIA-bg.png;
#LYRICSPATH:;
#CDTITLE:../cdtitle.png;
#MUSIC:INSOMNIA.ogg;
#OFFSET:0.687000;
#SAMPLESTART:25.159000;
#SAMPLELENGTH:15.000000;
#SELECTABLE:YES;
#BPMS:0.000000=195.000000
;
#STOPS:
;
#BGCHANGES:0.000=INSOMNIA.avi=1.000=0=0=0=StretchNoLoop====,
99999=-nosongbg-=1.000=0=0=0 // don't automatically add -songbackground-
;
#KEYSOUNDS:;
#ATTACKS:;

//---------------dance-single - ----------------
#NOTES:
     dance-single:
     :
     Beginner:
     3:
     0.134282,0.315266,0.049910,0.000000,0.000000,113.000000,107.000000,6.000000,0.000000,0.000000,0.000000,0.134282,0.315266,0.049910,0.000000,0.000000,113.000000,107.000000,6.000000,0.000000,0.000000,0.000000:
0000
0000
0000
0000
,
0000
0000
0000
0000
,
0000
0000
0000
0000
,
0000
0000
0000
0000
,
0000
0000
0000
0000
,
0010
0000
0000
0000
,
0000
0000
0000
0000
,
0100
0000
0000
0000
,
0000
0000
0000
0000
,
1000
0000
0000
0000
,
0001
0000
0000
0000
,
1000
0000
0000
0000
,
0100
0000
0000
0000
,
0001
0000
0000
0000
,
0001
0000
0000
0000
,
1000
0000
0000
0000
,
1000
0000
0000
0000
,
1000
0000
0000
0000
,
0001
0000
0000
0000
,
0010
0000
0000
0000
,
0010
0000
0000
0000
,
1000
1000
1000
0000
,
0100
0000
0000
0000
,
0001
0000
0000
0000
,
0100
0000
0000
0000
,
1000
1000
1000
0000
,
0010
0000
0000
0000
,
0001
0000
0000
0000
,
0010
0000
0000
0000
,
0010
0010
0010
0000
,
0100
0000
0000
0000
,
0010
0000
0000
0000
,
0100
0000
0000
0000
,
0000
0010
0010
0000
,
1000
0000
0000
0000
,
0100
0000
0000
0000
,
0010
0000
0000
0000
,
0001
0000
0001
0000
,
0001
0000
0001
0000
,
0001
0001
0001
0001
,
0001
0000
1001
0000
,
1000
0000
0000
0000
,
0010
0000
0000
0000
,
1000
0000
0000
0000
,
0100
0000
0000
0000
,
0001
0000
0000
0000
,
0010
0000
0000
0000
,
0001
0000
0000
0000
,
0100
0000
0000
0000
,
0100
0000
0000
0000
,
0010
0000
0000
0000
,
1000
0000
0000
0000
,
1000
0000
0000
0000
,
0100
0000
0000
0000
,
0010
0000
0000
0000
,
0001
0000
0000
0000
,
0001
0000
0000
0000
,
0100
0000
0000
0000
,
0000
0000
0000
0000
,
0100
0000
0000
0000
,
0000
0000
0000
0000
,
0010
0000
0000
0000
,
0000
0000
0000
0000
,
0010
0000
0000
0000
,
0000
0000
0000
0000
,
1000
0000
1000
0000
,
1000
0000
1000
0000
,
0001
0000
0001
0000
,
0001
0000
0001
0000
,
0100
0000
0100
0000
,
0100
0000
0100
0000
,
0010
0000
0010
0000
,
0010
0000
0010
0000
,
0110
0000
0000
0000
,
0000
0000
0000
0000
,
1001
0000
0000
0000
,
0001
0000
0000
0000
,
1000
0000
0000
0000
,
1000
0000
0000
0000
,
0100
0000
0000
0000
,
0010
0000
0000
0000
,
0100
0000
0000
0000
,
0100
0000
0000
0000
,
1001
0000
0000
0000
,
1000
0000
0000
0000
,
0001
0000
0000
0000
,
0001
0000
0000
0000
,
0010
0000
0000
0000
,
0100
0000
0000
0000
,
0010
0000
0000
0000
,
0010
0000
0000
0000
,
1001
0000
0000
0000
,
1001
0000
0000
0000
,
0010
0000
0010
0000
,
0010
0000
0010
0010
;

//---------------dance-single - ----------------
#NOTES:
     dance-single:
     :
     Easy:
     7:
     0.361254,0.394082,0.024955,0.083184,0.000000,304.000000,301.000000,3.000000,10.000000,0.000000,0.000000,0.361254,0.394082,0.024955,0.083184,0.000000,304.000000,301.000000,3.000000,10.000000,0.000000,0.000000:
0000
0000
0000
0000
,
0000
0000
0000
0000
,
0000
0000
0000
0000
,
0000
0000
0000
0000
,
0000
0000
0000
0000
,
0002
0000
0000
0000
,
1003
0000
1000
0000
,
0010
0000
0010
0000
,
0001
0000
0001
0000
,
0100
1000
0010
0001
,
0100
0001
0010
1000
,
0100
0001
0010
0100
,
0001
1001
0000
0000
,
0001
1000
0000
1000
,
0001
1000
0000
1000
,
0100
0001
0100
1000
,
0100
0001
1000
0001
,
1000
0000
0001
0000
,
0010
0100
0010
0001
,
0100
0100
0010
0010
,
0001
0100
1000
0000
,
0100
0010
0010
0010
,
0010
0001
0100
1000
,
0001
0100
0001
1000
,
0001
0001
1000
0001
,
0100
0010
0010
0010
,
0010
1000
0100
0001
,
1000
0100
1000
0001
,
1000
1000
0001
1000
,
0010
0001
0001
0001
,
0001
0100
1000
0010
,
0001
0100
0001
0010
,
0100
1000
0001
0100
,
0010
1000
1000
1000
,
1000
0100
0001
0010
,
1000
0100
1000
0010
,
0100
0001
1000
0100
,
0100
0000
0100
0000
,
0100
0000
0100
0000
,
0010
0010
0010
0010
,
0010
0001
0100
1001
,
1000
0010
0100
1000
,
0001
0100
0010
0001
,
1000
0010
0001
0100
,
0010
0001
0200
0000
,
1300
0100
0010
1000
,
0001
0010
0100
0001
,
1000
0100
0001
0010
,
0100
0001
0010
0010
,
0001
0100
0010
0001
,
1000
0010
0100
1000
,
0001
0100
1000
0010
,
0100
1000
0020
0000
,
0031
0010
0100
0001
,
1000
0100
0010
1000
,
0001
0010
1000
0100
,
0010
1000
0100
0100
,
0002
0000
0003
0000
,
2000
0000
3000
0000
,
0001
0000
0002
0000
,
0003
0000
1000
0000
,
2000
0000
3000
0000
,
0002
0000
0003
0000
,
1000
0000
2000
0000
,
3000
0000
0001
0000
,
0010
0001
0100
0000
,
0100
1000
0010
0000
,
0001
0100
1000
0000
,
1000
0010
0001
0000
,
0100
1000
0010
0001
,
0100
1000
0010
0001
,
0100
1000
0001
0100
,
1000
0010
0001
0100
,
2000
0000
3000
0000
,
0000
0000
0000
0000
,
0010
0001
0100
0010
,
1000
0100
0010
0001
,
1000
0100
0001
0100
,
1000
0100
0010
1000
,
0001
0010
0001
1000
,
1000
0100
1000
0001
,
0010
1000
0100
0010
,
0001
0001
1000
1000
,
0100
1000
0010
0100
,
0001
0010
0100
1000
,
0001
0010
1000
0010
,
0001
0010
0100
0001
,
1000
0100
1000
0001
,
0001
0010
0001
1000
,
0100
0001
0010
0100
,
1000
1000
0001
0001
,
0100
0000
0100
0000
,
0100
0000
0100
0000
,
0010
0010
0010
0010
,
0010
1000
0100
1001
;

//---------------dance-single - ----------------
#NOTES:
     dance-single:
     :
     Medium:
     11:
     0.455133,0.630532,0.357689,0.108139,0.000000,383.000000,340.000000,43.000000,13.000000,0.000000,0.000000,0.455133,0.630532,0.357689,0.108139,0.000000,383.000000,340.000000,43.000000,13.000000,0.000000,0.000000:
0000
0000
0000
0000
,
0000
0000
0000
0000
,
0000
0000
0000
0000
,
0000
0000
0000
0000
,
0000
0000
0000
0000
,
1001
0000
0000
0000
,
0100
0000
0010
0000
,
1000
0000
0100
0000
,
0001
0000
0010
0000
,
1000
0100
0001
0010
,
1000
0100
0001
0010
,
0100
0001
0100
1000
,
1001
0010
0000
0000
,
1000
0000
0001
0000
0000
1000
0001
0000
,
1000
0000
0100
0000
1000
0100
0001
0000
,
0010
0000
0001
0000
0100
0001
1000
0000
,
0010
0000
1000
0000
0100
1000
0001
0000
,
0001
0000
1000
0000
0000
0001
1000
0000
,
0001
0000
0100
0000
0001
0100
1000
0000
,
0100
0100
0010
0010
,
0100
0010
0100
0000
0110
0000
0000
0000
,
1001
0010
1001
0010
,
1000
0100
0001
0001
,
0010
0000
0001
0000
0100
0001
0010
0000
,
0010
0000
1000
0000
0100
1000
0010
0000
,
1001
0010
1001
0010
,
0001
0100
1000
1000
,
0001
0010
1000
0000
0001
0100
1000
0000
,
0010
1000
0100
0000
0010
0001
0100
0000
,
1001
0100
1001
0100
,
0001
0010
1000
1000
,
0100
0000
1000
0000
0010
1000
0100
0000
,
0100
0000
0001
0000
0010
0001
0100
0000
,
1001
0100
1001
0100
,
1000
0010
0001
0001
,
1000
0100
0001
0000
1000
0010
0001
0000
,
0100
0001
0010
0000
0100
1000
0010
0100
,
0110
0000
1001
0000
,
0110
0000
1001
0000
,
0110
0110
0110
0110
,
0001
0100
1000
1001
,
0001
0010
0100
1000
,
0100
1000
0100
1000
,
0001
0010
0001
0010
,
0001
1000
0200
0000
,
1300
0010
0100
0001
,
0100
0001
0100
0001
,
1000
0010
1000
0010
,
1000
0001
0200
0310
,
0001
0100
1000
0010
,
1000
0100
0001
0010
,
1000
0100
0001
0010
,
1000
0100
0010
0010
,
1000
0010
0001
0100
,
0001
0010
1000
0100
,
0001
0010
1000
0100
,
0001
0000
0010
0000
0100
0010
0100
0010
,
2000
0000
3001
0000
,
0002
0000
1003
0000
,
0200
0000
0020
0000
,
0300
0000
2030
0000
,
3200
0000
0310
0000
,
0020
0000
0031
0000
,
0002
0000
2000
0000
,
3003
0000
1001
0000
,
1100
0101
1100
0100
,
1010
1100
1010
1000
,
0011
1010
0011
0010
,
0101
0011
0101
0001
,
0100
1000
0010
0001
,
0100
1000
0010
0001
,
0100
0001
0100
0000
0010
1000
0010
0000
,
1000
0001
1000
0001
1000
0001
1000
0001
,
0220
0000
0330
0000
,
0000
0000
0000
0000
,
0010
1000
0010
0001
,
0100
1000
0100
0001
,
1000
1000
0001
0001
,
1000
1000
0001
0100
,
0100
1000
0100
0001
,
0010
1000
0010
0001
,
0100
0010
0100
0010
,
0001
0100
1000
0001
,
0100
0001
0100
1000
,
0010
0001
0010
1000
,
0001
0001
1000
1000
,
0001
0001
1000
0010
,
0010
0001
0010
1000
,
0100
0001
0100
1000
,
0010
0100
0010
0100
,
1000
0010
0001
1000
,
0110
0000
1001
0000
,
0110
0000
1001
0000
,
0110
0110
0110
0110
,
1000
0100
0001
1001
;

//---------------dance-single - ----------------
#NOTES:
     dance-single:
     :
     Hard:
     14:
     0.659527,0.748756,0.257869,0.199641,0.183004,555.000000,524.000000,31.000000,24.000000,0.000000,0.000000,0.659527,0.748756,0.257869,0.199641,0.183004,555.000000,524.000000,31.000000,24.000000,0.000000,0.000000:
// measure 0
0000
0000
0000
0000
,  // measure 1
0000
0000
0000
0000
,  // measure 2
0000
0000
0000
0000
,  // measure 3
0000
0000
0000
0000
,  // measure 4
0000
0000
0000
0000
,  // measure 5
2002
0000
3003
0000
,  // measure 6
1000
0100
0010
0000
,  // measure 7
1000
0001
0010
0000
,  // measure 8
0100
0010
1000
0000
,  // measure 9
0001
0000
0100
0000
1000
0000
0010
0001
,  // measure 10
0100
0000
1000
0000
0010
0000
0001
0100
,  // measure 11
1000
0000
0010
0000
0001
0000
0100
1000
,  // measure 12
0010
0012
0000
0003
,  // measure 13
1100
0000
0010
0000
1000
0100
0001
0000
,  // measure 14
1000
0010
1000
0001
0010
0001
0100
0000
,  // measure 15
1000
0000
0000
1000
0010
0000
0001
0000
1000
0000
0001
0000
0100
0000
0000
0000
,  // measure 16
0001
0000
0000
0001
0010
0000
1000
0000
0001
0000
1000
0000
0100
0000
0000
0000
,  // measure 17
1000
0110
0001
0110
,  // measure 18
1000
0100
0010
0001
0100
0010
1000
0100
,  // measure 19
1100
0001
0011
1000
,  // measure 20
0010
1000
0100
0000
0101
0000
0000
0000
,  // measure 21
0010
0001
0100
0100
1000
1000
0010
0010
,  // measure 22
0001
0100
0001
1000
0100
1000
0001
0010
,  // measure 23
0100
1000
0010
0100
0001
0001
0010
0100
,  // measure 24
1000
1000
0010
0100
0001
0001
0010
0100
,  // measure 25
0000
1000
0010
0010
0001
0001
0100
0100
,  // measure 26
1000
0010
1000
0001
0010
0001
1000
0100
,  // measure 27
0010
0001
0100
0010
1000
1000
0100
0010
,  // measure 28
0001
0001
0100
0010
1000
1000
0100
0010
,  // measure 29
0010
1000
0100
0100
0001
0001
0010
0010
,  // measure 30
1000
0100
1000
0001
0100
0001
1000
0010
,  // measure 31
0100
0001
0010
0100
1000
1000
0010
0100
,  // measure 32
0001
0001
0010
0100
1000
1000
0010
0100
,  // measure 33
0000
0001
0010
0010
1000
1000
0100
0100
,  // measure 34
0001
0010
0001
1000
0010
1000
0001
0100
,  // measure 35
0010
1000
0100
0010
0001
0001
0100
0010
,  // measure 36
1000
1000
0100
0010
0001
0001
0100
0010
,  // measure 37
0011
0000
1010
0000
,  // measure 38
1100
0000
0101
0000
,  // measure 39
0011
1010
1100
0101
,  // measure 40
0010
1000
0010
1000
0010
1000
0011
0000
,  // measure 41
0001
0000
0000
0001
0010
0000
0000
0010
0001
0000
0000
0001
0010
0000
0000
0010
,  // measure 42
1000
0000
0000
1000
0010
0000
0000
0010
1000
0000
0000
1000
0010
0000
0000
0010
,  // measure 43
1000
0000
0000
1000
0100
0000
0000
0100
0001
0000
0000
0001
0010
0000
0000
0010
,  // measure 44
1000
0000
0000
1000
0100
0000
0000
0100
0001
0000
0001
0000
0200
0000
0000
0000
,  // measure 45
1300
0000
0000
1000
0100
0000
0000
0100
1000
0000
0000
1000
0100
0000
0000
0100
,  // measure 46
0001
0000
0000
0001
0100
0000
0000
0100
0001
0000
0000
0001
0100
0000
0000
0100
,  // measure 47
0001
0000
0000
0001
0010
0000
0000
0010
1000
0000
0000
1000
0100
0000
0000
0100
,  // measure 48
0001
0000
0000
0001
0010
0000
0000
0010
1000
0000
1000
0000
0020
0000
0000
0000
,  // measure 49
0130
0000
0000
0001
0100
0000
0010
0000
0100
0000
0000
1000
0010
0000
0100
0000
,  // measure 50
0010
0000
0000
1000
0100
0000
0001
0000
0100
0000
0000
1000
0010
0000
0001
0000
,  // measure 51
0010
0100
0001
0010
0100
0001
0100
0010
,  // measure 52
0001
0000
1000
0000
0100
0000
0100
0000
1000
0010
1000
0010
2000
0000
3000
0000
,  // measure 53
0010
0000
0000
1000
0010
0000
0100
0000
0010
0000
0000
0001
0100
0000
0010
0000
,  // measure 54
0100
0000
0000
0001
0010
0000
1000
0000
0010
0000
0000
0001
0100
0000
1000
0000
,  // measure 55
0100
0010
1000
0100
0010
1000
0010
0100
,  // measure 56
1000
0001
0010
0100
1000
0010
0100
0000
,  // measure 57
2001
0000
0001
0000
,  // measure 58
3020
0000
0100
0000
,  // measure 59
2030
0000
0200
0000
,  // measure 60
3000
0000
0001
0000
,  // measure 61
0302
0000
0100
0000
,  // measure 62
2003
0000
0010
0000
,  // measure 63
3020
0000
0002
0000
,  // measure 64
0033
0000
0002
0000
,  // measure 65
1003
0000
0100
0000
1000
0000
0010
0100
,  // measure 66
0010
0000
0100
0000
0001
1000
0010
1000
,  // measure 67
0001
0000
0100
0000
0001
0000
0010
0100
,  // measure 68
0010
0000
0100
0000
1000
0001
0010
0001
,  // measure 69
1000
0000
1000
0000
0001
0000
0001
0100
,  // measure 70
1000
0000
1000
0000
0001
1000
0001
1000
,  // measure 71
0001
0010
0001
0010
0100
1000
0100
1000
,  // measure 72
0010
0100
0010
0100
0001
0100
0010
1000
,  // measure 73
0200
0000
0300
0000
,  // measure 74
0000
0000
0000
0000
0000
0000
0000
0010
,  // measure 75
1001
0000
0100
0000
1000
0100
0010
0000
,  // measure 76
0001
0000
0100
0000
0001
0010
0001
0200
,  // measure 77
1000
0300
1000
0200
0001
0300
0001
0200
,  // measure 78
1000
0300
1000
0100
0010
1000
0100
0010
,  // measure 79
0001
0000
1000
0000
0001
0010
1000
0000
,  // measure 80
0100
0000
0010
0000
1000
0100
1000
0001
,  // measure 81
0020
0000
0000
0000
0130
0000
1000
0000
0100
1000
0100
1000
0100
0000
0010
0000
,  // measure 82
0001
0100
1000
0100
0001
0010
0100
1000
,  // measure 83
1001
0000
0100
0000
0001
0100
0010
0000
,  // measure 84
1000
0000
0100
0000
1000
0010
1000
0200
,  // measure 85
0001
0300
0001
0200
1000
0300
1000
0200
,  // measure 86
0001
0300
0001
0100
0010
0001
0100
0010
,  // measure 87
1000
0000
0001
0000
1000
0010
0001
0000
,  // measure 88
0100
0000
0010
0000
0001
0100
0001
1000
,  // measure 89
0020
0000
0000
0000
0130
0000
0001
0000
0100
0001
0100
0001
0100
0000
0010
0000
,  // measure 90
1000
0100
0001
0100
1000
0010
0100
0001
,  // measure 91
1010
0000
0011
0000
,  // measure 92
0101
0000
1100
0000
,  // measure 93
1010
0011
0101
1100
,  // measure 94
0010
1000
0010
1000
1100
1100
0011
0000
;

//---------------dance-single - ----------------
#NOTES:
     dance-single:
     :
     Challenge:
     18:
     0.970871,1.151885,0.682106,0.457510,0.515738,817.000000,735.000000,82.000000,55.000000,0.000000,0.000000,0.970871,1.151885,0.682106,0.457510,0.515738,817.000000,735.000000,82.000000,55.000000,0.000000,0.000000:
0000
0000
0000
0000
,
0000
0000
0000
0000
,
0000
0000
0000
0000
,
0010
0000
0010
0000
,
0010
0000
0010
0000
0010
0000
0010
0100
,
0011
0100
0101
0010
,
1010
0100
1100
0010
,
0011
0100
0110
0010
,
1010
0100
0110
0010
,
1001
0010
0001
0100
1000
0100
0001
0010
,
0001
0000
0100
0000
1000
0000
0100
0000
0001
0000
0010
0000
0001
0000
1000
0100
,
0010
0001
0100
0010
1000
0100
0010
0001
,
1000
0000
0000
0000
0120
0000
0000
0000
1030
0000
0010
1000
0002
0000
0003
0000
,
0101
1000
0010
0001
1000
0100
0001
0100
,
1000
0100
1000
0100
0001
0100
0001
0100
0010
1000
0010
1000
0001
1000
0100
0000
,
0001
0000
0001
0100
1000
0000
0020
0000
0100
0000
0130
0000
0001
0000
0010
0000
,
1000
0000
1000
0010
0001
0000
0200
0000
0010
0000
0310
0000
1000
0000
0100
0000
,
0110
0001
0100
0001
0010
1000
0010
0001
,
1000
0100
1000
0100
0010
0001
0010
0001
1000
0010
1000
0010
0100
0001
0100
0001
,
1000
1000
1100
0100
0001
0001
0011
0010
,
0100
0000
1000
0001
0100
0000
0001
0000
0102
0000
0000
0000
0203
0000
0000
0000
,
0320
0000
1030
0100
0010
0000
0010
0000
0010
0000
0001
0000
0010
0000
0010
0000
,
1000
0100
0010
0001
0100
0100
0010
0001
,
1000
0010
0100
0010
1000
0100
0010
0100
,
0001
0100
1100
0100
0101
0100
0110
0001
,
0001
0000
1000
0100
0010
0000
0001
0100
0010
0000
1000
0001
0100
0000
0001
1000
,
0100
0100
0001
0010
0001
1000
0010
0100
,
0001
0001
0100
1000
1000
0100
0001
0001
,
0010
0020
2030
3200
2300
3002
0023
0230
,
0320
0000
0031
0100
0010
0000
0010
0000
0010
0000
1000
0000
0010
0000
0010
0000
,
0001
0100
0010
1000
0100
0100
0010
1000
,
0001
0010
0100
0010
0001
0100
0010
0100
,
2000
3200
0001
0301
0200
1000
1300
0100
,
0100
0001
1000
0100
0010
0000
0001
0100
0010
0000
1000
0001
0100
0000
0001
1000
,
0100
0100
1000
0010
1000
0001
0010
0100
,
1000
2000
0100
3001
0002
0100
1003
1000
,
0010
0001
0001
0100
0001
1000
0010
0100
,
0110
1000
0100
0010
1001
0010
1000
0001
,
0110
1000
0100
0010
1001
0010
1000
0001
,
0021
0030
0201
0300
0021
0030
0201
0300
,
1010
0000
0010
0000
0011
0000
0010
0000
0100
0010
0100
0010
2000
0000
0000
0000
,
3001
0010
0100
0000
0100
0010
0001
0000
0001
0100
0010
0000
0010
0100
1000
0000
,
1000
0100
0001
0000
0001
0100
0010
0000
0010
1000
0100
0000
0100
1000
0001
0000
,
0001
1000
0100
0000
0100
1000
0010
0000
0010
0100
0001
0000
0001
0100
1000
0000
,
1000
0000
0000
0100
0000
0000
0010
0000
0000
0000
0000
0000
0010
0000
0000
0100
0000
0000
0001
0000
0000
0000
0000
0000
0001
0000
0000
0000
0100
0000
0000
0000
0001
0000
0000
0000
0100
0000
0000
0000
0020
0000
0000
0000
0000
0000
0000
0000
,
1030
0100
1000
0000
1000
0010
1000
0000
1000
0001
1000
0000
1000
0100
1000
0000
,
0001
0100
0001
0000
0001
0010
0001
0000
0001
1000
0001
0000
0001
0100
0001
0000
,
1000
0010
1000
0000
0001
0100
0001
0000
0010
0100
0010
0000
0100
0010
0100
0000
,
2010
0000
3002
0000
0103
0100
1100
0000
,
1000
0100
0010
0000
0010
0100
1000
0000
1000
0010
0100
0000
0100
0010
0001
0000
,
0001
0010
1000
0000
1000
0010
0100
0000
0100
0001
0010
0000
0010
0001
1000
0000
,
1000
0001
0010
0000
0010
0001
0100
0000
0100
0010
1000
0000
1000
0010
0001
0000
,
0001
0000
0000
0010
0000
0000
0100
0000
0000
0000
0000
0000
0100
0000
0000
0010
0000
0000
1000
0000
0000
0000
0000
0000
1000
0000
0000
0000
0010
0000
0000
0000
1000
0000
0000
0000
0010
0000
0000
0000
0200
0000
0000
0000
0000
0000
0000
0000
,
0301
0010
0001
0000
0001
0100
0001
0000
0001
1000
0001
0000
0001
0010
0001
0000
,
1000
0010
1000
0000
1000
0100
1000
0000
1000
0001
1000
0000
1000
0010
1000
0000
,
0001
0100
0001
0000
1000
0010
1000
0000
0100
0010
0100
0000
0010
0100
0010
0000
,
0102
0000
2003
0000
3010
0010
0011
0000
,
0210
0000
0010
0000
,
2000
0300
0100
0000
,
0200
3000
0002
0000
,
0000
0300
0020
0003
,
2000
0030
0100
0000
,
0200
3000
0001
0000
,
0002
0300
2000
0000
,
0000
3003
0110
0000
,
1100
0000
0101
0000
0011
0000
0001
0010
,
1010
0000
1100
0000
0101
1000
0100
0001
,
0011
0000
1010
0000
1100
0000
1000
0100
,
0101
0000
0011
0000
1010
0001
0010
1000
,
1100
0000
0011
0000
1010
0000
0101
0100
,
1100
0000
0011
0000
0110
1000
0010
0001
,
0110
1000
0101
1000
0011
1000
0110
0001
,
0110
0000
0110
0000
1100
0000
0101
0000
1000
0100
0010
0001
0100
0010
1000
0001
,
0200
0000
0000
0000
0000
0000
0000
0000
0301
0000
0100
1000
0200
0000
0000
0000
,
0301
0000
1000
0000
0100
0001
0100
0001
0200
0000
0000
0000
0300
0000
0100
0000
,
0110
0001
0100
0001
1000
0100
1000
0010
,
0100
0000
1000
0000
0100
0000
0001
0000
1000
0000
0100
0000
0010
0100
0001
0100
,
2000
0000
0000
0000
3010
0000
0100
0000
0001
0000
1000
0100
0001
0000
0100
0000
,
1000
0000
0001
0010
1000
0000
0010
0000
0001
0000
0100
0000
0010
0000
0100
0000
,
1100
0001
0010
1000
0001
0100
1000
0001
,
0010
0100
0001
0100
1000
0100
0010
0001
,
0021
0000
0000
0000
0031
0000
1000
0000
0001
0100
0010
1000
0020
0000
2030
0000
,
3001
0000
0010
0000
0001
0000
0100
0000
0010
1000
0010
1000
0100
0010
0100
0010
,
0110
1000
0010
1000
0001
0010
0001
0100
,
0010
0000
0001
0000
0010
0000
1000
0000
0001
0000
0010
0000
0100
0010
1000
0010
,
0002
0000
0000
0000
0103
0000
0010
0000
1000
0000
0001
0000
1000
0010
0001
1000
,
0200
0000
0000
0000
1300
0100
0001
0100
1000
0000
0100
0000
0010
0000
0010
0000
,
0011
0001
0101
0100
1100
1000
1010
0010
,
0110
0100
1100
0100
0101
0100
1000
0001
,
0020
0000
0001
0000
0130
0000
1000
0000
0010
0100
0001
1000
0100
0000
0010
0000
,
0001
0010
0001
0000
1000
0100
1000
0000
0010
0100
0001
0010
0100
1000
0010
0100
,
0110
0001
0010
0100
1001
0010
0001
1000
,
0110
0001
0010
0100
1001
0010
0001
1000
,
1020
0030
1200
0300
1020
0030
1200
0300
,
0011
0000
0010
0000
1010
0000
0010
0000
0100
0010
0100
0010
0002
0000
0000
0000
,
0000
0000
0003
0000
;

//---------------dance-double - ----------------
#NOTES:
     dance-double:
     :
     Easy:
     7:
     0.356501,0.394082,0.041592,0.141412,0.000000,300.000000,295.000000,5.000000,17.000000,0.000000,0.000000,0.356501,0.394082,0.041592,0.141412,0.000000,300.000000,295.000000,5.000000,17.000000,0.000000,0.000000:
00000000
00000000
00000000
00000000
,
00000000
00000000
00000000
00000000
,
00000000
00000000
00000000
00000000
,
00000000
00000000
00000000
00000000
,
00000000
00000000
00000000
00000000
,
00011000
00000000
00000000
00000000
,
00001000
00000000
00001000
00000000
,
00000010
00000000
00000010
00000000
,
00000001
00000000
00000001
00000000
,
00000001
00000100
00001000
00000000
,
00010000
00100000
10000000
00000000
,
10000000
01000000
00010000
00000000
,
00001000
00000110
00000000
00000000
,
00000010
00000100
00000000
00000100
,
00000010
00000001
00000001
00000100
,
00001000
00010000
00000000
00010000
,
00001000
00010000
00000000
00010000
,
01000000
10000000
00010000
00000000
,
00100000
01000000
10000000
00000000
,
00010000
00010000
10000000
10000000
,
00100000
01000000
01100000
00000000
,
00001000
00010000
00010000
00010000
,
00010000
01000000
10000000
01000000
,
00010000
00100000
10000000
00100000
,
00010000
10000000
01000000
00010000
,
00000000
00001000
00001000
00001000
,
00001000
00000010
00000001
00000010
,
00001000
00000100
00000001
00000100
,
00001000
00000001
00000010
00002000
,
00013000
00020000
00031000
00002000
,
00013000
00100000
01000000
10000000
,
00010000
01000000
10000000
00100000
,
00010000
01000000
10000000
00020000
,
00031000
00002000
00013000
00020000
,
00031000
00000100
00000010
00000001
,
00001000
00000010
00000001
00000100
,
00001000
00000010
00000001
00001000
,
00000001
00000000
00000001
00000000
,
00000001
00000000
00000001
00000000
,
00001000
00001000
00001000
00001000
,
00010000
01000000
10000000
10010000
,
01000000
00010000
00001000
00010000
,
00100000
10000000
00100000
10000000
,
01000000
00100000
00010000
00001000
,
00000100
00000010
00000002
00000000
,
00000103
00001000
00010000
00001000
,
00000010
00000001
00000010
00000001
,
00000100
00000010
00001000
00010000
,
02000000
03100000
10000000
10000000
,
00100000
01000000
01000000
00100000
,
00010000
00001000
00001000
00010000
,
00000100
00000010
00000010
00000001
,
00001000
00000100
00000002
00000000
,
00000103
00000010
00000010
00000100
,
00001000
00010000
00010000
00001000
,
00100000
01000000
01000000
10000000
,
00010000
00100000
20000000
30000000
,
00020000
00000000
00030000
00000000
,
00020000
00000000
00030000
00000000
,
00001000
00000000
00002000
00000000
,
00003000
00000000
00001000
00000000
,
00000002
00000000
00000003
00000000
,
00000002
00000000
00000003
00000000
,
00000010
00000000
00000020
00000000
,
00000030
00000000
00000100
00000000
,
00000010
00000001
00000010
00000000
,
00001000
00000010
00001000
00000000
,
00010000
00001000
00010000
00000000
,
01000000
00010000
01000000
00000000
,
10000000
00100000
10000000
00100000
,
01000000
00001000
01000000
00001000
,
00010000
00000100
00010000
00000100
,
00000010
00000001
00000010
00000001
,
00000200
00000000
00000300
00000000
,
00000000
00000000
00000000
00000000
,
00001000
00000001
00000100
00000010
,
00000001
00001000
00000100
00010000
,
01000000
01000000
00100000
00100000
,
10000000
10000000
01000000
01000000
,
00010000
10000000
00100000
01000000
,
10000000
00010000
00100000
00001000
,
00000010
00000010
00000100
00000010
,
00001000
00000100
00000001
00000001
,
00000010
00001000
00010000
00001000
,
10000000
00010000
01000000
00100000
,
01000000
01000000
10000000
00100000
,
00010000
00010000
00001000
00010000
,
00001000
00000001
00001000
00000001
,
00000010
00000100
00000010
00000100
,
00010000
00001000
01000000
00010000
,
00100000
00100000
00100000
01000000
,
10000000
00000000
10000000
00000000
,
10000000
00000000
10000000
00000000
,
00010000
00010000
00010000
00010000
,
00001000
00000100
00000001
00001001
;

//---------------dance-double - ----------------
#NOTES:
     dance-double:
     :
     Medium:
     11:
     0.455133,0.630532,0.366008,0.124775,0.000000,383.000000,339.000000,44.000000,15.000000,0.000000,0.000000,0.455133,0.630532,0.366008,0.124775,0.000000,383.000000,339.000000,44.000000,15.000000,0.000000,0.000000:
00000000
00000000
00000000
00000000
,
00000000
00000000
00000000
00000000
,
00000000
00000000
00000000
00000000
,
00000000
00000000
00000000
00000000
,
00000000
00000000
00000000
00000000
,
20020000
00000000
30030000
00000000
,
01000000
00000000
00010000
00000000
,
00000010
00000000
00000001
00000000
,
00000100
00000000
00001000
00000000
,
00100000
00010000
01000000
10000000
,
00100000
00010000
00000100
00001000
,
00000010
00000001
00000100
00001000
,
00100000
10010000
00000000
00000000
,
00100000
00000000
00010000
00000000
00000000
00100000
00001000
00000000
,
01000000
00000000
00010000
00000000
10000000
00100000
01000000
00000000
,
00010000
00000000
10000000
00000000
00001000
00010000
00010000
00000000
,
00000001
00000000
00001000
00000000
00000001
00000010
00000100
00000000
,
00000100
00000000
00001000
00000000
00000000
00000100
00010000
00000000
,
00000010
00000000
00001000
00000000
00000001
00000100
00000010
00000000
,
00001000
00001100
00010000
01010000
,
00100000
01000000
00100000
00000000
11000000
00000000
00000000
00000000
,
10010000
00100000
10010000
01000000
,
10000000
00100000
00010000
01000000
,
00010000
00000000
00001000
00000000
00001000
00010000
01000000
00000000
,
10000000
00000000
00100000
00000000
00100000
00010000
00001000
00000000
,
00011000
00100000
00011000
00000100
,
00001000
00000010
00000001
00000100
,
00001000
00000000
00000001
00000000
00001000
00000001
00000010
00000000
,
00000100
00000010
00000100
00000010
00000100
00000010
00000100
00000000
,
00001001
00000100
00001001
00000010
,
00000001
00000100
00001000
00000010
,
00001000
00000000
00010000
00000000
00010000
00001000
00000010
00000000
,
00000001
00000000
00000100
00000000
00000100
00001000
00010000
00000000
,
00011000
00000100
00011000
00100000
,
00010000
01000000
10000000
00100000
,
00010000
00000000
10000000
00000000
00010000
10000000
01000000
00000000
,
00100000
01000000
00100000
01000000
00100000
01000000
00100000
00010000
,
10010000
00000000
01100000
00000000
,
00011000
00000000
00000110
00000000
,
00001001
00001001
00011000
00011000
,
00010000
00100000
01000000
10010000
,
00010000
00100000
01000000
10000000
,
01000000
10000000
01000000
10000000
,
00100000
00010000
00100000
00010000
,
00001000
00000010
00000200
00000000
,
00001300
00000100
00000010
00000001
,
00000010
00000001
00000010
00000001
,
00000100
00001000
00000100
00001000
,
00010000
01000000
02000000
03100000
,
10000000
00100000
00010000
01000000
,
10000000
00010000
00001000
00010000
,
00000010
00001000
00000100
00000010
,
00000001
00000100
00002000
00003000
,
00000001
00000100
00001000
00000010
,
00000001
00001000
00010000
00001000
,
01000000
00010000
00100000
01000000
,
10000000
00000000
00100000
00000000
00010000
00001000
00010000
00001000
,
00020000
00000000
00031000
00000000
,
00002000
00000000
00013000
00000000
,
00000200
00000000
00000020
00000000
,
00000330
00000000
00000001
00000000
,
00002000
00000000
00003001
00000000
,
00000002
00000000
00001003
00000000
,
00020000
00000000
20000000
00000000
,
30030000
00000000
00100000
00000000
,
01100000
11000000
01100000
00010000
,
00101000
00110000
00101000
00010000
,
00010100
00001100
00010100
00001000
,
00000110
00000011
00000110
00001000
,
00000100
00000001
00000010
00001000
,
01000000
00010000
00100000
10000000
,
01000000
00100000
01000000
00000000
00001000
00010000
00001000
00000000
,
00000100
00000010
00000100
00000010
00000100
00000010
00000100
00000010
,
00002002
00000000
00003003
00000000
,
00000000
00000000
00000000
00000000
,
00001000
00000001
00000010
00000100
,
00000001
00001000
00000100
00000010
,
00010000
00010000
00001000
00001000
,
01000000
01000000
00010000
00100000
,
10000000
00010000
00100000
01000000
,
00010000
10000000
01000000
00100000
,
00001000
00010000
00001000
00000001
,
00000100
00001000
00000010
00000100
,
00001000
00000001
00000100
00000010
,
00000001
00001000
00000010
00000100
,
00010000
00010000
00001000
00001000
,
00100000
00100000
00010000
01000000
,
10000000
00010000
01000000
00100000
,
00010000
10000000
00100000
01000000
,
00001000
00010000
00001000
00000001
,
00000010
00001000
00000100
00000010
,
00001001
00000000
00000110
00000000
,
00011000
00000000
01100000
00000000
,
10010000
10010000
00011000
00011000
,
00001000
00000100
00000010
00001001
;

//---------------dance-double - ----------------
#NOTES:
     dance-double:
     :
     Hard:
     14:
     0.660715,0.748756,0.241232,0.249551,0.183004,556.000000,527.000000,29.000000,30.000000,0.000000,0.000000,0.660715,0.748756,0.241232,0.249551,0.183004,556.000000,527.000000,29.000000,30.000000,0.000000,0.000000:
00000000
00000000
00000000
00000000
,
00000000
00000000
00000000
00000000
,
00000000
00000000
00000000
00000000
,
00000000
00000000
00000000
00000000
,
00000000
00000000
00000000
00000000
,
00002002
00000000
00003003
00000000
,
00000001
00000010
00001000
00000000
,
00001000
00010000
01000000
00000000
,
01000000
10000000
00100000
00000000
,
00010000
00000000
00001000
00000000
00000100
00000000
00000001
00000010
,
00000001
00000000
00000100
00000000
00001000
00000000
00010000
00100000
,
00010000
00000000
01000000
00000000
10000000
00000000
00100000
00010000
,
00100000
00011000
00000000
00001000
,
00011000
00000000
00000100
00000000
00001000
00000100
00000001
00000000
,
00000100
00000010
00000001
00000100
00000010
00001000
00010000
00010000
,
00002000
00000000
00000000
00000000
00013000
00000000
00000000
00010000
01000000
00000000
00100000
00000000
10000000
00000000
01000000
00000000
,
00200000
00000000
00000000
00000000
00310000
00000000
00000000
00010000
00001000
00000000
00000100
00000000
00000010
00000000
00000001
00000000
,
00000010
00000000
00000100
00000000
00001000
00000010
00000001
00000000
,
00001000
00000100
00000001
00000010
00001000
00010000
01000000
10000000
,
00010000
01010000
10000000
10100000
,
00100000
00010000
00001000
00000000
00022000
00000000
00033000
00000000
,
00010000
00001000
00000010
00000010
00000001
00000001
00000100
00000100
,
00001000
00010000
00000010
00000100
00001000
00010000
00100000
01000000
,
10000000
01000000
00010000
01000000
00100000
00010000
00001000
00000100
,
00000010
00001000
00000100
00000010
00000001
00001000
00000100
00000001
,
00000000
00000100
00001000
00001000
00000010
00000010
00000001
00000001
,
00000100
00001000
00010000
00100000
10000000
00100000
01000000
00010000
,
10000000
00010000
10000000
01000000
00100000
00010000
00100000
00001000
,
00010000
00010000
00001000
00001000
00000100
00000010
00000001
00000100
,
00001000
00010000
01000000
01000000
10000000
10000000
00100000
00100000
,
00010000
00001000
01000000
00100000
00010000
00001000
00000100
00000010
,
00000001
00000010
00001000
00000010
00000100
00001000
00010000
00100000
,
01000000
00010000
00100000
01000000
10000000
00010000
00100000
10000000
,
00000000
00100000
00010000
00010000
01000000
01000000
10000000
10000000
,
00100000
00010000
00001000
00000100
00000001
00000100
00000010
00001000
,
00000001
00001000
00000001
00000010
00000100
00001000
00000100
00010000
,
00001000
00001000
00010000
00010000
00100000
01000000
10000000
00100000
,
11000000
00000000
00110000
00000000
,
00001100
00000000
00000011
00000000
,
00000101
00001010
00011000
00110000
,
10000000
01000000
00100000
00010000
00001000
00000100
00000110
00000000
,
00000010
00000000
00000000
00000010
00000001
00000000
00000000
00000001
00000100
00000000
00000000
00000100
00000001
00000000
00000000
00000001
,
00000100
00000000
00000000
00000100
00001000
00000000
00000000
00001000
00000100
00000000
00000000
00000100
00000001
00000000
00000000
00000001
,
00001000
00000000
00000000
00001000
00000100
00000000
00000000
00000100
00010000
00000000
00000000
00010000
00001000
00000000
00000000
00001000
,
00100000
00000000
00000000
00100000
00010000
00000000
00000000
00010000
10000000
00000000
00100000
00000000
00200000
00000000
00000000
00000000
,
01300000
00000000
00000000
01000000
10000000
00000000
00000000
10000000
00100000
00000000
00000000
00100000
10000000
00000000
00000000
10000000
,
00100000
00000000
00000000
00100000
00010000
00000000
00000000
00010000
00100000
00000000
00000000
00100000
10000000
00000000
00000000
10000000
,
00010000
00000000
00000000
00010000
00100000
00000000
00000000
00100000
00001000
00000000
00000000
00001000
00010000
00000000
00000000
00010000
,
00000100
00000000
00000000
00000100
00001000
00000000
00000000
00001000
00000001
00000000
00000100
00000000
00000002
00000000
00000000
00000000
,
00000013
00000000
00000000
00000100
00001000
00000000
00000001
00000000
00000100
00000000
00000000
00001000
00010000
00000000
01000000
00000000
,
10000000
00000000
00000000
00100000
01000000
00000000
00010000
00000000
10000000
00000000
00000000
01000000
00100000
00000000
00010000
00000000
,
10000000
00100000
01000000
10000000
01000000
00100000
10000000
01000000
,
00100000
00000000
00010000
00000000
01000000
00000000
00001000
00000000
00100000
00010000
00100000
00010000
00200000
00000000
00000000
00000000
,
01300000
00000000
00000000
00100000
00010000
00000000
10000000
00000000
00100000
00000000
00000000
00010000
00001000
00000000
00000010
00000000
,
00000001
00000000
00000000
00000100
00000010
00000000
00001000
00000000
00000001
00000000
00000000
00000010
00000100
00000000
00001000
00000000
,
00000001
00000100
00000010
00000001
00000010
00000100
00000001
00000010
,
00000100
00001000
00000010
00010000
00000100
00001000
00000001
00000000
,
00001002
00000000
00001000
00000000
,
00002003
00000000
00000001
00000000
,
00003020
00000000
00020030
00000000
,
00000000
00000000
00032000
00000000
,
00023000
00000000
00001000
00000000
,
00032000
00000000
00100000
00000000
,
00203000
00000000
02000000
00000000
,
03300000
00000000
02000000
00000000
,
13000000
00000000
00010000
00000000
10000000
00000000
00010000
00100000
,
00010000
00000000
01000000
00000000
00001000
00010000
00000010
00001000
,
00000001
00000000
00001000
00000000
00000001
00000000
00001000
00000100
,
00001000
00000000
00000010
00000000
00010000
00001000
01000000
00010000
,
10000000
00000000
10000000
00000000
00010000
00000000
00010000
01000000
,
00100000
00000000
00100000
00000000
00010000
00001000
00010000
00001000
,
00000100
00000001
00000100
00000001
00001000
00000010
00001000
00000010
,
00000100
00000001
00000010
00000100
00010000
01000000
10000000
00100000
,
02000000
00000000
03000000
00000000
,
00000000
00000000
00000000
00000000
00000000
00000000
00000000
00100000
,
10010000
00000000
01000000
00000000
10000000
01000000
00100000
00000000
,
00001000
00000000
00000100
00000000
00000001
00000010
00000001
00000200
,
00001000
00000300
00010000
02000000
10000000
03000000
10000000
00200000
,
00010000
00300000
00001000
00000020
00000001
00000031
00000100
00000010
,
00001000
00000000
00000001
00000000
00000001
00000100
00000010
00000000
,
00010000
00000000
00000100
00000000
00000010
00001000
00010000
00100000
,
20000000
00000000
00000000
00000000
30010000
00000000
01000000
00000000
00001000
00010000
00001000
00010000
00001000
00000000
00000010
00000000
,
00000100
00001000
00000010
00000100
00000001
00000010
00000100
00001000
,
00001001
00000000
00000010
00000000
00000001
00000010
00000100
00000000
,
00010000
00000000
00100000
00000000
10000000
01000000
10000000
00200000
,
00010000
00300000
00001000
00000020
00000001
00000030
00000001
00000200
,
00001000
00000300
00010000
02000000
10000000
13000000
00100000
01000000
,
00010000
00000000
10000000
00000000
10000000
00100000
01000000
00000000
,
00001000
00000000
00100000
00000000
01000000
00010000
00001000
00000100
,
00000002
00000000
00000000
00000000
00001003
00000000
00000010
00000000
00010000
00001000
00010000
00001000
00010000
00000000
01000000
00000000
,
00100000
00010000
01000000
00100000
10000000
01000000
00100000
00010000
,
11000000
00000000
00110000
00000000
,
00001100
00000000
00000011
00000000
,
00000101
00001010
00011000
00110000
,
10000000
01000000
00100000
00010000
00011000
00001100
00000110
00000000
;

//---------------dance-double - ----------------
#NOTES:
     dance-double:
     :
     Challenge:
     18:
     0.966118,1.151885,0.607240,0.440873,0.524057,813.000000,740.000000,73.000000,53.000000,0.000000,0.000000,0.966118,1.151885,0.607240,0.440873,0.524057,813.000000,740.000000,73.000000,53.000000,0.000000,0.000000:
00000000
00000000
00000000
00000000
,
00000000
00000000
00000000
00000000
,
00000000
00000000
00000000
00000000
,
00001000
00000000
00001000
00000000
,
00001000
00000000
00001000
00000000
00001000
00000000
00001000
00000100
,
00000011
00000001
00001100
00000100
,
00011000
00001000
01010000
00010000
,
00110000
10000000
11000000
00010000
,
01001000
00010000
00010100
00001000
,
00000110
00000000
00000001
00000000
00000100
00000000
00000010
00000000
00001000
00000000
00000100
00000000
00010000
00000000
00001000
00100000
,
00010000
00000000
01000000
00000000
00100000
00000000
10000000
00000000
01000000
00000000
00010000
00000000
00100000
00000000
00001000
00010000
,
00000100
00000000
00000010
00000000
00000001
00000000
00000100
00000000
00001000
00000000
00000010
00000000
00000001
00000000
00000100
00001000
,
00010000
00000000
00000000
00000000
00021000
00000000
00000000
00000000
00031000
00000000
00010000
01000000
10000000
00000000
00000000
00000000
,
01100000
10000000
00100000
00010000
01000000
10000000
00100000
01000000
,
00010000
00100000
00010000
00100000
00001000
00010000
00001000
00010000
00000100
00001000
00000100
00001000
00000001
00000010
00000001
00000000
,
00000100
00000000
00000100
00000010
00001000
00000000
00000200
00000000
00000010
00000000
00000310
00000000
00000001
00000000
00000100
00000000
,
00001000
00000000
00001000
00010000
01000000
00000000
20000000
00000000
00100000
00000000
30100000
00000000
01000000
00000000
00010000
00000000
,
10100000
00010000
01000000
00001000
00000100
00000001
00001000
00000010
,
00010000
00000100
00010000
00000100
00001000
00000010
00001000
00000010
00010000
00001000
00010000
00001000
00100000
00010000
00100000
00010000
,
01000000
10000000
01010000
00001000
00010000
00000100
00001100
00000001
,
00000010
00000000
00000100
00000010
00000001
00000000
00001000
00000000
00002010
00000000
00000000
00000000
00003200
00000000
00000000
00000000
,
00000320
00000000
00000031
00000100
00000010
00000000
00000010
00000000
00000010
00000000
00001000
00000000
00000010
00000000
00000010
00000000
,
00000001
00000100
00001000
00010000
01000000
10000000
00010000
01000000
,
20000000
01000000
31000000
00020000
00100000
00130000
00001000
01000000
,
00200000
10000000
10300000
02000000
00010000
03010000
00001000
01000000
,
00001000
00000000
00010000
00001000
00100000
00000000
00001000
00010000
00000010
00000000
00010000
00001000
01000000
00000000
00001000
00010000
,
00000100
00001000
00000001
00000010
00000100
00001000
00000010
00001000
,
00020000
01000000
01030000
00200000
10000000
10300000
01000000
00010000
,
00002000
00003200
00002300
00023000
02030000
23000000
30020000
02030000
,
03200000
00000000
10300000
01000000
00100000
00000000
00100000
00000000
00100000
00000000
00010000
00000000
00100000
00000000
00100000
00000000
,
10000000
01000000
00010000
00001000
00000100
00000001
00001000
00000100
,
00000002
00000100
00000103
00002000
00000010
00003010
00010000
00000100
,
00000020
00000001
00000031
00000200
00001000
00001300
00010000
00010000
,
00000100
00010000
00001000
00010000
00000010
00000000
00010000
00001000
00100000
00000000
00001000
00010000
00000100
00000000
00010000
00001000
,
01000000
00010000
10000000
00100000
01000000
00010000
00100000
00010000
,
00002000
00000100
00003100
00000020
00000001
00000031
00000100
00001000
,
00010000
00100000
00010000
00001000
00000010
00000001
00000100
00000010
,
00000101
00001000
00010000
01000000
11000000
00010000
00001000
00000010
,
00000011
00001000
00010000
00100000
10100000
00010000
00001000
00000100
,
00001001
00011000
10010000
00011000
,
00000011
00000000
00000011
00000000
00000101
00000000
00000101
00000000
00000010
00001000
00000010
00001000
00020000
00000000
00030000
00000000
,
01000000
10000000
01000000
00000000
00010000
00100000
00010000
00000000
10000000
00100000
10000000
00000000
01000000
00010000
01000000
00000000
,
00010000
00001000
00010000
00000000
00001000
00010000
00001000
00000000
00010000
00000100
00010000
00000000
00000010
00001000
00000010
00000000
,
00000100
00000010
00000100
00000000
00000001
00000010
00000001
00000000
00000100
00000010
00000100
00000000
00000010
00001000
00000010
00000000
,
00010000
00000000
00000000
00001000
00000000
00000000
00010000
00000000
00000000
00000000
00000000
00000000
00001000
00000000
00000000
00100000
00000000
00000000
00001000
00000000
00000000
00000000
00000000
00000000
00100000
00000000
00000000
00000000
00010000
00000000
00000000
00000000
00010000
00000000
00000000
00000000
01000000
00000000
00000000
00000000
00200000
00000000
00000000
00000000
00000000
00000000
00000000
00000000
,
10300000
01000000
00010000
00000000
00010000
01000000
10000000
00000000
10000000
00100000
00010000
00000000
00010000
00100000
10000000
00000000
,
10000000
01000000
00100000
00000000
00100000
00010000
01000000
00000000
01000000
00001000
00010000
00000000
00010000
00001000
00100000
00000000
,
00100000
00010000
00001000
00000000
00001000
00000100
00000010
00000000
00000010
00000001
00000100
00000000
00000100
00000010
00001000
00000000
,
00002010
00000000
00003002
00000000
00000103
00000100
00001100
00000000
,
00000010
00000001
00000010
00000000
00001000
00000100
00001000
00000000
00000001
00000100
00000001
00000000
00000010
00001000
00000010
00000000
,
00001000
00010000
00001000
00000000
00010000
00001000
00010000
00000000
00001000
00100000
00001000
00000000
01000000
00010000
01000000
00000000
,
00100000
01000000
00100000
00000000
10000000
01000000
10000000
00000000
00100000
01000000
00100000
00000000
01000000
00010000
01000000
00000000
,
00001000
00000000
00000000
00010000
00000000
00000000
00001000
00000000
00000000
00000000
00000000
00000000
00010000
00000000
00000000
00000100
00000000
00000000
00010000
00000000
00000000
00000000
00000000
00000000
00000100
00000000
00000000
00000000
00001000
00000000
00000000
00000000
00001000
00000000
00000000
00000000
00000010
00000000
00000000
00000000
00000200
00000000
00000000
00000000
00000000
00000000
00000000
00000000
,
00000301
00000010
00001000
00000000
00001000
00000010
00000001
00000000
00000001
00000100
00001000
00000000
00001000
00000100
00000001
00000000
,
00000001
00000010
00000100
00000000
00000100
00001000
00000010
00000000
00000010
00010000
00001000
00000000
00001000
00010000
00000100
00000000
,
00000100
00001000
00010000
00000000
00010000
00100000
01000000
00000000
01000000
10000000
00100000
00000000
00100000
01000000
00010000
00000000
,
01020000
00000000
20030000
00000000
30100000
00100000
00110000
00000000
,
00012000
00000000
00010000
00000000
,
00020000
00003000
00000100
00000000
,
00000200
00030000
00000020
00000000
,
00000000
00000300
00000002
00000030
,
00002000
00000003
00010000
00000000
,
00020000
00003000
10000000
00000000
,
02000000
00030000
00200000
00000000
,
03300000
00000000
01100000
00000000
,
01010000
00000000
11000000
00000000
10100000
00000000
10000000
00100000
,
00110000
00000000
00011000
00000000
00001010
00010000
00001000
00000010
,
00000011
00000000
00000101
00000000
00001100
00000000
00000100
00001000
,
00011000
00000000
01010000
00000000
11000000
00010000
01000000
10000000
,
10100000
00010000
00001000
00000100
00001100
00001000
00010000
01000000
,
01010000
00010000
00001000
00000010
00001010
00001000
00001000
00000100
,
00000101
00000001
00000011
00000001
00001001
00001000
00001100
00000100
,
00011000
00000000
00001100
00000000
00011000
00000000
00110000
00000000
10000000
00100000
01000000
00001000
00010000
00000100
00000010
00000001
,
00000200
00000000
00000000
00000000
00000000
00000000
00000000
00000000
00000301
00000000
00000100
00001000
00000200
00000000
00000000
00000000
,
00001300
00000000
00010000
00000000
01000000
00010000
01000000
00010000
02000000
00000000
00000000
00000000
03000000
00000000
01000000
00000000
,
01100000
00010000
10000000
00100000
00010000
00000010
00001000
00000001
,
00000010
00000000
00000100
00000000
00001000
00000000
00000001
00000000
00000100
00000000
00000010
00000000
00010000
00001000
00000100
00001000
,
00020000
00000000
00000000
00000000
00130000
00000000
00010000
00000000
00001000
00010000
01000000
00010000
00001000
00000000
00010000
00000000
,
00001000
00010000
00100000
00010000
00001000
00000000
00010000
00000000
01000000
00000000
10000000
00000000
00100000
00000000
00010000
00000000
,
00011000
00001000
00000010
00000001
00000100
00001000
00010000
01000000
,
10000000
00100000
01000000
00100000
10000000
00010000
01000000
00001000
,
00000200
00000000
00000000
00000000
00000310
00000000
00000010
00000000
00000100
00000001
00000100
00001000
00010000
00000000
00100000
00000000
,
01000000
00000000
00010000
00000000
10000000
00000000
01000000
00000000
00100000
00001000
00010000
00000100
00001000
00000010
00000100
00000001
,
00000110
00001000
00000001
00000100
00001000
01000000
00010000
10000000
,
01000000
00000000
00100000
00000000
00010000
00000000
10000000
00000000
00100000
00000000
01000000
00000000
00001000
00010000
00100000
00010000
,
00002000
00000000
00000000
00000000
00003100
00000000
00001000
00000000
00020000
00000000
00000000
00000000
00031000
00000010
00001000
00010000
,
00002000
00000000
00000000
00000000
00003100
00001000
00010000
00001000
00000010
00000000
00000001
00000000
00000100
00000000
00001000
00000000
,
00011000
00010000
01000000
10000000
00100000
00010000
00001000
00000010
,
00000001
00000100
00000010
00000100
00000001
00001000
00000010
00010000
,
00200000
00000000
00000000
00000000
01300000
00000000
01000000
00000000
00100000
10000000
00100000
00010000
00001000
00000000
00000100
00000000
,
00000010
00000000
00001000
00000000
00000001
00000000
00000010
00000000
00000100
00010000
00001000
00100000
00010000
01000000
00100000
10000000
,
10100000
00010000
00001000
00000010
00000011
00001000
00010000
01000000
,
11000000
00010000
00001000
00000100
00000101
00001000
00010000
00100000
,
10010000
00011000
00001001
00011000
,
11000000
00000000
11000000
00000000
10100000
00000000
10100000
00000000
01000000
00010000
01000000
00010000
00002000
00000000
00000000
00000000
,
00000000
00000000
00003000
00000000
;
