#TITLE:INFERNO;
#SUBTITLE:;
#ARTIST:Sub Urban & Bella Poarch;
#TITLETRANSLIT:;
#SUBTITLETRANSLIT:;
#ARTISTTRANSLIT:;
#GENRE:Popular Songs;
#CREDIT:;
#BANNER:INFERNO.png;
#BACKGROUND:INFERNO-bg.png;
#LYRICSPATH:;
#CDTITLE:../cdtitle.png;
#MUSIC:INFERNO.ogg;
#OFFSET:0.857000;
#SAMPLESTART:41.799000;
#SAMPLELENGTH:15.000000;
#SELECTABLE:YES;
#BPMS:0.000000=128.000000
;
#STOPS:
;
#BGCHANGES:4.000=INFERNO.avi=1.000=0=0=0=StretchNoLoop====,
99999=-nosongbg-=1.000=0=0=0 // don't automatically add -songbackground-
;
#KEYSOUNDS:;
#ATTACKS:;

//---------------dance-single - ----------------
#NOTES:
     dance-single:
     :
     Hard:
     10:
     0.388968,0.420255,0.266359,0.118382,0.003699,368.000000,332.000000,36.000000,16.000000,0.000000,0.000000,0.388968,0.420255,0.266359,0.118382,0.003699,368.000000,332.000000,36.000000,16.000000,0.000000,0.000000:
0000
0000
0000
0000
,
0000
0000
0000
0000
,
0000
0000
0000
0000
,
0000
0000
0000
0000
,
0000
0000
0000
0000
,
0010
0000
0001
1000
0100
0000
1000
0001
,
0100
0000
0001
1000
0100
0000
0010
0000
,
1001
0000
0101
0000
,
1000
0010
0100
0010
1000
0100
0010
0100
,
1000
0001
0101
0000
,
0001
0010
0100
1000
0100
0000
1000
0000
,
1001
0000
1010
0000
,
0001
0100
0010
0100
0001
0010
0100
0010
,
0001
1000
1010
0010
,
0001
0101
0100
1000
,
0001
0010
0100
0010
1000
0010
0002
0000
,
0003
0000
1000
0100
0001
0100
1000
0000
,
1000
0100
0000
0000
0010
0000
0001
0000
1000
0000
0100
0000
1000
0000
0000
0000
,
0000
0000
0100
1000
0001
0000
0000
0000
,
1000
0010
0100
0010
0001
0010
2000
0000
,
3000
0000
0001
0100
1000
0100
0001
0000
,
0001
0100
0001
0100
0010
1000
0001
0010
,
0100
0010
0100
1000
0002
0000
0103
0000
,
1001
0000
1010
0000
,
0001
0100
0010
0100
0001
0010
0100
0010
,
0001
1000
1010
0000
,
1000
0100
0010
0001
0010
0000
0001
0000
,
1001
0000
0101
0000
,
1000
0010
0100
0010
1000
0100
0010
0100
,
1000
0001
0101
0100
,
1000
1010
0010
0001
,
1001
0000
0000
0001
0100
0001
0100
0000
,
0000
0010
1000
0100
1000
0010
1000
0000
,
0001
0010
1100
0000
,
0001
0100
0010
1000
0100
0000
1000
0000
,
1001
0000
0000
0001
0010
0001
0010
0000
,
0000
0100
1000
0010
1000
0100
1000
0000
,
0001
1000
1100
0100
,
0001
0011
0010
1000
,
0001
0100
0010
0100
1000
0100
0002
0000
,
0003
0000
1000
0010
0001
0010
1000
0000
,
1000
0010
0100
0001
1000
0010
1000
0100
,
0010
0100
1001
0000
,
1000
0100
0010
0100
0001
0100
2000
0000
,
3000
0000
0001
0010
1000
0010
0001
0000
,
0001
0010
0001
0010
0100
1000
0001
0100
,
0010
0100
0010
1000
0002
0000
0013
0000
,
1001
0000
1100
0000
,
0001
0010
0100
0010
0001
0100
0010
0100
,
0001
1000
1100
0000
,
1000
0010
0100
0001
0100
0000
0001
0000
,
1001
0000
0011
0000
,
1000
0100
0010
0100
1000
0010
0100
0010
,
1000
0001
0011
0010
,
1000
1100
0100
0001
,
2001
3100
0002
0103
,
2000
3010
0002
0013
,
2000
3100
2000
3010
,
0100
0001
1000
0100
0010
0000
0001
0000
,
1002
0013
2000
3010
,
0002
0103
2000
3100
,
0001
1000
1100
0100
,
0001
0011
0010
1000
,
1001
0000
0000
1000
0100
1000
0100
0000
,
0000
0010
0001
0100
0001
0010
0001
0000
,
1000
0010
0101
0000
,
1000
0100
0010
0001
0100
0000
0001
0000
,
1001
0000
0000
1000
0010
1000
0010
0000
,
0000
0100
0001
0010
0001
0100
0001
0000
,
1000
0001
0101
0100
,
1000
1010
0010
0001
,
1000
0000
0000
0000
;

//---------------dance-single - ----------------
#NOTES:
     dance-single:
     :
     Challenge:
     11:
     0.378399,0.420255,0.266359,0.155376,0.003699,358.000000,322.000000,36.000000,21.000000,124.000000,0.000000,0.378399,0.420255,0.266359,0.155376,0.003699,358.000000,322.000000,36.000000,21.000000,124.000000,0.000000:
0000
0000
0000
0000
,
0000
0000
0000
0000
,
0000
0000
0000
0000
,
0000
0000
0000
0000
,
0000
0000
0000
0000
,
0001
0000
1000
0100
0010
0000
0001
0100
,
0010
0000
1000
0100
0010
0000
0001
0000
,
1001
MMMM
0110
MMMM
,
1000
0100
1000
0001
1000
0100
0010
0001
,
0100
0001
1100
MMMM
,
0010
1000
0010
0100
0001
0000
0010
0000
,
0110
MMMM
1001
MMMM
,
0100
0001
0100
0010
0100
0001
1000
0010
,
0001
0010
0101
0100
,
0001
1100
1000
0010
,
1000
0001
0100
0001
0100
0001
0020
0000
,
0030
0000
0100
0010
0001
0010
MMMM
0000
,
1000
0100
0000
0000
1000
0000
0001
0000
0010
0000
0100
0000
2000
0000
0000
0000
,
3000
0000
0010
0010
0010
0000
MMMM
0000
,
0001
0010
0100
0010
0100
1000
0020
0000
,
0030
0000
1000
0100
0010
0001
MMMM
0000
,
0001
0010
0001
0010
0100
1000
0010
0100
,
0001
0010
1000
0010
0200
0000
0310
0000
,
1001
MMMM
0110
MMMM
,
1000
0010
1000
0001
1000
0010
0100
0001
,
0010
0001
1010
MMMM
,
0100
1000
0100
0010
0001
0000
0100
0000
,
0110
MMMM
1001
MMMM
,
0010
0001
0010
0100
0010
0001
1000
0100
,
0001
0100
0011
0010
,
0001
1010
1000
0100
,
MMMM
0000
0000
1000
0010
1000
0010
0000
,
MMMM
0001
0010
0100
1000
0100
0010
0000
,
0001
0100
0220
0330
,
0010
0100
0001
1000
0100
0000
0010
0000
,
MMMM
0000
0000
0001
0100
0001
0100
0000
,
MMMM
1000
0100
0010
0001
0010
0100
0000
,
1000
0010
0011
0001
,
0100
1100
0100
0010
,
0001
1000
0010
1000
0010
1000
0200
0000
,
0300
0000
0010
0100
1000
0100
MMMM
0000
,
0001
0010
0001
1000
0100
0010
0001
0100
,
0010
0100
0110
MMMM
,
1000
0100
0010
0100
0010
0001
0200
0000
,
0300
0000
0001
0010
0100
1000
MMMM
0000
,
1000
0100
1000
0100
0010
0001
0100
0010
,
1000
0100
0001
0100
0020
0000
0130
0000
,
1001
MMMM
0110
MMMM
,
0001
0100
0001
1000
0001
0100
0010
1000
,
0100
1000
0101
MMMM
,
0010
0001
0010
0100
1000
0000
0010
0000
,
0110
MMMM
1001
MMMM
,
0100
1000
0100
0010
0100
1000
0001
0010
,
1000
0010
1100
0100
,
1000
0101
0001
0010
,
0012
0010
0203
0310
,
0102
0100
0023
0130
,
2100
3010
1002
0103
,
0010
1000
0100
0010
0001
0000
MMMM
0000
,
2100
0100
3020
0130
,
2010
0010
3200
0310
,
0001
0010
0101
0100
,
0001
1100
1000
0010
,
MMMM
0000
0000
0001
0100
0001
0100
0000
,
MMMM
1000
0100
0010
0001
0010
0100
0000
,
1000
0010
0220
0330
,
0100
0010
1000
0001
0010
0000
0100
0000
,
MMMM
0000
0000
1000
0010
1000
0010
0000
,
MMMM
0001
0010
0100
1000
0100
0010
0000
,
0001
0100
1100
1000
,
0010
0011
0010
0100
,
MMMM
0000
0000
0000
;

//---------------dance-single - ----------------
#NOTES:
     dance-single:
     :
     Medium:
     7:
     0.295954,0.315191,0.236763,0.162775,0.000000,280.000000,248.000000,32.000000,22.000000,0.000000,0.000000,0.295954,0.315191,0.236763,0.162775,0.000000,280.000000,248.000000,32.000000,22.000000,0.000000,0.000000:
0000
0000
0000
0000
,
0000
0000
0000
0000
,
0000
0000
0000
0000
,
0000
0000
0000
0000
,
0000
0000
0000
0000
,
0000
0001
0000
0001
,
0000
1000
0100
1000
,
0010
0000
0110
0000
,
0001
0100
0001
0000
1000
0000
0010
0000
,
0100
0100
1001
0000
,
0001
0010
0100
0000
0100
0000
1000
0000
,
0010
0000
0110
0000
,
1000
0100
1000
0000
0010
0000
0100
0000
,
0001
1000
1100
1000
,
0001
0101
0100
0010
,
1000
0100
1000
0000
0100
0000
0020
0000
,
0030
0001
1000
0000
,
1000
0000
1000
0000
0010
1000
0200
0000
,
0300
1000
0001
0000
,
0001
0100
0001
0000
0010
0000
0200
0000
,
0300
1000
0001
0000
,
1000
0100
1000
0000
0001
0100
0001
0000
,
0100
0010
0100
0000
0020
0000
0030
0000
,
0100
0000
0110
0000
,
0001
0010
0001
0000
1000
0000
0100
0000
,
0010
0010
1001
0000
,
0001
0100
0010
0000
0010
0000
1000
0000
,
0100
0000
0110
0000
,
1000
0010
1000
0000
0100
0000
0010
0000
,
0001
1000
1010
1000
,
0001
0011
0010
0100
,
1001
0000
0000
0000
1000
0010
1000
0000
,
0000
0001
0010
0000
0100
0000
1000
0000
,
0010
0010
2002
3003
,
0001
0100
0010
0000
1000
0000
0001
0000
,
1001
0000
0000
0000
0001
0100
0001
0000
,
0000
1000
0100
0000
0010
0000
0001
0000
,
0100
0100
1100
0010
,
0010
0011
1000
1000
,
0001
0100
0001
0000
0100
0000
0020
0000
,
0030
1000
0001
0000
,
0001
0100
0001
0000
0010
0100
0010
0000
,
0001
1000
1001
0000
,
1000
0100
1000
0000
0010
0000
0200
0000
,
0300
0001
1000
0000
,
0001
0100
0001
0000
1000
0100
1000
0000
,
0100
0010
0100
0000
0020
0000
0030
0000
,
0100
0000
0110
0000
,
1000
0010
1000
0000
0001
0000
0100
0000
,
0010
0010
1001
0000
,
1000
0100
0010
0000
0010
0000
0001
0000
,
0100
0000
0110
0000
,
0001
0010
0001
0000
0100
0000
0010
0000
,
1000
0001
0011
0001
,
1000
1010
0010
0100
,
0102
0000
0020
0033
,
2100
0000
0002
3003
,
0002
0103
2000
3010
,
0001
0100
0010
0000
2000
0000
3000
0000
,
2100
0000
0020
3030
,
0102
0000
2000
3003
,
1000
0001
0101
0001
,
1000
1100
0100
0010
,
1001
0000
0000
0000
1000
0010
1000
0000
,
0000
0001
0010
0000
0100
0000
1000
0000
,
0010
0010
2002
3003
,
0001
0100
0010
0000
1000
0000
0001
0000
,
1001
0000
0000
0000
0001
0100
0001
0000
,
0000
1000
0100
0000
0010
0000
0001
0000
,
0100
0100
1100
0010
,
0010
0011
1000
1000
,
0001
0000
0000
0000
;

//---------------dance-single - ----------------
#NOTES:
     dance-single:
     :
     Easy:
     5:
     0.231479,0.262659,0.073989,0.125781,0.000000,219.000000,209.000000,10.000000,17.000000,0.000000,0.000000,0.231479,0.262659,0.073989,0.125781,0.000000,219.000000,209.000000,10.000000,17.000000,0.000000,0.000000:
0000
0000
0000
0000
,
0000
0000
0000
0000
,
0000
0000
0000
0000
,
0000
0000
0000
0000
,
0000
0000
0000
0000
,
0000
0001
0000
0001
,
0000
1000
0000
1000
,
0001
0000
1001
0000
,
0001
0100
0001
0100
,
1000
1000
0110
0000
,
0010
1000
0010
0000
,
1000
0000
1001
0000
,
1000
0100
1000
0100
,
0001
0100
1000
1000
,
0010
0001
0001
0010
,
1000
1000
0010
2000
,
3000
0001
0100
0000
,
0001
0001
0100
0002
,
0003
0010
0100
0000
,
1000
0100
1000
0020
,
0030
0100
0001
0000
,
0100
0100
0010
0010
,
1000
0001
0200
0300
,
0001
0000
1001
0000
,
0001
0010
0001
0010
,
1000
1000
0110
0000
,
0100
1000
0100
0000
,
1000
0000
1001
0000
,
1000
0010
1000
0010
,
0001
0010
1000
1000
,
0100
0001
0001
0100
,
1000
0000
1000
0001
,
0000
0001
0100
0010
,
1000
0100
2000
3000
,
0010
0100
0010
0000
,
1000
0000
1000
0001
,
0000
0001
0010
0100
,
0001
0100
1000
1000
,
0010
0001
0001
0010
,
1000
1000
0100
2000
,
3000
0001
0010
0000
,
0001
0001
0010
0002
,
0103
0001
1001
0000
,
1000
0010
1000
0200
,
0300
0010
0001
0000
,
0010
0010
0100
0100
,
1000
0001
0020
0030
,
0001
0000
1001
0000
,
0001
0100
0001
0100
,
1000
1000
0110
0000
,
0010
1000
0010
0000
,
1000
0000
1001
0000
,
1000
0100
1000
0100
,
0001
0100
1000
1000
,
0010
0001
0001
0010
,
2000
0000
3001
0000
,
0002
0000
0013
0000
,
2000
3010
0002
0013
,
0100
0100
0020
0030
,
0002
0000
1003
0000
,
2000
0000
3100
0000
,
0001
0100
1000
1000
,
0010
0001
0001
0010
,
1000
0000
1000
0001
,
0000
0001
0010
0100
,
1000
0010
2000
3000
,
0100
0010
0100
0000
,
1000
0000
1000
0001
,
0000
0001
0100
0010
,
0001
0010
1000
1000
,
0100
0001
0001
0100
,
1000
0000
0000
0000
;

//---------------dance-single - ----------------
#NOTES:
     dance-single:
     :
     Beginner:
     2:
     0.097242,0.157596,0.029595,0.051792,0.000000,92.000000,88.000000,4.000000,7.000000,0.000000,0.000000,0.097242,0.157596,0.029595,0.051792,0.000000,92.000000,88.000000,4.000000,7.000000,0.000000,0.000000:
0000
0000
0000
0000
,
0000
0000
0000
0000
,
0000
0000
0000
0000
,
0000
0000
0000
0000
,
0000
0000
0000
0000
,
0000
0000
0000
0000
,
0000
0000
0000
0000
,
0001
0000
0000
0000
,
0010
0000
0000
0000
,
0100
0000
0100
0000
,
0000
0000
0000
0000
,
1000
0000
0000
0000
,
0010
0000
0000
0000
,
0100
0000
0100
0000
,
0010
0000
0010
0000
,
1000
0000
0001
0000
,
0000
0000
0000
0000
,
0001
0000
1000
0000
,
0000
0000
0000
0000
,
0100
0000
0010
0000
,
0000
0000
0000
0000
,
0010
0000
0100
0000
,
1000
0000
0000
0000
,
0001
0000
0000
0000
,
0010
0000
0000
0000
,
0100
0000
0100
0000
,
0000
0000
0000
0000
,
1000
0000
0000
0000
,
0010
0000
0000
0000
,
0100
0000
0100
0000
,
0010
0000
0010
0000
,
0110
0000
0100
0000
,
0000
0001
0001
0000
,
1000
0000
0200
0000
,
0300
0000
0000
0000
,
0110
0000
0100
0000
,
0000
1000
1000
0000
,
0010
0000
0010
0000
,
0100
0000
0100
0000
,
0001
0000
1000
0000
,
0000
0000
0000
0000
,
1000
0000
0001
0000
,
0000
0000
0000
0000
,
0010
0000
0100
0000
,
0000
0000
0000
0000
,
0100
0000
0010
0000
,
0001
0000
0000
0000
,
1000
0000
0000
0000
,
0100
0000
0000
0000
,
0010
0000
0010
0000
,
0000
0000
0000
0000
,
0001
0000
0000
0000
,
0100
0000
0000
0000
,
0010
0000
0010
0000
,
0100
0000
0100
0000
,
0002
0000
0003
0000
,
0020
0000
0030
0000
,
0100
0000
0010
0000
,
0200
0000
0300
0000
,
2000
0000
3000
0000
,
0020
0000
0030
0000
,
0100
0000
0100
0000
,
0010
0000
0010
0000
,
0110
0000
0100
0000
,
0000
0001
0001
0000
,
1000
0000
0200
0000
,
0300
0000
0000
0000
,
0110
0000
0100
0000
,
0000
1000
1000
0000
,
0010
0000
0010
0000
,
0100
0000
0100
0000
,
0010
0000
0000
0000
;

//---------------dance-double - ----------------
#NOTES:
     dance-double:
     :
     Challenge:
     11:
     0.360430,0.420255,0.221966,0.207168,0.003699,341.000000,311.000000,30.000000,28.000000,248.000000,0.000000,0.360430,0.420255,0.221966,0.207168,0.003699,341.000000,311.000000,30.000000,28.000000,248.000000,0.000000:
// measure 0
00000000
00000000
00000000
00000000
,  // measure 1
00000000
00000000
00000000
00000000
,  // measure 2
00000000
00000000
00000000
00000000
,  // measure 3
00000000
00000000
00000000
00000000
,  // measure 4
00000000
00000000
00000000
00000000
,  // measure 5
00001000
00000000
01000000
00010000
01000000
00000000
00001000
00010000
,  // measure 6
00001000
00000000
00100000
00010000
00100000
00000000
00001000
00000000
,  // measure 7
00011000
MMMMMMMM
00001010
MMMMMMMM
,  // measure 8
00010000
00001000
00010000
00000010
00001000
00000001
00000020
00000000
,  // measure 9
00000130
00001000
00001001
MMMMMMMM
,  // measure 10
00000001
00000100
00000010
00000100
00000010
00000000
00001000
00000000
,  // measure 11
00000011
MMMMMMMM
00001100
MMMMMMMM
,  // measure 12
00001000
00010000
00001000
01000000
00010000
10000000
02000000
00000000
,  // measure 13
03100000
00010000
01010000
01000000
,  // measure 14
00001000
00011000
00010000
00000100
,  // measure 15
00010000
00001000
00100000
00001000
00100000
00001000
00020000
00000000
,  // measure 16
00030000
00000000
00001000
00010000
01000000
10000000
MMMMMMMM
00000000
,  // measure 17
10000000
01000000
00000000
00000000
01000000
00000000
00100000
00000000
00010000
00000000
01000000
00000000
00200000
00000000
00000000
00000000
,  // measure 18
00300000
00000000
10000000
10000000
10000000
00000000
MMMMMMMM
00000000
,  // measure 19
10000000
01000000
00010000
00001000
00010000
00001000
00000200
00000000
,  // measure 20
00000300
00000000
00000001
00000100
00000010
00001000
MMMMMMMM
00000000
,  // measure 21
00001000
00000100
00001000
00000100
00000010
00000001
00000010
00000100
,  // measure 22
00001000
00000010
00010000
00001000
00200000
00000000
00301000
00000000
,  // measure 23
00011000
MMMMMMMM
00110000
MMMMMMMM
,  // measure 24
00001000
00010000
00001000
00100000
00010000
10000000
00200000
00000000
,  // measure 25
01300000
00010000
10010000
MMMMMMMM
,  // measure 26
10000000
01000000
00100000
01000000
00100000
00000000
00010000
00000000
,  // measure 27
10100000
MMMMMMMM
01010000
MMMMMMMM
,  // measure 28
00010000
00001000
00010000
00000100
00001000
00000001
00000200
00000000
,  // measure 29
00000310
00001000
00001100
00000100
,  // measure 30
00010000
00011000
00001000
01000000
,  // measure 31
MMMMMMMM
00000000
00000000
00100000
00010000
00100000
00010000
00000000
,  // measure 32
MMMMMMMM
00001000
00010000
01000000
10000000
00100000
00010000
00000000
,  // measure 33
00001000
00000100
00000220
00000330
,  // measure 34
00000001
00001000
00000100
00000010
00000001
00000000
00000100
00000000
,  // measure 35
MMMMMMMM
00000000
00000000
00001000
00000100
00001000
00000100
00000000
,  // measure 36
MMMMMMMM
00000001
00000010
00000100
00001000
00000010
00000100
00000000
,  // measure 37
00000001
00000010
00001010
00001000
,  // measure 38
00010000
00110000
00100000
01000000
,  // measure 39
00001000
00010000
00000100
00010000
00000100
00010000
00002000
00000000
,  // measure 40
00003000
00000000
00010000
00001000
00000010
00000001
MMMMMMMM
00000000
,  // measure 41
00000001
00000010
00000100
00001000
00000010
00000100
00000002
00000000
,  // measure 42
00000103
00000010
00000110
MMMMMMMM
,  // measure 43
00000001
00000010
00001000
00010000
00001000
00010000
00200000
00000000
,  // measure 44
00300000
00000000
10000000
00100000
01000000
00010000
MMMMMMMM
00000000
,  // measure 45
00010000
00100000
00010000
00100000
01000000
10000000
01000000
00100000
,  // measure 46
00010000
01000000
00001000
00010000
00000200
00000000
00010300
00000000
,  // measure 47
00011000
MMMMMMMM
00001100
MMMMMMMM
,  // measure 48
00010000
00001000
00010000
00000100
00001000
00000001
00000200
00000000
,  // measure 49
00000310
00001000
00001001
MMMMMMMM
,  // measure 50
00000001
00000010
00000100
00000010
00000100
00000000
00001000
00000000
,  // measure 51
00000101
MMMMMMMM
00001010
MMMMMMMM
,  // measure 52
00001000
00010000
00001000
00100000
00010000
10000000
00200000
00000000
,  // measure 53
01300000
00010000
00110000
00100000
,  // measure 54
00001000
00011000
00010000
00000010
,  // measure 55
00000200
00000010
00000020
00000330
,  // measure 56
00000020
00010000
00020000
00030030
,  // measure 57
00020000
01030000
00020000
00031000
,  // measure 58
00100000
00010000
01000000
00100000
10000000
00000000
MMMMMMMM
00000000
,  // measure 59
20000000
01000000
02000000
33000000
,  // measure 60
02000000
00100000
00200000
03300000
,  // measure 61
00100000
00010000
01010000
01000000
,  // measure 62
00001000
00011000
00010000
00000100
,  // measure 63
MMMMMMMM
00000000
00000000
00000010
00001000
00000010
00001000
00000000
,  // measure 64
MMMMMMMM
00010000
00001000
00000100
00000001
00000010
00001000
00000000
,  // measure 65
00010000
01000000
02200000
03300000
,  // measure 66
10000000
00010000
01000000
00100000
10000000
00000000
01000000
00000000
,  // measure 67
MMMMMMMM
00000000
00000000
00010000
01000000
00010000
01000000
00000000
,  // measure 68
MMMMMMMM
10000000
00100000
01000000
00010000
00100000
01000000
00000000
,  // measure 69
10000000
00100000
00110000
00010000
,  // measure 70
00001000
00001010
00000010
00000001
,  // measure 71
MMMMMMMM
00000000
00000000
00000000
;

//---------------dance-double - ----------------
#NOTES:
     dance-double:
     :
     Hard:
     10:
     0.379456,0.420255,0.281157,0.125781,0.003699,359.000000,321.000000,38.000000,17.000000,0.000000,0.000000,0.379456,0.420255,0.281157,0.125781,0.003699,359.000000,321.000000,38.000000,17.000000,0.000000,0.000000:
// measure 0
00000000
00000000
00000000
00000000
,  // measure 1
00000000
00000000
00000000
00000000
,  // measure 2
00000000
00000000
00000000
00000000
,  // measure 3
00000000
00000000
00000000
00000000
,  // measure 4
00000000
00000000
00000000
00000000
,  // measure 5
00001000
00000000
00100000
00001000
00010000
00000000
00000100
00010000
,  // measure 6
00001000
00000000
01000000
00001000
00010000
00000000
00001000
00000000
,  // measure 7
00011000
00000000
10010000
00000000
,  // measure 8
01000000
10000000
01000000
10000000
00010000
01000000
00100000
00000000
,  // measure 9
01000000
10000000
01100000
00000000
,  // measure 10
00100000
10000000
01000000
00010000
00001000
00000000
00010000
00000000
,  // measure 11
00011000
00000000
00001001
00000000
,  // measure 12
00000010
00000001
00000010
00000001
00001000
00000010
00000100
00000000
,  // measure 13
00000010
00000001
00000110
00001000
,  // measure 14
00000100
00011000
01000000
00010000
,  // measure 15
10000000
01000000
00100000
01000000
00010000
01000000
20000000
00000000
,  // measure 16
30000000
00000000
01000000
00010000
00001000
00010000
00001000
00000000
,  // measure 17
00100000
00010000
00000000
00000000
10000000
00000000
01000000
00000000
10000000
00000000
00010000
00000000
01000000
00000000
00000000
00000000
,  // measure 18
00000000
00000000
00001000
00010000
00001000
00000000
00000000
00000000
,  // measure 19
00010000
00000010
00001000
00000010
00000100
00000010
00002000
00000000
,  // measure 20
00003000
00000000
00000001
00000100
00001000
00000100
00000001
00000000
,  // measure 21
00001000
00000100
00001000
00000100
00000010
00000100
00001000
00000001
,  // measure 22
00000100
00001000
00000100
00001000
00020000
00000000
00031000
00000000
,  // measure 23
00011000
00000000
00001001
00000000
,  // measure 24
00000010
00000001
00000010
00000001
00001000
00000010
00000100
00000000
,  // measure 25
00000010
00000001
00000110
00000000
,  // measure 26
00000100
00000001
00000010
00001000
00010000
00000000
00001000
00000000
,  // measure 27
00011000
00000000
10010000
00000000
,  // measure 28
01000000
10000000
01000000
10000000
00010000
01000000
00100000
00000000
,  // measure 29
01000000
10000000
01100000
00010000
,  // measure 30
00100000
00011000
00000010
00001000
,  // measure 31
00001001
00000000
00000000
00000001
00000010
00000001
00000010
00000000
,  // measure 32
00000000
00000100
00010000
00001000
01000000
00001000
00010000
00000000
,  // measure 33
00001000
00100000
00110000
00000000
,  // measure 34
01000000
10000000
01000000
10000000
00100000
00000000
10000000
00000000
,  // measure 35
10010000
00000000
00000000
00010000
00100000
00010000
00100000
00000000
,  // measure 36
00000000
01000000
10000000
00010000
01000000
00001000
00010000
00000000
,  // measure 37
00001000
00100000
00110000
01000000
,  // measure 38
00010000
00011000
00001000
00000100
,  // measure 39
00000001
00000100
00000010
00000100
00001000
00000100
00000002
00000000
,  // measure 40
00000003
00000000
00000100
00001000
00010000
00001000
00010000
00000000
,  // measure 41
00000010
00001000
00000001
00000100
00000001
00001000
00000200
00000000
,  // measure 42
00010300
00001000
00011000
00000000
,  // measure 43
00001000
00100000
00010000
00100000
01000000
00100000
00020000
00000000
,  // measure 44
00030000
00000000
10000000
01000000
00010000
01000000
10000000
00000000
,  // measure 45
00010000
01000000
00010000
01000000
00100000
01000000
00010000
10000000
,  // measure 46
01000000
00010000
01000000
00010000
00002000
00000000
00013000
00000000
,  // measure 47
00011000
00000000
10010000
00000000
,  // measure 48
00100000
10000000
00100000
10000000
00010000
00100000
01000000
00000000
,  // measure 49
00100000
10000000
01100000
00000000
,  // measure 50
01000000
10000000
00100000
00010000
00001000
00000000
00010000
00000000
,  // measure 51
00011000
00000000
00001001
00000000
,  // measure 52
00000100
00000001
00000100
00000001
00001000
00000100
00000010
00000000
,  // measure 53
00000100
00000001
00000110
00001000
,  // measure 54
00000010
00011000
00100000
00010000
,  // measure 55
20010000
01000000
00200000
30300000
,  // measure 56
02100000
10000000
00020000
03030000
,  // measure 57
00200000
01300000
00020000
00031000
,  // measure 58
00000100
00000010
00000100
00000010
00000100
00000000
00000001
00000000
,  // measure 59
00001002
00000100
00000020
00000033
,  // measure 60
00000210
00000001
00002000
00003300
,  // measure 61
00000010
00000001
00000110
00001000
,  // measure 62
00000100
00011000
01000000
00010000
,  // measure 63
10010000
00000000
00000000
10000000
01000000
10000000
01000000
00000000
,  // measure 64
00000000
00100000
00001000
00010000
00000010
00010000
00001000
00000000
,  // measure 65
00010000
00000100
00001100
00000000
,  // measure 66
00000010
00000001
00000010
00000001
00000100
00000000
00000001
00000000
,  // measure 67
00001001
00000000
00000000
00001000
00000100
00001000
00000100
00000000
,  // measure 68
00000000
00000010
00000001
00001000
00000010
00010000
00001000
00000000
,  // measure 69
00010000
00000100
00001100
00000010
,  // measure 70
00001000
00011000
00010000
00100000
,  // measure 71
10000000
00000000
00000000
00000000
;

//---------------dance-double - ----------------
#NOTES:
     dance-double:
     :
     Medium:
     7:
     0.286441,0.315191,0.192370,0.162775,0.000000,271.000000,245.000000,26.000000,22.000000,0.000000,0.000000,0.286441,0.315191,0.192370,0.162775,0.000000,271.000000,245.000000,26.000000,22.000000,0.000000,0.000000:
// measure 0
00000000
00000000
00000000
00000000
,  // measure 1
00000000
00000000
00000000
00000000
,  // measure 2
00000000
00000000
00000000
00000000
,  // measure 3
00000000
00000000
00000000
00000000
,  // measure 4
00000000
00000000
00000000
00000000
,  // measure 5
00000000
00001000
00000000
00001000
,  // measure 6
00000000
00010000
00001000
00010000
,  // measure 7
00000100
00000000
00001001
00000000
,  // measure 8
00000001
00000100
00000001
00000000
00000100
00000000
00000010
00000000
,  // measure 9
00001000
00001000
00011000
00000000
,  // measure 10
00010000
01000000
00010000
00000000
01000000
00000000
10000000
00000000
,  // measure 11
01000000
00000000
01100000
00000000
,  // measure 12
10000000
00010000
10000000
00000000
00010000
00000000
01000000
00000000
,  // measure 13
00100000
00100000
01010000
00001000
,  // measure 14
00001000
00010100
00000010
00000010
,  // measure 15
00000001
00000100
00000001
00000000
00001000
00000000
00000002
00000000
,  // measure 16
00000003
00000100
00000100
00000000
,  // measure 17
00000010
00000000
00000010
00000000
00010000
00001000
00020000
00000000
,  // measure 18
00030000
00001000
00001000
00000000
,  // measure 19
01000000
00010000
01000000
00000000
00010000
00000000
00200000
00000000
,  // measure 20
00300000
01000000
01000000
00000000
,  // measure 21
10000000
00010000
10000000
00000000
00100000
01000000
00100000
00000000
,  // measure 22
00010000
00001000
00010000
00000000
00002000
00000000
00003000
00000000
,  // measure 23
00000100
00000000
00001001
00000000
,  // measure 24
00000001
00000100
00000001
00000000
00000100
00000000
00000010
00000000
,  // measure 25
00001000
00001000
00011000
00000000
,  // measure 26
00010000
01000000
00010000
00000000
01000000
00000000
10000000
00000000
,  // measure 27
01000000
00000000
01100000
00000000
,  // measure 28
10000000
00010000
10000000
00000000
00010000
00000000
01000000
00000000
,  // measure 29
00100000
00100000
01010000
00001000
,  // measure 30
00001000
00010100
00000010
00000010
,  // measure 31
00000101
00000000
00000000
00000000
00000001
00001000
00000001
00000000
,  // measure 32
00000000
00000010
00000100
00000000
00000010
00000000
00001000
00000000
,  // measure 33
00010000
00010000
00002000
00003000
,  // measure 34
00100000
00010000
00100000
00000000
01000000
00000000
10000000
00000000
,  // measure 35
11000000
00000000
00000000
00000000
10000000
00010000
10000000
00000000
,  // measure 36
00000000
00100000
01000000
00000000
00100000
00000000
00010000
00000000
,  // measure 37
00001000
00010000
01010000
00010000
,  // measure 38
00001000
00001100
00000100
00000001
,  // measure 39
00000001
00000010
00000001
00000000
00001000
00000000
00000002
00000000
,  // measure 40
00000003
00000010
00000010
00000000
,  // measure 41
00000100
00000000
00000100
00000000
00010000
00001000
00020000
00000000
,  // measure 42
00031000
00001000
00011000
00000000
,  // measure 43
00100000
00010000
00100000
00000000
00010000
00000000
02000000
00000000
,  // measure 44
03000000
00100000
00100000
00000000
,  // measure 45
10000000
00010000
10000000
00000000
01000000
00100000
01000000
00000000
,  // measure 46
00010000
00001000
00010000
00000000
00002000
00000000
00003000
00000000
,  // measure 47
00000010
00000000
00001001
00000000
,  // measure 48
00000001
00000010
00000001
00000000
00000010
00000000
00000100
00000000
,  // measure 49
00001000
00001000
00011000
00000000
,  // measure 50
00010000
00100000
00010000
00000000
00100000
00000000
10000000
00000000
,  // measure 51
00100000
00000000
01100000
00000000
,  // measure 52
10000000
00010000
10000000
00000000
00010000
00000000
00100000
00000000
,  // measure 53
01000000
01000000
00110000
00001000
,  // measure 54
00001000
00010010
00000100
00000100
,  // measure 55
00000002
00000000
00000020
00000033
,  // measure 56
00002000
00000000
00000020
00003030
,  // measure 57
00000002
00000103
00002000
00013000
,  // measure 58
02000000
00000000
20000000
33000000
,  // measure 59
20000000
00000000
00200000
30300000
,  // measure 60
00020000
00000000
00200000
00330000
,  // measure 61
10000000
00100000
01100000
00100000
,  // measure 62
00010000
00011000
00001000
00000010
,  // measure 63
00000011
00000000
00000000
00000000
00000001
00001000
00000001
00000000
,  // measure 64
00000000
00000100
00000010
00000000
00000100
00000000
00001000
00000000
,  // measure 65
00010000
00010000
00002000
00003000
,  // measure 66
01000000
00010000
01000000
00000000
00100000
00000000
10000000
00000000
,  // measure 67
10100000
00000000
00000000
00000000
10000000
00010000
10000000
00000000
,  // measure 68
00000000
01000000
00100000
00000000
01000000
00000000
00010000
00000000
,  // measure 69
00001000
00010000
00110000
00010000
,  // measure 70
00001000
00001010
00000010
00000001
,  // measure 71
00001000
00000000
00000000
00000000
;

//---------------dance-double - ----------------
#NOTES:
     dance-double:
     :
     Easy:
     5:
     0.225137,0.262659,0.081387,0.133179,0.000000,213.000000,202.000000,11.000000,18.000000,0.000000,0.000000,0.225137,0.262659,0.081387,0.133179,0.000000,213.000000,202.000000,11.000000,18.000000,0.000000,0.000000:
// measure 0
00000000
00000000
00000000
00000000
,  // measure 1
00000000
00000000
00000000
00000000
,  // measure 2
00000000
00000000
00000000
00000000
,  // measure 3
00000000
00000000
00000000
00000000
,  // measure 4
00000000
00000000
00000000
00000000
,  // measure 5
00000000
00001000
00000000
00001000
,  // measure 6
00000000
00010000
00000000
00010000
,  // measure 7
00001000
00000000
00011000
00000000
,  // measure 8
00100000
00100000
00010000
00000000
,  // measure 9
01000000
00100000
00100000
00000000
,  // measure 10
10000000
10000000
10000000
00000000
,  // measure 11
00100000
00000000
01100000
00000000
,  // measure 12
00010000
00100000
00100000
00000000
,  // measure 13
01000000
00010000
00010000
00001000
,  // measure 14
00000100
00000100
00001000
00010000
,  // measure 15
00001000
00001000
00010000
00002000
,  // measure 16
00003000
01000000
01000000
00000000
,  // measure 17
00010000
00010000
00100000
02000000
,  // measure 18
03000000
10000000
10000000
00000000
,  // measure 19
01000000
00010000
01000000
00020000
,  // measure 20
00030000
00001000
00001000
00000000
,  // measure 21
00010000
00001000
00010000
00000100
,  // measure 22
00001000
00000010
00000200
00000300
,  // measure 23
00001000
00000000
00011000
00000000
,  // measure 24
01000000
01000000
00010000
00000000
,  // measure 25
00100000
01000000
01000000
00000000
,  // measure 26
10000000
10000000
10000000
00000000
,  // measure 27
01000000
00000000
01100000
00000000
,  // measure 28
00010000
01000000
01000000
00000000
,  // measure 29
00100000
00010000
00010000
00001000
,  // measure 30
00000010
00000010
00001000
00010000
,  // measure 31
00011000
00000000
00000100
00000100
,  // measure 32
00000000
00001000
00000010
00000100
,  // measure 33
00000001
00000010
00000020
00000030
,  // measure 34
00001000
00010000
00001000
00000000
,  // measure 35
00011000
00000000
00100000
00100000
,  // measure 36
00000000
00010000
01000000
00100000
,  // measure 37
10000000
01000000
01000000
00010000
,  // measure 38
00001000
00001000
00000100
00001000
,  // measure 39
00010000
00010000
00001000
00020000
,  // measure 40
00030000
00000100
00000100
00000000
,  // measure 41
00001000
00001000
00000010
00000200
,  // measure 42
00000310
00000010
00000110
00000000
,  // measure 43
00000100
00001000
00000100
00002000
,  // measure 44
00003000
00010000
00010000
00000000
,  // measure 45
00001000
00010000
00001000
01000000
,  // measure 46
00010000
00100000
02000000
03000000
,  // measure 47
00010000
00000000
00011000
00000000
,  // measure 48
00000100
00000100
00001000
00000000
,  // measure 49
00000010
00000100
00000100
00000000
,  // measure 50
00000001
00000001
00000001
00000000
,  // measure 51
00000100
00000000
00000110
00000000
,  // measure 52
00001000
00000100
00000100
00000000
,  // measure 53
00000010
00001000
00001000
00010000
,  // measure 54
00100000
00100000
00010000
00001000
,  // measure 55
00002000
00000000
00013000
00000000
,  // measure 56
00020000
00000000
00030010
00000000
,  // measure 57
00000020
00000130
00000200
00001300
,  // measure 58
00002000
00000000
00020000
00033000
,  // measure 59
00020000
00000000
00031000
00000000
,  // measure 60
00002000
00000000
00103000
00000000
,  // measure 61
00100000
01000000
01000000
00010000
,  // measure 62
00001000
00001000
00000100
00001000
,  // measure 63
00011000
00000000
00000100
00000100
,  // measure 64
00000000
00001000
00000010
00000100
,  // measure 65
00000001
00000010
00000020
00000030
,  // measure 66
00001000
00010000
00001000
00000000
,  // measure 67
00011000
00000000
00100000
00100000
,  // measure 68
00000000
00010000
01000000
00100000
,  // measure 69
10000000
01000000
01000000
00010000
,  // measure 70
00001000
00001000
00000100
00000001
,  // measure 71
00001000
00000000
00000000
00000000
;
