#VERSION:0.83;
#TITLE:I'LL SHOW YOU;
#SUBTITLE:ft. TWICE, Bekuh BOOM, Annika Wells;
#ARTIST:K/DA;
#TITLETRANSLIT:;
#SUBTITLETRANSLIT:;
#ARTISTTRANSLIT:;
#GENRE:K/DA;
#ORIGIN:;
#CREDIT:;
#BANNER:I'LL SHOW YOU.png;
#BACKGROUND:../bg.png;
#PREVIEWVID:;
#JACKET:I'LL SHOW YOU-jacket.png;
#CDIMAGE:;
#DISCIMAGE:;
#LYRICSPATH:;
#CDTITLE:../cdtitle.png;
#MUSIC:I'LL SHOW YOU.ogg;
#OFFSET:1.387000;
#SAMPLESTART:54.167000;
#SAMPLELENGTH:15.000000;
#SELECTABLE:YES;
#BPMS:0.000=108.000,
84.000=54.000,
92.000=108.000;
#STOPS:;
#DELAYS:;
#WARPS:;
#TIMESIGNATURES:0.000=4=4;
#TICKCOUNTS:0.000=4;
#COMBOS:0.000=1;
#SPEEDS:0.000=1.000=0.000=0;
#SCROLLS:0.000=1.000;
#FAKES:;
#LABELS:0.000=Song Start;
#BGCHANGES: 3.000=I'LL SHOW YOU.avi=1.000=0=0=0=StretchNoLoop====,
99999=-nosongbg-=1.000=0=0=0 // don't automatically add -songbackground-
;
#KEYSOUNDS:;
#ATTACKS:
;

//---------------dance-single - ----------------
#NOTEDATA:;
#CHARTNAME:;
#STEPSTYPE:dance-single;
#DESCRIPTION:;
#CHARTSTYLE:;
#DIFFICULTY:Hard;
#METER:11;
#RADARVALUES:0.410539,0.727132,0.248991,0.663976,0.191931,277.000000,253.000000,24.000000,64.000000,0.000000,0.000000,0.000000,0.000000,0.000000,0.410539,0.727132,0.248991,0.663976,0.191931,277.000000,253.000000,24.000000,64.000000,0.000000,0.000000,0.000000,0.000000,0.000000;
#CREDIT:led_light;
#NOTES:
0000
0000
0000
0000
,
0000
0000
0000
0000
,
0000
0000
0000
0000
,
0000
0000
0000
0000
,
0000
0000
0000
0000
,
0010
0000
0100
0000
1000
0100
0000
0000
0010
0001
0010
0000
0100
0000
1000
0000
,
0020
0000
2030
0000
3100
0010
0100
2000
,
0010
0000
3010
0000
0100
0010
0000
0000
1000
0001
1000
0000
0100
0000
0010
0000
,
0002
0000
2003
0000
3100
1000
0010
0002
,
0010
0000
0000
0000
0013
0000
0010
1000
0020
0000
0000
0000
1030
0000
0100
0000
,
0020
0000
0000
0000
0130
0000
1000
0001
2000
0000
0000
0000
3010
0000
0100
0000
,
0002
0000
0023
0000
0130
0010
2200
3300
,
0010
1002
0100
0003
1000
0010
0100
0002
,
0010
0003
0010
0200
1000
0300
1000
0020
,
0100
0030
0100
0002
1003
0001
0100
0010
,
1000
0000
1000
0000
0100
0010
0000
0010
0100
0000
0000
0000
0110
0000
1000
0000
,
0001
0000
1000
0000
0010
0100
0000
0100
0001
0000
0010
0000
0100
0000
2000
0000
,
0010
3000
0010
0200
0001
0300
0001
0020
,
0100
0030
0100
2000
3010
1000
0100
0010
,
0001
0000
0001
0000
0100
0010
0000
2000
0000
0000
3010
0000
1001
0000
0000
0002
,
0000
0013
0100
0000
2100
0000
0000
0010
0000
0000
3010
0000
0110
0000
0001
0000
,
1000
0000
0000
0000
0000
0000
0000
0000
0000
0000
0000
0000
0000
0000
0000
0000
0000
0000
0000
0000
0000
0000
0000
0000
0010
0000
0000
0000
0000
0000
0100
0000
0000
0000
0000
0000
0000
0000
0000
0000
0000
0000
0100
0000
0000
0000
0000
0000
0010
0000
0000
0000
0000
0000
0000
0000
0000
0000
0000
0000
0000
0000
0000
0000
0000
0000
0000
0000
0000
0000
0000
0000
1000
0000
0000
0000
0000
0000
0000
0000
0100
0000
0000
0000
0000
0000
0000
0000
1000
0000
0000
0000
0000
0000
0000
0000
0100
0000
0000
0000
0000
0000
0000
0000
0000
0000
0000
0000
0000
0000
0000
0000
0000
0000
0000
0000
0000
0000
0000
0000
0010
0000
0000
0000
0000
0000
0000
0000
0001
0000
0000
0000
0000
0000
0000
0000
0010
0000
0000
0000
0000
0000
0000
0000
0001
0000
0000
0000
0000
0000
0000
0000
0000
0000
0000
0000
0000
0000
0000
0000
0000
0000
0000
0000
0000
0000
0000
0000
1000
0000
0000
0000
0000
0000
0000
0000
0010
0000
0000
0000
0000
0000
0000
0000
0100
0000
0000
0000
0000
0000
0000
0000
,
0010
0000
0000
0000
0000
0000
0000
0000
0000
0000
0000
0000
0000
0000
0000
0000
0000
0000
0000
0000
0000
0000
0000
0000
0001
0000
0000
0000
0000
0000
0000
0000
0010
0000
0000
0000
0000
0000
0000
0000
0100
0000
0000
0000
0000
0000
0000
0000
0010
0000
0000
0000
0000
0000
0000
0000
0000
0000
0000
0000
0000
0000
0000
0000
0000
0000
0000
0000
0000
0000
0000
0000
1000
0000
0000
0000
0000
0000
0000
0000
0010
0000
0000
0000
0000
0000
0000
0000
0100
0000
0000
0000
0000
0000
0000
0000
0001
0000
0000
0000
0000
0000
0000
0000
0010
0000
0000
0000
0000
0000
0000
0000
0100
0000
0000
0000
0000
0000
0000
0000
0010
0000
0000
0000
0000
0000
0000
0000
0100
0000
0000
0000
0000
0000
0000
0000
1000
0000
0000
0000
0000
0000
0000
0000
0001
0000
0000
0000
0000
0000
0000
0000
0000
0000
0000
0000
0000
0000
0000
0000
0000
0000
0000
0000
0000
0000
0000
0000
0100
0000
0000
0000
0000
0000
0010
0000
0000
0000
0000
0000
0100
0000
0000
0000
0000
0000
0000
0000
0000
0000
0000
0000
,
0220
0330
2002
3003
0001
0010
0100
2000
,
0000
3010
1001
0001
0010
1000
0010
0002
,
0000
0013
0110
0100
1000
0001
1000
0020
,
0000
0130
0110
2000
3020
0230
0302
0003
,
0220
0330
2002
3003
1000
0100
0010
0002
,
0000
0103
1001
1000
0100
0001
0100
2000
,
0000
3100
0110
0010
0001
1000
0001
0200
,
0000
0000
0310
0000
0110
0000
0002
0000
0203
0000
0320
0000
1030
0001
1000
0000
,
2002
3003
0220
0330
0010
1000
0001
0020
,
0000
0130
0010
1001
0000
0001
1000
0020
,
0000
0100
0200
0330
1001
0010
0100
0002
,
0000
1000
2000
3003
0110
0001
1000
0100
,
0220
0330
2002
3003
0010
1000
0010
0002
,
0010
0000
0000
0000
1003
0000
0010
0100
0020
0000
0000
0000
2030
0000
0000
0000
,
3100
0000
0001
0100
0010
0100
2000
3000
,
0001
0000
0100
0000
0120
0000
0000
0000
1030
0000
0100
0000
0010
0001
0010
0001
;

//---------------dance-single - ----------------
#NOTEDATA:;
#CHARTNAME:;
#STEPSTYPE:dance-single;
#DESCRIPTION:;
#CHARTSTYLE:;
#DIFFICULTY:Medium;
#METER:8;
#RADARVALUES:0.280115,0.504142,0.000000,0.518731,0.041499,189.000000,189.000000,0.000000,50.000000,0.000000,0.000000,0.000000,0.000000,0.000000,0.280115,0.504142,0.000000,0.518731,0.041499,189.000000,189.000000,0.000000,50.000000,0.000000,0.000000,0.000000,0.000000,0.000000;
#CREDIT:led_light;
#NOTES:
0000
0000
0000
0000
,
0000
0000
0000
0000
,
0000
0000
0000
0000
,
0000
0000
0000
0000
,
0000
0000
0000
0000
,
0010
1000
0100
0000
0001
0001
0100
1000
,
0020
0000
2030
0000
3001
0010
0100
1000
,
0002
0000
1003
0000
0010
0010
0100
0001
,
0020
0000
0230
0000
0310
0001
1000
0020
,
0100
0000
1030
0001
0020
0000
0130
1000
,
0020
0000
0031
0010
2000
0000
3001
0010
,
0200
0000
0010
0000
0300
1000
0002
0003
,
0100
0020
1000
0030
0100
0010
1000
0200
,
0001
0300
0010
0002
0100
0003
1000
0020
,
0001
0030
0100
0002
0010
0003
2000
0000
,
3002
0100
0000
0100
,
2003
0000
0100
0000
3010
0100
0001
0020
,
1000
0030
0100
2000
0010
3000
0001
0200
,
1000
0300
0010
2000
0100
3000
0002
0000
,
2003
0100
0020
0030
,
3200
0010
0000
0310
,
0001
0000
0100
0010
1000
0000
1000
0100
1000
0000
1000
0010
1000
0000
0010
0100
,
0001
0000
0001
0010
0001
0000
0001
0100
0001
0000
1000
0010
0100
0000
0100
0010
,
2000
0000
3020
0000
0130
0001
0010
0000
,
0200
0000
0310
0000
0010
0100
1000
0000
,
0020
0000
0130
0000
0100
0010
1000
0000
,
2000
0000
3100
0000
0001
0100
2000
0000
,
3002
0000
0023
0000
0130
1000
0010
0000
,
0200
0000
0310
0000
0010
0100
0001
0000
,
0020
0000
0130
0000
0100
0010
0001
0000
,
0002
0000
0103
0000
1000
0100
0002
0000
,
2003
0000
3002
0000
0103
0010
1000
0000
,
0200
0000
0310
0000
0000
0100
1000
0001
,
0020
0000
0130
0000
0000
0010
0001
1000
,
0020
0000
0130
0000
0100
0010
0100
0000
,
0002
0000
2003
0000
3010
0100
0001
0000
,
0020
0100
0032
0100
,
1003
0000
0100
0000
0100
0001
0100
0000
,
0100
1000
0020
0000
2030
0000
3100
0010
;

//---------------dance-single - ----------------
#NOTEDATA:;
#CHARTNAME:;
#STEPSTYPE:dance-single;
#DESCRIPTION:;
#CHARTSTYLE:;
#DIFFICULTY:Easy;
#METER:5;
#RADARVALUES:0.197118,0.283227,0.010375,0.477233,0.000000,133.000000,132.000000,1.000000,46.000000,0.000000,0.000000,0.000000,0.000000,0.000000,0.197118,0.283227,0.010375,0.477233,0.000000,133.000000,132.000000,1.000000,46.000000,0.000000,0.000000,0.000000,0.000000,0.000000;
#CREDIT:led_light;
#NOTES:
0000
0000
0000
0000
,
0000
0000
0000
0000
,
0000
0000
0000
0000
,
0000
0000
0000
0000
,
0000
0000
0000
0000
,
1001
0100
1000
0010
,
2000
3100
0002
0103
,
1000
1000
0010
0100
,
0002
0013
2000
3010
,
0002
0003
2000
3000
,
0020
0030
2000
3000
,
0200
0000
0300
0000
0000
0010
0200
0300
,
0020
0000
0030
0000
0001
0100
0010
0000
,
2000
3100
0200
0301
,
0002
0013
0020
1030
,
1000
0001
0010
0000
,
0001
1000
0010
0100
,
0002
0013
0020
1030
,
2000
3100
0200
0301
,
0001
1000
0200
0300
,
0020
0000
0100
0130
,
1000
0010
0100
0000
0001
1000
0100
0000
,
0010
0001
1000
0000
0001
0100
0010
1000
,
0002
0000
0023
0000
0130
1000
0001
0000
,
2000
0000
3000
0000
0010
0100
0010
0000
,
0020
0000
0030
0000
1000
0001
1000
0000
,
0002
0003
0020
0130
,
2000
0000
3020
0000
0130
0001
1000
0000
,
0002
0000
0003
0000
0010
0100
0010
0000
,
0020
0000
0030
0000
0001
1000
0001
0000
,
2000
3000
0020
0130
,
0002
0000
0023
0000
0130
1000
0001
0000
,
2000
0000
3000
0000
0000
0010
0100
0000
,
0020
0000
0030
0000
0000
1000
0100
0000
,
0020
0000
0030
0000
0001
0000
0001
0100
,
0002
0000
2003
0000
3100
1000
0010
0000
,
0002
0000
0023
0000
,
0130
0000
1000
0000
0100
0001
0010
0000
,
0200
0320
0032
2003
,
3000
0000
0000
0000
;

//---------------dance-single - ----------------
#NOTEDATA:;
#CHARTNAME:;
#STEPSTYPE:dance-single;
#DESCRIPTION:;
#CHARTSTYLE:;
#DIFFICULTY:Beginner;
#METER:3;
#RADARVALUES:0.112639,0.221109,0.031124,0.165994,0.000000,76.000000,73.000000,3.000000,16.000000,0.000000,0.000000,0.000000,0.000000,0.000000,0.112639,0.221109,0.031124,0.165994,0.000000,76.000000,73.000000,3.000000,16.000000,0.000000,0.000000,0.000000,0.000000,0.000000;
#CREDIT:led_light;
#NOTES:
0000
0000
0000
0000
,
0000
0000
0000
0000
,
0000
0000
0000
0000
,
0000
0000
0000
0000
,
0000
0000
0000
0000
,
1000
0000
1000
0000
,
0010
0100
0010
0000
,
0001
0000
0001
0000
,
0010
0100
0010
0000
,
0002
0003
0001
0000
,
1000
0000
0001
0000
,
0200
0300
0000
0010
,
0010
0000
0010
0000
,
2000
3000
0200
0300
,
0002
0003
0020
0030
,
2000
0000
0000
0000
,
3000
0000
1000
0000
,
0002
0003
0020
0030
,
2000
3000
0200
0300
,
0002
0000
0003
0000
,
0020
0000
0000
0030
,
0100
0100
0001
1000
,
0010
0000
0100
0000
0010
0010
0010
0000
,
1001
0000
0001
0000
,
0001
0000
1000
1000
,
1000
0000
0010
0010
,
0010
0000
0100
0000
,
1001
0000
0001
0000
,
0001
0000
0010
0010
,
0010
0000
0100
0100
,
0100
0000
0010
0000
,
0110
0000
0001
0000
,
1000
0000
0000
0010
,
0010
0000
0000
0100
,
0200
0000
0300
0000
,
0010
0000
0001
0000
,
0020
0000
0030
0000
,
1000
0000
1000
0000
,
0100
0000
0020
0030
;

//---------------dance-single - ----------------
#NOTEDATA:;
#CHARTNAME:;
#STEPSTYPE:dance-single;
#DESCRIPTION:;
#CHARTSTYLE:;
#DIFFICULTY:Challenge;
#METER:12;
#RADARVALUES:0.466858,0.727132,0.228242,0.726224,0.290490,315.000000,293.000000,22.000000,70.000000,0.000000,0.000000,0.000000,0.000000,0.000000,0.466858,0.727132,0.228242,0.726224,0.290490,315.000000,293.000000,22.000000,70.000000,0.000000,0.000000,0.000000,0.000000,0.000000;
#CREDIT:led_light;
#NOTES:
0000
0000
0000
0000
,
0000
0000
0000
0000
,
0000
0000
0000
0000
,
0000
0000
0000
0000
,
0000
0000
0000
0000
,
1000
0000
0100
0000
0010
0001
0000
0100
0001
1000
0010
0000
0100
0000
0001
0000
,
2000
0100
3002
0100
1003
0100
0010
0200
,
1300
0000
0010
0000
0001
0010
0000
0010
1000
0001
0010
0000
0100
0000
1000
0000
,
0002
0010
2003
0100
3001
0010
1000
0020
,
0001
0000
0031
0000
0100
0000
0010
1000
0020
0000
0000
0000
0130
0000
0001
0000
,
0021
0000
0000
0000
0130
0000
0010
0001
0020
0000
0000
0000
0130
0000
1000
0000
,
1010
0000
0100
0000
0010
1000
0000
1000
0100
0010
0100
0000
0022
0000
0033
0000
,
0100
1020
0200
0330
0010
1000
0001
0200
,
0010
0010
0301
2000
0100
0100
3001
0020
,
0100
0100
0031
2000
0010
3020
0230
0302
,
0013
0000
0010
0000
0100
1000
0000
1000
0001
1000
0010
0000
0110
0000
0001
0000
,
1000
0010
0100
0010
1000
0000
0001
0100
0010
0000
1000
0000
0001
0000
0020
0000
,
0100
0100
0031
2000
0010
0010
3001
0200
,
0010
0010
0301
2000
0100
3200
0320
0032
,
1003
0000
1000
0000
0010
0100
0000
0200
0000
0000
0310
0000
0120
0000
0000
1030
,
0000
1000
0001
0000
0021
0000
0000
0100
0000
0000
0031
0000
1001
0001
0100
0010
,
2000
0000
0000
0000
0000
0000
0000
0000
0000
0000
0000
0000
3000
0000
0000
0000
0000
0000
0000
0000
0000
0000
0000
0000
0100
0000
0000
0000
0000
0000
0010
0000
0000
0000
0000
0000
0000
0000
0000
0000
0000
0000
0010
0000
0000
0000
0000
0000
0100
0000
0000
0000
0000
0000
0000
0000
0000
0000
0000
0000
0000
0000
0000
0000
0000
0000
0000
0000
0000
0000
0000
0000
1000
0000
0000
0000
0000
0000
0000
0000
0010
0000
0000
0000
0000
0000
0000
0000
1000
0000
0000
0000
0000
0000
0000
0000
0010
0000
0000
0000
0000
0000
0000
0000
0000
0000
0000
0000
0000
0000
0000
0000
0000
0000
0000
0000
0000
0000
0000
0000
0001
0000
0000
0000
0000
0000
0000
0000
0010
0000
0000
0000
0000
0000
0000
0000
0001
0000
0000
0000
0000
0000
0000
0000
0010
0000
0000
0000
0000
0000
0000
0000
0000
0000
0000
0000
0000
0000
0000
0000
0000
0000
0000
0000
0000
0000
0000
0000
1000
0000
0000
0000
0000
0000
0000
0000
0100
0000
0000
0000
0000
0000
0000
0000
0010
0000
0000
0000
0000
0000
0000
0000
,
0100
0000
0000
0000
0000
0000
0000
0000
0000
0000
0000
0000
0000
0000
0000
0000
0000
0000
0000
0000
0000
0000
0000
0000
1000
0000
0000
0000
0000
0000
0000
0000
0010
0000
0000
0000
0000
0000
0000
0000
0100
0000
0000
0000
0000
0000
0000
0000
0010
0000
0000
0000
0000
0000
0000
0000
0000
0000
0000
0000
0000
0000
0000
0000
0000
0000
0000
0000
0000
0000
0000
0000
0001
0000
0000
0000
0000
0000
0000
0000
0010
0000
0000
0000
0000
0000
0000
0000
0100
0000
0000
0000
0000
0000
0000
0000
1000
0000
0000
0000
0000
0000
0000
0000
0100
0000
0000
0000
0000
0000
0000
0000
0010
0000
0000
0000
0000
0000
0000
0000
0001
0000
0000
0000
0000
0000
0000
0000
0010
0000
0000
0000
0000
0000
0000
0000
0100
0000
0000
0000
0000
0000
0000
0000
1000
0000
0000
0000
0000
0000
0000
0000
0000
0000
0000
0000
0000
0000
0000
0000
0000
0000
0000
0000
0000
0000
0000
0000
0100
0000
0000
0000
0000
0000
0001
0000
0000
0000
0000
0000
0100
0000
0000
0000
0000
0000
0001
0000
0000
0000
0000
0000
,
0020
0030
0220
0330
1000
0001
0100
0020
,
0000
1030
1001
0001
0010
1000
0010
0002
,
0000
0103
1001
1000
0010
0100
0001
2000
,
0000
0000
3010
0000
1001
0000
0002
0000
0023
0000
0230
0000
1300
0001
1000
0001
,
0200
0300
0220
0330
1000
0001
0010
0200
,
0010
1300
1001
0001
0100
1000
0100
0002
,
0100
0013
1001
1000
0100
0010
0001
2000
,
0100
0000
3100
0000
1001
0000
0002
0000
0203
0000
0320
0000
1030
0001
1000
0001
,
0020
0030
0220
0330
0001
0100
0010
2000
,
0000
3010
0100
2002
3003
0100
0010
0002
,
0000
0023
0230
0300
1001
0010
0100
2000
,
0000
0000
3001
0000
0022
0000
0033
0000
0010
0000
0100
0000
1000
0010
1000
0010
,
0200
0300
2002
3003
0001
0010
0100
2000
,
0010
0000
0000
0000
3001
0000
0010
0100
0020
0000
0030
0000
2100
0000
0000
0000
,
3001
0000
0100
0010
1000
0000
0010
0100
1000
0000
0100
0000
0020
0000
0031
0000
,
0002
0000
0013
0000
2000
0000
3010
0100
0001
0010
0100
0000
1000
0001
1000
0001
;

//---------------dance-double - ----------------
#NOTEDATA:;
#CHARTNAME:;
#STEPSTYPE:dance-double;
#DESCRIPTION:;
#CHARTSTYLE:;
#DIFFICULTY:Challenge;
#METER:12;
#RADARVALUES:0.460930,0.727132,0.228242,0.746973,0.280115,311.000000,289.000000,22.000000,72.000000,0.000000,0.000000,0.000000,0.000000,0.000000,0.460930,0.727132,0.228242,0.746973,0.280115,311.000000,289.000000,22.000000,72.000000,0.000000,0.000000,0.000000,0.000000,0.000000;
#CREDIT:led_light;
#NOTES:
00000000
00000000
00000000
00000000
,
00000000
00000000
00000000
00000000
,
00000000
00000000
00000000
00000000
,
00000000
00000000
00000000
00000000
,
00000000
00000000
00000000
00000000
,
10000000
00000000
00010000
00000000
00100000
01000000
00000000
00100000
00001000
00010000
00001000
00000000
00010000
00000000
00000010
00000000
,
00000020
00000100
00000230
00000001
00000301
00000010
00000100
00002000
,
00000001
00000000
00003001
00000000
00000010
00000001
00000000
00001000
00000100
00000010
00000100
00000000
00010000
00000000
00001000
00000000
,
00002000
00010000
00023000
00100000
00130000
10000000
00010000
00200000
,
01000000
00000000
01300000
00000000
10000000
00000000
00010000
00100000
00020000
00000000
00000000
00000000
01030000
00000000
00001000
00000000
,
00021000
00000000
00000000
00000000
00030010
00000000
00001000
00000100
00002000
00000000
00000000
00000000
00003001
00000000
00000100
00000000
,
00000110
00000000
00000010
00000000
00001000
00000001
00000000
00000001
00000010
00000100
00000010
00000000
00002200
00000000
00003300
00000000
,
00000010
00001020
00020000
00030030
00001000
00100000
00010000
02000000
,
00100000
03100000
10000000
02000000
00010000
03010000
00001000
00000200
,
00000001
00000301
00000010
00002000
00010000
00023000
02030000
03020000
,
00031000
00000000
00001000
00000000
00100000
00010000
00000000
01000000
00100000
01000000
00100000
00000000
01100000
00000000
00010000
00000000
,
10000000
00100000
01000000
00100000
10000000
00000000
00010000
00100000
01000000
00000000
00100000
00000000
01000000
00000000
20000000
00000000
,
00010000
30010000
01000000
00002000
00010000
00013000
00000100
00002000
,
00000010
00003010
00000100
00000002
00000010
00000023
00002030
00023000
,
00031000
00000000
00001000
00000000
00010000
00001000
00000000
00002000
00000000
00000000
00003010
00000000
00000120
00000000
00000000
00000031
,
00000000
00000001
00000100
00000000
00000120
00000000
00000000
00001000
00000000
00000000
00010030
00000000
00011000
00001000
00100000
00010000
,
20000000
00000000
00000000
00000000
00000000
00000000
00000000
00000000
00000000
00000000
00000000
00000000
30000000
00000000
00000000
00000000
00000000
00000000
00000000
00000000
00000000
00000000
00000000
00000000
01000000
00000000
00000000
00000000
00000000
00000000
00100000
00000000
00000000
00000000
00000000
00000000
00000000
00000000
00000000
00000000
00000000
00000000
00100000
00000000
00000000
00000000
00000000
00000000
01000000
00000000
00000000
00000000
00000000
00000000
00000000
00000000
00000000
00000000
00000000
00000000
00000000
00000000
00000000
00000000
00000000
00000000
00000000
00000000
00000000
00000000
00000000
00000000
10000000
00000000
00000000
00000000
00000000
00000000
00000000
00000000
01000000
00000000
00000000
00000000
00000000
00000000
00000000
00000000
00100000
00000000
00000000
00000000
00000000
00000000
00000000
00000000
00010000
00000000
00000000
00000000
00000000
00000000
00000000
00000000
00000000
00000000
00000000
00000000
00000000
00000000
00000000
00000000
00000000
00000000
00000000
00000000
00000000
00000000
00000000
00000000
01000000
00000000
00000000
00000000
00000000
00000000
00000000
00000000
00100000
00000000
00000000
00000000
00000000
00000000
00000000
00000000
01000000
00000000
00000000
00000000
00000000
00000000
00000000
00000000
00100000
00000000
00000000
00000000
00000000
00000000
00000000
00000000
00000000
00000000
00000000
00000000
00000000
00000000
00000000
00000000
00000000
00000000
00000000
00000000
00000000
00000000
00000000
00000000
00010000
00000000
00000000
00000000
00000000
00000000
00000000
00000000
00001000
00000000
00000000
00000000
00000000
00000000
00000000
00000000
00000100
00000000
00000000
00000000
00000000
00000000
00000000
00000000
,
00000010
00000000
00000000
00000000
00000000
00000000
00000000
00000000
00000000
00000000
00000000
00000000
00000000
00000000
00000000
00000000
00000000
00000000
00000000
00000000
00000000
00000000
00000000
00000000
00001000
00000000
00000000
00000000
00000000
00000000
00000000
00000000
00000100
00000000
00000000
00000000
00000000
00000000
00000000
00000000
00001000
00000000
00000000
00000000
00000000
00000000
00000000
00000000
00000100
00000000
00000000
00000000
00000000
00000000
00000000
00000000
00000000
00000000
00000000
00000000
00000000
00000000
00000000
00000000
00000000
00000000
00000000
00000000
00000000
00000000
00000000
00000000
00000010
00000000
00000000
00000000
00000000
00000000
00000000
00000000
00001000
00000000
00000000
00000000
00000000
00000000
00000000
00000000
00010000
00000000
00000000
00000000
00000000
00000000
00000000
00000000
01000000
00000000
00000000
00000000
00000000
00000000
00000000
00000000
00010000
00000000
00000000
00000000
00000000
00000000
00000000
00000000
00001000
00000000
00000000
00000000
00000000
00000000
00000000
00000000
00000010
00000000
00000000
00000000
00000000
00000000
00000000
00000000
00001000
00000000
00000000
00000000
00000000
00000000
00000000
00000000
00010000
00000000
00000000
00000000
00000000
00000000
00000000
00000000
01000000
00000000
00000000
00000000
00000000
00000000
00000000
00000000
00000000
00000000
00000000
00000000
00000000
00000000
00000000
00000000
00000000
00000000
00000000
00000000
00000000
00000000
00000000
00000000
10000000
00000000
00000000
00000000
00000000
00000000
00010000
00000000
00000000
00000000
00000000
00000000
10000000
00000000
00000000
00000000
00000000
00000000
00010000
00000000
00000000
00000000
00000000
00000000
,
00200000
00300000
02200000
03300000
10000000
00010000
01000000
00200000
,
00000000
10300000
11000000
01000000
00010000
00001000
00000100
00000002
,
00000000
00001003
00001001
00000001
00000010
00001000
00000010
00000002
,
00000000
00000000
00001003
00000000
00001100
00000000
00020000
00000000
00032000
00000000
00203000
00000000
00301000
00010000
00001000
00010000
,
00000020
00000030
00000220
00000330
00000001
00001000
00000100
00000020
,
00000001
00000031
00000101
00000100
00001000
00010000
01000000
20000000
,
00010000
30010000
10010000
10000000
00100000
00010000
00100000
20000000
,
00100000
00000000
30100000
00000000
01010000
00000000
00002000
00000000
00023000
00000000
00030020
00000000
00010030
00001000
00010000
00001000
,
00200000
00300000
00022000
00033000
00010000
01000000
10000000
00200000
,
00000000
00320000
00030000
02200000
03300000
10000000
00010000
00200000
,
00000000
00302000
00023000
00030000
00011000
00001000
00010000
00000020
,
00000000
00000000
00001030
00000000
00000202
00000000
00000303
00000000
00000001
00000000
00001000
00000000
00000100
00000010
00000100
00000010
,
00000200
00000300
00022000
00033000
00001000
00000010
00000001
00000200
,
00001000
00000000
00000000
00000000
00000310
00000000
00010000
00001000
00020000
00000000
00030000
00000000
00201000
00000000
00000000
00000000
,
01300000
00000000
10000000
01000000
10000000
00000000
01000000
00100000
00010000
00000000
01000000
00000000
00200000
00000000
00300000
00000000
,
20000000
00000000
31000000
00000000
00020000
00000000
00031000
00000000
00000200
00000000
00000301
00000000
00000010
00000100
00000010
00000100
;

//---------------dance-double - ----------------
#NOTEDATA:;
#CHARTNAME:;
#STEPSTYPE:dance-double;
#DESCRIPTION:;
#CHARTSTYLE:;
#DIFFICULTY:Hard;
#METER:11;
#RADARVALUES:0.394236,0.706934,0.186743,0.539481,0.165994,266.000000,248.000000,18.000000,52.000000,0.000000,0.000000,0.000000,0.000000,0.000000,0.394236,0.706934,0.186743,0.539481,0.165994,266.000000,248.000000,18.000000,52.000000,0.000000,0.000000,0.000000,0.000000,0.000000;
#CREDIT:led_light;
#NOTES:
00000000
00000000
00000000
00000000
,
00000000
00000000
00000000
00000000
,
00000000
00000000
00000000
00000000
,
00000000
00000000
00000000
00000000
,
00000000
00000000
00000000
00000000
,
00010000
00000000
00001000
00000000
00011000
00000000
00000000
00000000
00100000
00010000
00100000
00000000
01000000
00000000
10000000
00000000
,
00200000
00000000
00320000
00000000
00031000
00000100
00000001
00002000
,
00000010
00000000
00003010
00000000
00000100
00000001
00000000
00000000
00000010
00000100
00000010
00000000
00000100
00000000
00001000
00000000
,
00000002
00000000
00000023
00000000
00001030
00010000
00100000
01000000
,
00200000
00000000
00000000
00000000
00310000
00000000
00001000
00010000
00002000
00000000
00000000
00000000
00103000
00000000
01000000
00000000
,
20000000
00000000
00000000
00000000
30010000
00000000
01000000
00100000
02000000
00000000
00000000
00000000
03001000
00000000
00010000
00000000
,
00002000
00000000
00003100
00000000
00000010
00001000
00000220
00000330
,
00000100
00000002
00000010
00000003
00000100
00010000
00001000
00200000
,
00010000
00300000
00001000
00020000
00100000
00030000
00001000
00020000
,
01000000
00030000
00010000
00002000
00000000
00013000
01000000
10000000
,
00100000
00000000
00100000
00000000
00010000
00001000
00000000
00001000
00010000
00000000
00000000
00000000
00011000
00000000
00100000
00000000
,
00010000
10000000
00100000
00100000
01000000
00001000
00010000
00000020
,
00001000
00000030
00010000
00002000
00000010
00003000
00010000
00002000
,
00000100
00003000
00001000
00020000
00000000
00031000
00000100
00000001
,
00000010
00000000
00000010
00000000
00001000
00000010
00000000
00000002
00000000
00000000
00000013
00000000
00000110
00000000
00000000
00020000
,
00000000
00000000
00031000
00000000
00001200
00000000
00000000
00000001
00000000
00000000
00000310
00000000
00000110
00000000
00000001
00000000
,
00001000
00000000
00000000
00000000
00000000
00000000
00000000
00000000
00000000
00000000
00000000
00000000
00000000
00000000
00000000
00000000
00000000
00000000
00000000
00000000
00000000
00000000
00000000
00000000
00000100
00000000
00000000
00000000
00000000
00000000
00000010
00000000
00000000
00000000
00000000
00000000
00000000
00000000
00000000
00000000
00000000
00000000
00000010
00000000
00000000
00000000
00000000
00000000
00000100
00000000
00000000
00000000
00000000
00000000
00000000
00000000
00000000
00000000
00000000
00000000
00000000
00000000
00000000
00000000
00000000
00000000
00000000
00000000
00000000
00000000
00000000
00000000
00010000
00000000
00000000
00000000
00000000
00000000
00000000
00000000
00001000
00000000
00000000
00000000
00000000
00000000
00000000
00000000
00010000
00000000
00000000
00000000
00000000
00000000
00000000
00000000
00001000
00000000
00000000
00000000
00000000
00000000
00000000
00000000
00000000
00000000
00000000
00000000
00000000
00000000
00000000
00000000
00000000
00000000
00000000
00000000
00000000
00000000
00000000
00000000
00100000
00000000
00000000
00000000
00000000
00000000
00000000
00000000
00010000
00000000
00000000
00000000
00000000
00000000
00000000
00000000
00100000
00000000
00000000
00000000
00000000
00000000
00000000
00000000
00010000
00000000
00000000
00000000
00000000
00000000
00000000
00000000
00000000
00000000
00000000
00000000
00000000
00000000
00000000
00000000
00000000
00000000
00000000
00000000
00000000
00000000
00000000
00000000
01000000
00000000
00000000
00000000
00000000
00000000
00000000
00000000
00100000
00000000
00000000
00000000
00000000
00000000
00000000
00000000
01000000
00000000
00000000
00000000
00000000
00000000
00000000
00000000
,
00100000
00000000
00000000
00000000
00000000
00000000
00000000
00000000
00000000
00000000
00000000
00000000
00000000
00000000
00000000
00000000
00000000
00000000
00000000
00000000
00000000
00000000
00000000
00000000
10000000
00000000
00000000
00000000
00000000
00000000
00000000
00000000
01000000
00000000
00000000
00000000
00000000
00000000
00000000
00000000
10000000
00000000
00000000
00000000
00000000
00000000
00000000
00000000
01000000
00000000
00000000
00000000
00000000
00000000
00000000
00000000
00000000
00000000
00000000
00000000
00000000
00000000
00000000
00000000
00000000
00000000
00000000
00000000
00000000
00000000
00000000
00000000
00010000
00000000
00000000
00000000
00000000
00000000
00000000
00000000
00001000
00000000
00000000
00000000
00000000
00000000
00000000
00000000
00010000
00000000
00000000
00000000
00000000
00000000
00000000
00000000
00000100
00000000
00000000
00000000
00000000
00000000
00000000
00000000
00001000
00000000
00000000
00000000
00000000
00000000
00000000
00000000
00000100
00000000
00000000
00000000
00000000
00000000
00000000
00000000
00010000
00000000
00000000
00000000
00000000
00000000
00000000
00000000
00001000
00000000
00000000
00000000
00000000
00000000
00000000
00000000
00010000
00000000
00000000
00000000
00000000
00000000
00000000
00000000
00000010
00000000
00000000
00000000
00000000
00000000
00000000
00000000
00000000
00000000
00000000
00000000
00000000
00000000
00000000
00000000
00000000
00000000
00000000
00000000
00000000
00000000
00000000
00000000
00000100
00000000
00000000
00000000
00000000
00000000
00000010
00000000
00000000
00000000
00000000
00000000
00000100
00000000
00000000
00000000
00000000
00000000
00000000
00000000
00000000
00000000
00000000
00000000
,
00000020
00000030
00002002
00003003
00000001
00000010
00000100
00020000
,
00000000
00031000
00011000
00001000
01000000
00100000
10000000
00020000
,
00000000
10030000
10100000
00100000
00010000
00001000
00010000
02000000
,
00000000
03100000
01100000
00010000
00100000
01000000
20000000
00000000
,
30200000
00300000
20020000
30030000
10000000
00100000
01000000
00002000
,
00000000
00013000
00011000
00010000
00000100
00000010
00000001
00002000
,
00000000
00003001
00000011
00000010
00001000
00010000
00001000
00000200
,
00000000
00000310
00000110
00001000
00000010
00000100
00000001
00000010
,
00000200
00000300
00002002
00003003
00000001
00000010
00001000
00020000
,
00000000
00130000
01000000
10010000
00000000
01000000
00010000
00002000
,
00000000
00000100
00000200
00003300
00000110
00000010
00001000
00000002
,
00000000
00000100
00000200
00000303
00000010
00000010
00001000
00000100
,
00000020
00000030
00002002
00003003
00000001
00000010
00000100
00020000
,
00001000
00000000
00000000
00000000
00031000
00000000
01000000
00010000
02000000
00000000
00000000
00000000
03200000
00000000
00000000
00000000
,
10300000
00000000
01000000
00010000
00001000
00010000
02000000
03000000
,
10000000
00000000
00100000
00000000
00010000
00000000
00001000
00000000
00000010
00000000
00000001
00000000
00000100
00000010
00000100
00000010
;

//---------------dance-double - ----------------
#NOTEDATA:;
#CHARTNAME:;
#STEPSTYPE:dance-double;
#DESCRIPTION:;
#CHARTSTYLE:;
#DIFFICULTY:Medium;
#METER:8;
#RADARVALUES:0.277151,0.483976,0.000000,0.518731,0.036311,187.000000,187.000000,0.000000,50.000000,0.000000,0.000000,0.000000,0.000000,0.000000,0.277151,0.483976,0.000000,0.518731,0.036311,187.000000,187.000000,0.000000,50.000000,0.000000,0.000000,0.000000,0.000000,0.000000;
#CREDIT:led_light;
#NOTES:
00000000
00000000
00000000
00000000
,
00000000
00000000
00000000
00000000
,
00000000
00000000
00000000
00000000
,
00000000
00000000
00000000
00000000
,
00000000
00000000
00000000
00000000
,
00010000
00010000
00010000
00000000
10000000
01000000
00010000
01000000
,
20000000
00000000
30200000
00000000
00310000
00001000
00000010
00000010
,
00000200
00000000
00000310
00000000
00000001
00000010
00001000
00000010
,
00000002
00000000
00000203
00000000
00001300
00010000
01000000
02000000
,
00100000
00000000
13000000
00010000
00200000
00000000
01300000
10000000
,
00200000
00000000
01300000
00001000
00020000
00000000
00030100
00010000
,
00002000
00000000
00000100
00000000
00003100
00000001
00000200
00000300
,
00000100
00002000
00000100
00003000
00000001
00001000
00000010
00000000
,
00000200
00000000
00000301
00001000
00000002
00000000
00000103
00001000
,
00020000
00000000
01030000
10000000
00200000
00000000
00320000
00000000
,
00032000
01000000
00000000
01000000
,
00023000
00000000
00000100
00000000
00031000
00010000
00001000
00000000
,
00000020
00000000
00000031
00001000
00000002
00000000
00000013
00001000
,
00020000
00000000
00130000
00010000
00002000
00000000
00023000
00000000
,
00032000
01000000
00023000
00000000
,
02030000
00100000
00000000
03100000
,
01000000
00000000
10000000
00010000
10000000
00000000
01000000
00010000
01000000
00000000
00100000
00010000
00100000
00000000
00001000
00010000
,
00001000
00000000
00000100
00000010
00000100
00000000
00000001
00001000
00000001
00000000
00001000
00000001
00001000
00000000
00000001
00000000
,
00000020
00000000
00000230
00000000
00010300
00001000
00010000
00000000
,
00002000
00000000
00013000
00000000
00010000
01000000
10000000
00000000
,
00020000
00000000
10030000
00000000
10000000
00100000
00010000
00000000
,
00200000
00000000
01300000
00000000
01000000
00010000
20000000
00000000
,
32000000
00000000
03200000
00000000
00301000
00010000
00001000
00000000
,
00020000
00000000
00031000
00000000
00001000
00000010
00000001
00000000
,
00002000
00000000
00003001
00000000
00000001
00000100
00001000
00000000
,
00000200
00000000
00000310
00000000
00000010
00001000
00000002
00000000
,
00000023
00000000
00002030
00000000
00013000
00001000
00010000
00000000
,
00200000
00000000
10300000
00000000
00000000
00010000
00100000
01000000
,
20000000
00000000
30010000
00000000
00000000
01000000
00100000
00010000
,
00002000
00000000
00013000
00000000
00010000
00001000
00010000
00000000
,
00200000
00000000
02300000
00000000
03001000
00010000
00000010
00000000
,
00020000
00001000
00030200
00000010
,
00010300
00000000
00010000
00000000
00001000
00010000
00100000
00000000
,
00010000
00001000
00000020
00000000
00000230
00000000
00001300
00000001
;

//---------------dance-double - ----------------
#NOTEDATA:;
#CHARTNAME:;
#STEPSTYPE:dance-double;
#DESCRIPTION:;
#CHARTSTYLE:;
#DIFFICULTY:Easy;
#METER:5;
#RADARVALUES:0.180815,0.222536,0.010375,0.446109,0.000000,122.000000,121.000000,1.000000,43.000000,0.000000,0.000000,0.000000,0.000000,0.000000,0.180815,0.222536,0.010375,0.446109,0.000000,122.000000,121.000000,1.000000,43.000000,0.000000,0.000000,0.000000,0.000000,0.000000;
#CREDIT:led_light;
#NOTES:
// measure 0
00000000
00000000
00000000
00000000
,  // measure 1
00000000
00000000
00000000
00000000
,  // measure 2
00000000
00000000
00000000
00000000
,  // measure 3
00000000
00000000
00000000
00000000
,  // measure 4
00000000
00000000
00000000
00000000
,  // measure 5
00011000
00001000
00010000
00010000
,  // measure 6
00001000
00010000
00001000
00000010
,  // measure 7
00000002
00000003
00000010
00000100
,  // measure 8
00000010
00000010
00000100
00010000
,  // measure 9
00002000
00003000
00020000
00030000
,  // measure 10
02000000
03000000
20000000
30000000
,  // measure 11
00200000
00000000
00300000
00000000
00000000
10000000
00020000
00030000
,  // measure 12
20000000
00000000
30000000
00000000
01000000
00100000
01000000
00000000
,  // measure 13
00200000
00300000
00002000
00003000
,  // measure 14
00020000
00030000
00000020
00000030
,  // measure 15
00001000
00001000
00001000
00000000
,  // measure 16
00000001
00000001
00000001
00000010
,  // measure 17
00000200
00000300
00020000
00030000
,  // measure 18
00002000
00003000
02000000
03000000
,  // measure 19
00010000
00010000
00020000
00030000
,  // measure 20
20000000
00000000
01000000
31000000
,  // measure 21
00100000
00100000
01000000
01000000
,  // measure 22
00010000
00000000
00010000
00000000
00001000
00001000
00001000
00000000
,  // measure 23
00020000
00000000
00030020
00000000
00010030
00001000
00010000
00000000
,  // measure 24
02000000
00000000
03000000
00000000
00010000
00001000
00010000
00000000
,  // measure 25
00002000
00000000
00003000
00000000
00000010
00000100
00000010
00000000
,  // measure 26
00000002
00000003
00000200
00001300
,  // measure 27
00002000
00000000
00203000
00000000
00301000
00010000
00001000
00000000
,  // measure 28
00000200
00000000
00000300
00000000
00001000
00010000
00001000
00000000
,  // measure 29
00020000
00000000
00030000
00000000
00100000
01000000
00100000
00000000
,  // measure 30
20000000
30000000
02000000
03010000
,  // measure 31
00020000
00000000
00032000
00000000
00103000
00010000
01000000
00000000
,  // measure 32
00200000
00000000
00300000
00000000
00000000
00010000
00001000
00000000
,  // measure 33
00020000
00000000
00030000
00000000
00000000
00000010
00000100
00000000
,  // measure 34
00000002
00000000
00000003
00000000
00000010
00000000
00000010
00000100
,  // measure 35
00000020
00000000
00002030
00000000
00013000
00100000
00010000
00000000
,  // measure 36
00200000
01000000
20300000
01000000
,  // measure 37
30010000
00000000
00010000
00000000
00100000
01000000
10000000
00000000
,  // measure 38
00200000
00320000
00032000
00023000
,  // measure 39
00030000
00000000
00000000
00000000
;
