#TITLE:I Want You Back;
#SUBTITLE:;
#ARTIST:*NSYNC;
#TITLETRANSLIT:;
#SUBTITLETRANSLIT:;
#ARTISTTRANSLIT:;
#GENRE:Popular Songs;
#CREDIT:;
#BANNER:I Want You Back.png;
#BACKGROUND:I Want You Back-bg.png;
#LYRICSPATH:;
#CDTITLE:../cdtitle.png;
#MUSIC:I Want You Back.ogg;
#OFFSET:-0.113000;
#SAMPLESTART:93.003998;
#SAMPLELENGTH:15.000000;
#SELECTABLE:YES;
#BPMS:0.000000=112.050003
;
#STOPS:
;
#BGCHANGES:-0.250=I Want You Back.avi=1.000=0=0=0=StretchNoLoop====,
99999=-nosongbg-=1.000=0=0=0 // don't automatically add -songbackground-
;
#KEYSOUNDS:;
#ATTACKS:;

//---------------dance-single - ----------------
#NOTES:
     dance-single:
     :
     Beginner:
     1:
     0.059289,0.091142,0.000000,0.089515,0.000000,51.000000,51.000000,0.000000,11.000000,0.000000,0.000000,0.059289,0.091142,0.000000,0.089515,0.000000,51.000000,51.000000,0.000000,11.000000,0.000000,0.000000:
// measure 0
0000
0000
0000
0000
,  // measure 1
0000
0000
0000
0000
,  // measure 2
0000
0000
0000
0000
,  // measure 3
0000
0000
0000
0000
,  // measure 4
0000
0000
0000
0000
,  // measure 5
0000
0000
0000
0000
,  // measure 6
0000
0000
0000
0000
,  // measure 7
0000
0000
0000
0000
,  // measure 8
1000
0000
1000
0000
,  // measure 9
0000
0000
0000
0000
,  // measure 10
0001
0000
0001
0000
,  // measure 11
0000
0000
0000
0000
,  // measure 12
1000
0000
0000
0000
,  // measure 13
0100
0000
0000
0000
,  // measure 14
1000
0000
0000
0000
,  // measure 15
0010
0000
0000
0000
,  // measure 16
0100
0000
0000
0000
,  // measure 17
0001
0000
0000
0000
,  // measure 18
0010
0000
0000
0000
,  // measure 19
0001
0000
1000
0000
,  // measure 20
0001
0000
0000
0000
,  // measure 21
0100
0000
0000
0000
,  // measure 22
0001
0000
0000
0000
,  // measure 23
0010
0000
0000
0000
,  // measure 24
0100
0000
0000
0000
,  // measure 25
1000
0000
0000
0000
,  // measure 26
0020
0000
0000
0000
,  // measure 27
0030
0000
1000
0000
,  // measure 28
0002
0000
0000
0003
,  // measure 29
0000
0000
0001
0000
,  // measure 30
2000
0000
0000
3000
,  // measure 31
0000
0000
0001
0000
,  // measure 32
0020
0000
0030
0000
,  // measure 33
0100
0000
0010
0000
,  // measure 34
0001
0000
0001
0000
,  // measure 35
0000
0000
0000
0000
,  // measure 36
1000
0000
1000
0000
,  // measure 37
0000
0000
0000
0000
,  // measure 38
0200
0000
0000
0000
,  // measure 39
0300
0000
0000
0000
,  // measure 40
0002
0000
0000
0000
,  // measure 41
0003
0000
0000
0000
,  // measure 42
0020
0000
0000
0000
,  // measure 43
0030
0000
1000
0000
,  // measure 44
0002
0000
0000
0003
,  // measure 45
0000
0000
0001
0000
,  // measure 46
2000
0000
0000
3000
,  // measure 47
0000
0000
0001
0000
,  // measure 48
0020
0000
0030
0000
,  // measure 49
0100
0000
0010
0000
,  // measure 50
0001
0000
0000
0000
,  // measure 51
0001
0000
0000
0000
,  // measure 52
1000
0000
0000
0000
,  // measure 53
1000
0000
0000
0000
,  // measure 54
0020
0000
0030
0000
,  // measure 55
0100
0000
0010
0000
,  // measure 56
0100
0000
0000
0000
;

//---------------dance-single - ----------------
#NOTES:
     dance-single:
     :
     Easy:
     4:
     0.175542,0.205070,0.000000,0.203442,0.000000,151.000000,151.000000,0.000000,25.000000,0.000000,0.000000,0.175542,0.205070,0.000000,0.203442,0.000000,151.000000,151.000000,0.000000,25.000000,0.000000,0.000000:
// measure 0
0000
0000
0000
0000
,  // measure 1
0000
0000
0000
0000
,  // measure 2
0000
0000
0000
0000
,  // measure 3
0000
0000
0000
0000
,  // measure 4
0000
0000
0000
0000
,  // measure 5
0000
0000
0000
0000
,  // measure 6
0020
0000
0230
0000
,  // measure 7
0020
0000
0000
0330
,  // measure 8
1000
0001
1000
1000
,  // measure 9
0001
0000
0001
0000
,  // measure 10
0010
0100
0010
0010
,  // measure 11
0100
0000
0100
0000
,  // measure 12
2000
3000
0001
0010
,  // measure 13
0100
0100
0200
0300
,  // measure 14
0010
0000
0001
1000
,  // measure 15
0010
0100
0010
0100
,  // measure 16
0001
0000
1000
0100
,  // measure 17
0002
0003
0200
0300
,  // measure 18
0020
0000
0001
0000
,  // measure 19
2000
3000
0200
0330
,  // measure 20
0002
0003
1000
0100
,  // measure 21
0010
0010
0020
0030
,  // measure 22
0100
0000
1000
0001
,  // measure 23
0100
0010
0100
0010
,  // measure 24
1000
0000
0001
0010
,  // measure 25
2000
3000
0020
0030
,  // measure 26
0200
0000
2300
0000
,  // measure 27
3002
0000
0103
0010
,  // measure 28
1000
0001
1000
1000
,  // measure 29
0002
0003
1000
0010
,  // measure 30
0001
0100
1000
1000
,  // measure 31
0002
0003
1000
0100
,  // measure 32
0001
1000
0010
0010
,  // measure 33
0001
0000
1000
0000
,  // measure 34
0001
1000
0001
0001
,  // measure 35
1000
0000
1000
0000
,  // measure 36
0010
0100
0010
0010
,  // measure 37
0100
0000
0100
0000
,  // measure 38
0001
0000
1000
0010
,  // measure 39
0001
0010
2000
3000
,  // measure 40
0001
0000
1000
0100
,  // measure 41
0001
0100
2000
3000
,  // measure 42
0001
0010
1000
1000
,  // measure 43
0002
0003
0100
1000
,  // measure 44
0001
1000
0001
0001
,  // measure 45
2000
3000
0001
0100
,  // measure 46
1000
0010
0001
0001
,  // measure 47
2000
3000
0001
0010
,  // measure 48
1000
0001
0100
0100
,  // measure 49
1000
0000
0001
0000
,  // measure 50
1000
0000
0100
0010
,  // measure 51
0001
0001
0002
0003
,  // measure 52
0001
0000
0010
0100
,  // measure 53
1000
1000
1000
0010
,  // measure 54
0001
1000
0100
0100
,  // measure 55
0001
0000
1000
0000
,  // measure 56
0100
0000
0000
0000
;

//---------------dance-single - ----------------
#NOTES:
     dance-single:
     :
     Medium:
     6:
     0.256918,0.273426,0.105790,0.439435,0.000000,221.000000,208.000000,13.000000,54.000000,0.000000,0.000000,0.256918,0.273426,0.105790,0.439435,0.000000,221.000000,208.000000,13.000000,54.000000,0.000000,0.000000:
// measure 0
0000
0000
0000
0000
,  // measure 1
0000
0000
0000
0000
,  // measure 2
0000
0000
0000
0000
,  // measure 3
0000
0000
0000
0000
,  // measure 4
0000
0000
0000
0000
,  // measure 5
0000
0000
0000
0000
,  // measure 6
2000
3020
0032
0203
,  // measure 7
2000
0300
0001
3001
,  // measure 8
1001
0000
0100
0010
1000
0000
0100
0000
,  // measure 9
0002
0013
2000
3100
,  // measure 10
1001
0000
0010
0100
0001
0000
0010
0000
,  // measure 11
2000
3100
0002
0013
,  // measure 12
1001
0000
0100
0000
0001
1000
0100
0000
,  // measure 13
0020
0032
2003
3100
,  // measure 14
0001
0000
0100
0000
1000
0010
0001
0000
,  // measure 15
0020
0000
2030
0000
3002
0000
0013
0100
,  // measure 16
1000
0000
0000
0000
0001
1000
0100
0000
,  // measure 17
0020
0130
2000
3001
,  // measure 18
2000
0100
0001
0100
,  // measure 19
3020
0100
2030
0100
,  // measure 20
3001
0000
0010
0000
0001
1000
0010
0000
,  // measure 21
0200
0302
2003
3010
,  // measure 22
0001
0000
0010
0000
1000
0100
0001
0000
,  // measure 23
0200
0000
2300
0000
3002
0000
0103
0010
,  // measure 24
2000
0000
3000
0000
0001
1000
0010
0000
,  // measure 25
0200
0310
2000
3001
,  // measure 26
2000
0100
3002
0100
,  // measure 27
0023
0000
0100
0000
0031
0100
0010
0000
,  // measure 28
2000
0100
0010
0100
,  // measure 29
0002
0000
3003
0000
0100
0010
1000
0000
,  // measure 30
0002
0100
0010
0100
,  // measure 31
2000
0000
3003
0000
1000
0100
0001
0000
,  // measure 32
0200
0001
1000
0310
,  // measure 33
1001
0000
0110
0000
,  // measure 34
1001
0000
0010
0100
1000
0000
0010
0000
,  // measure 35
0002
0103
2000
3010
,  // measure 36
1001
0000
0100
0010
0001
0000
0100
0000
,  // measure 37
2000
3010
0002
0103
,  // measure 38
2001
0100
0010
0100
,  // measure 39
0001
0100
0010
0100
,  // measure 40
3002
0100
0010
0100
,  // measure 41
1000
0100
0010
0100
,  // measure 42
2003
0100
3020
0100
,  // measure 43
2030
0000
0100
0000
3001
0100
0010
0000
,  // measure 44
2000
0010
0100
0010
,  // measure 45
0002
0000
3003
0000
0010
0100
1000
0000
,  // measure 46
0002
0010
0100
0010
,  // measure 47
2000
0000
3003
0000
1000
0010
0001
0000
,  // measure 48
0020
0001
1000
0130
,  // measure 49
1001
0000
0110
0000
,  // measure 50
1001
0000
0100
0000
0010
0100
0010
0000
,  // measure 51
0002
0010
1000
0100
,  // measure 52
1003
0000
0000
0000
0010
0100
0010
0000
,  // measure 53
2000
0000
0010
0000
3001
0010
1000
0000
,  // measure 54
0020
1000
0001
0130
,  // measure 55
1001
0000
0010
0000
,  // measure 56
1001
0000
0000
0000
;

//---------------dance-single - ----------------
#NOTES:
     dance-single:
     :
     Hard:
     9:
     0.384796,0.410140,0.146478,0.382471,0.000000,331.000000,313.000000,18.000000,47.000000,0.000000,0.000000,0.384796,0.410140,0.146478,0.382471,0.000000,331.000000,313.000000,18.000000,47.000000,0.000000,0.000000:
// measure 0
0000
0000
0000
0000
,  // measure 1
0000
0000
0000
0000
,  // measure 2
0000
0000
0000
0000
,  // measure 3
0000
0000
0000
0000
,  // measure 4
0000
0000
0000
0000
,  // measure 5
0000
0000
0000
0000
,  // measure 6
2000
3200
0302
0023
,  // measure 7
2030
0100
0001
3010
,  // measure 8
0110
0010
1000
0100
0001
0100
1000
0010
,  // measure 9
0010
0000
0001
0010
1000
0100
0001
0000
,  // measure 10
0110
0010
0001
0100
1000
0100
0001
0010
,  // measure 11
0010
0000
1000
0010
0001
0100
1000
0100
,  // measure 12
1001
0000
0100
1000
0010
1000
0100
0001
,  // measure 13
0200
2300
3020
0031
,  // measure 14
0010
0000
1000
0001
0010
0100
1000
0100
,  // measure 15
0020
0000
0032
0000
0203
0000
1300
0100
,  // measure 16
0001
0000
0001
0000
1000
0100
0010
0200
,  // measure 17
1000
0300
1000
0002
0100
0003
0100
0020
,  // measure 18
1000
0000
0001
0000
0130
0001
0010
0001
,  // measure 19
2000
0000
3010
0010
0002
0000
0013
0010
,  // measure 20
2000
0000
3100
0010
0001
0010
1000
0010
,  // measure 21
0002
0023
0230
1300
,  // measure 22
0001
0000
1000
0100
0010
0001
0100
0010
,  // measure 23
2000
0000
3200
0000
0302
0000
0103
1000
,  // measure 24
2000
0000
3001
0000
1000
0010
0100
0010
,  // measure 25
1000
0001
0000
0001
0010
0100
1000
0001
,  // measure 26
2000
0100
3002
0100
,  // measure 27
2003
0000
0010
0000
3001
0010
0100
1000
,  // measure 28
2100
0000
3001
1000
0010
0100
0010
1000
,  // measure 29
2000
0000
3001
0010
0100
0010
0001
1000
,  // measure 30
0020
0000
0031
0010
1000
1000
0100
0010
,  // measure 31
0002
0000
1003
0001
0100
0010
1000
0001
,  // measure 32
0200
0000
0310
1000
0100
0001
0100
1000
,  // measure 33
1002
0013
2001
3010
,  // measure 34
0110
0100
0001
0010
1000
0010
0001
0100
,  // measure 35
0100
0000
1000
0100
0001
0010
1000
0000
,  // measure 36
0110
0100
1000
0010
0001
0010
1000
0100
,  // measure 37
0100
0000
0001
0100
1000
0010
0001
0000
,  // measure 38
0110
0000
0001
1000
0100
1000
0010
0100
,  // measure 39
0010
1000
0100
0010
0001
0100
0010
0000
,  // measure 40
0110
0000
1000
0001
0100
0001
0010
0100
,  // measure 41
0010
0001
0100
0010
1000
0100
0010
0000
,  // measure 42
0120
0000
0031
1000
0100
1000
0010
0100
,  // measure 43
0002
0000
0013
0100
1000
0100
0010
0001
,  // measure 44
0012
0000
1003
0010
0100
0010
1000
0100
,  // measure 45
0001
0000
0100
1000
0010
0001
0010
1000
,  // measure 46
0002
0000
0013
0100
1000
0010
1000
0100
,  // measure 47
0010
0000
0001
1000
0010
0100
0001
1000
,  // measure 48
0020
0000
0130
0001
0010
1000
0010
0001
,  // measure 49
2001
3100
1002
0103
,  // measure 50
0110
0000
0001
1000
0010
1000
0001
0010
,  // measure 51
0200
2300
3002
0023
,  // measure 52
0130
0000
1000
0001
0010
0001
1000
0010
,  // measure 53
0200
0000
0301
1000
0001
0010
0100
1000
,  // measure 54
0002
0000
1003
0010
0001
0010
1000
0100
,  // measure 55
0110
0000
1001
0000
,  // measure 56
0110
0000
0000
0000
;

//---------------dance-single - ----------------
#NOTES:
     dance-single:
     :
     Challenge:
     11:
     0.453386,0.432925,0.122065,0.398747,0.040688,390.000000,375.000000,15.000000,49.000000,36.000000,0.000000,0.453386,0.432925,0.122065,0.398747,0.040688,390.000000,375.000000,15.000000,49.000000,36.000000,0.000000:
// measure 0
0000
0000
0000
0000
,  // measure 1
0000
0000
0000
0000
,  // measure 2
0000
0000
0000
0000
,  // measure 3
0000
0000
0000
0000
,  // measure 4
0000
0000
0000
0000
,  // measure 5
0000
0000
0000
0000
,  // measure 6
0002
2003
3020
0032
,  // measure 7
0203
0000
2000
3000
0002
0003
0020
0330
,  // measure 8
0100
0001
0000
0100
1000
0000
0010
0000
0001
0000
0010
0000
1000
0000
0100
0000
,  // measure 9
0001
0100
1000
0010
0001
0010
1000
MMMM
,  // measure 10
0100
1000
0000
0100
0001
0000
0010
0000
1000
0000
0010
0000
0001
0000
0100
0000
,  // measure 11
1000
0100
0001
0010
1000
0010
0001
MMMM
,  // measure 12
0110
0000
1000
0010
0100
0001
0010
0100
,  // measure 13
2000
0100
3002
0010
2003
0100
3001
0100
,  // measure 14
0010
1000
1000
0100
0010
0001
0100
0010
,  // measure 15
2000
0010
3002
0100
2003
0010
3001
0010
,  // measure 16
1000
MMMM
0001
1000
0100
1000
0010
0100
,  // measure 17
0020
0100
1030
0001
0020
0100
0031
1000
,  // measure 18
2000
0100
3010
0100
0200
1000
0310
1000
,  // measure 19
2000
0010
3010
0001
0020
1000
1030
0001
,  // measure 20
0220
0330
1000
0100
0010
0001
0100
0010
,  // measure 21
2000
0010
3002
0100
2003
0010
3001
0010
,  // measure 22
0100
1000
1000
0010
0100
0001
0010
0100
,  // measure 23
2000
0100
3002
0010
2003
0100
3001
0100
,  // measure 24
2000
0100
3100
0001
1000
0010
0100
0010
,  // measure 25
2000
0100
3100
0001
0200
1000
1300
0001
,  // measure 26
0200
1000
1300
0100
0020
0001
0031
0010
,  // measure 27
0200
1000
1300
0100
0001
0010
0100
1000
,  // measure 28
1100
0100
0001
0100
1000
0100
0001
0100
,  // measure 29
2000
0000
0000
3001
0010
0000
1000
0000
0010
0000
0001
0000
1000
0000
0010
0000
,  // measure 30
0002
0013
1000
0010
0001
0010
2000
3200
,  // measure 31
0302
0203
1300
0010
0001
1000
0001
0010
,  // measure 32
1000
0100
0001
1000
0001
0100
1000
0001
,  // measure 33
1001
0010
0100
0010
1001
1000
0100
MMMM
,  // measure 34
0010
0001
0000
0010
1000
0000
0100
0000
0001
0000
0100
0000
1000
0000
0010
0000
,  // measure 35
0001
0010
1000
0100
0001
0100
1000
MMMM
,  // measure 36
0010
1000
0000
0010
0001
0000
0100
0000
1000
0000
0100
0000
0001
0000
0010
0000
,  // measure 37
1000
0010
0001
0100
1000
0100
0001
MMMM
,  // measure 38
0110
0000
1000
0100
0001
0010
0001
0100
,  // measure 39
1000
0010
0001
0100
0001
0010
1000
0000
,  // measure 40
0110
0000
0001
0010
1000
0100
1000
0010
,  // measure 41
0001
0100
1000
0010
1000
0100
0001
0000
,  // measure 42
0110
0000
1000
0100
0001
1000
0010
0001
,  // measure 43
2000
0000
3010
0001
1000
0100
0001
0010
,  // measure 44
0011
0010
1000
0010
0001
0010
1000
0010
,  // measure 45
0001
0000
0001
1000
0100
0000
0001
0000
0100
0000
1000
0000
0001
0000
0100
0000
,  // measure 46
2000
3100
0001
0100
1000
0100
0001
0010
,  // measure 47
1000
0010
0001
0100
1000
0001
1000
0100
,  // measure 48
0001
0010
1000
0001
1000
0010
0001
1000
,  // measure 49
1001
0100
0010
0100
1001
0001
0010
MMMM
,  // measure 50
1100
0000
0001
1000
0010
0100
0001
1000
,  // measure 51
0020
0001
0230
1000
0320
0001
0230
0302
,  // measure 52
1003
0000
1000
0001
0010
0100
1000
0001
,  // measure 53
0020
1000
0230
0001
0310
0001
1000
0010
,  // measure 54
0001
0010
1000
0100
0001
1000
0001
0100
,  // measure 55
0110
MMMM
1001
MMMM
,  // measure 56
0110
0000
0000
0000
;
