#TITLE:How to make 音ゲ~曲!;
#SUBTITLE:;
#ARTIST:F Rabbeat ft. マスタード;
#TITLETRANSLIT:How to make OTOGE MUSIC!;
#SUBTITLETRANSLIT:;
#ARTISTTRANSLIT:F Rabbeat ft. Mustard;
#GENRE:Crossover;
#CREDIT:;
#BANNER:How to make OTOGE MUSIC!.png;
#BACKGROUND:../bg.png;
#LYRICSPATH:;
#CDTITLE:../cdtitle.png;
#MUSIC:How to make OTOGE MUSIC!.ogg;
#OFFSET:-0.049000;
#SAMPLESTART:111.614998;
#SAMPLELENGTH:15.000000;
#SELECTABLE:YES;
#BPMS:0.000000=185.000000
,180.000000=92.500000
,212.000000=185.000000
;
#STOPS:308.000000=0.973000
;
#BGCHANGES:-0.125=How to make OTOGE MUSIC!.avi=1.000=0=0=0=StretchNoLoop====,
99999=-nosongbg-=1.000=0=0=0 // don't automatically add -songbackground-
;
#KEYSOUNDS:;
#ATTACKS:;

//---------------dance-single - ----------------
#NOTES:
     dance-single:
     :
     Beginner:
     4:
     0.146986,0.316438,0.140305,0.080174,0.000000,154.000000,133.000000,21.000000,12.000000,0.000000,0.000000,0.146986,0.316438,0.140305,0.080174,0.000000,154.000000,133.000000,21.000000,12.000000,0.000000,0.000000:
0000
0000
0000
0000
,
0000
0000
0000
0000
,
0000
0000
0000
0000
,
0000
0000
0000
0000
,
0000
0000
0000
0000
,
0000
0000
0000
0000
,
0000
0000
0000
0000
,
0000
0000
0000
0000
,
0000
0000
0000
0000
,
1001
0000
0000
0000
,
0000
0000
0000
0000
,
1001
0000
0000
0000
,
0000
0000
0000
0000
,
0110
0000
0000
0000
,
0000
0000
0000
0000
,
0110
0000
0000
0000
,
0000
0000
0000
0000
,
1000
0000
0000
0000
,
1000
0000
0000
0000
,
0001
0000
0000
0000
,
0001
0000
0000
0000
,
0010
0000
0000
0000
,
0001
0000
0001
0000
,
1000
0000
1000
0000
,
1001
0000
0000
0000
,
1001
0000
0001
0000
,
0001
0000
0001
0000
,
0100
0000
1000
0000
,
1000
0000
0000
0000
,
1001
0000
1000
0000
,
1000
0000
1000
0000
,
0010
0000
0001
0000
,
0001
0000
0000
0000
,
0000
0100
0100
0000
,
0100
0000
0000
0000
,
0000
0010
0010
0000
,
0010
0000
0000
0000
,
0000
1000
1000
0000
,
1000
0000
0000
0000
,
0001
0000
2000
0000
,
3000
0000
0000
0000
,
1001
0000
0000
0000
,
0110
0000
0000
0000
,
2002
0000
0000
0000
,
3003
0000
0000
0000
,
0100
0000
1000
0000
,
0010
0000
0100
0100
,
0100
0000
0001
0000
,
0010
0010
0010
0000
,
0110
0000
1001
0000
,
0010
0000
0100
0100
,
0110
0000
1001
0000
,
0010
0000
0100
0100
,
0002
0000
0000
0000
,
0000
0000
0000
0000
,
0003
0000
0000
0000
,
0000
0000
0000
0000
,
2000
0000
0000
0000
,
0000
0000
0000
0000
,
3000
0000
0000
0000
,
0000
0000
0000
0000
,
2002
0000
0000
0000
,
0000
0000
3003
0000
,
0200
0000
0000
0000
,
0300
0000
0000
0000
,
2002
0000
0000
0000
,
0000
0000
3003
0000
,
0020
0000
0030
0000
,
0200
0000
0300
0000
,
1000
0000
0000
0000
,
1000
0000
0000
0000
,
0100
0000
0000
0000
,
0100
0000
0000
0000
,
0001
0000
0000
0000
,
1000
0000
0000
0000
,
0001
0000
0000
0000
,
0010
0000
0000
0000
,
1001
0000
0000
0001
,
0000
0010
0000
0010
,
0000
0100
0000
1000
,
0000
0010
0000
0110
,
0000
0001
0000
1000
,
0000
0100
0000
0100
,
0000
0010
0000
0001
,
0000
0000
1000
1000
,
0000
0001
0000
0010
,
0000
0001
0000
0000
,
0000
1000
0000
0100
,
0000
1000
0000
0000
,
0000
0001
0000
0100
,
0000
0001
0000
0000
,
0000
1000
0000
0010
,
0000
1000
0000
0000
,
0000
1001
0000
0001
,
0000
0001
0000
0001
,
0000
0010
0000
1000
,
0000
1000
0000
0000
,
0000
1001
0000
1000
,
0000
1000
0000
1000
,
0000
0100
0000
0001
,
0000
0001
0000
0000
,
0000
0000
0010
0010
,
0010
0010
0010
0010
,
0000
0100
0100
0100
,
0100
0100
0100
0100
,
0000
1001
0000
0000
;

//---------------dance-single - ----------------
#NOTES:
     dance-single:
     :
     Easy:
     7:
     0.297790,0.597716,0.380828,0.200436,0.000000,312.000000,255.000000,57.000000,30.000000,0.000000,0.000000,0.297790,0.597716,0.380828,0.200436,0.000000,312.000000,255.000000,57.000000,30.000000,0.000000,0.000000:
0000
0000
0000
0000
,
0000
0000
0000
0000
,
0000
0000
0000
0000
,
0000
0000
0000
0000
,
0000
0000
0000
0000
,
0000
0000
0000
0000
,
0000
0000
0000
0000
,
0000
0000
0000
0000
,
0000
0000
0000
0000
,
1000
0000
0000
1001
0000
0000
0000
0000
,
0000
0000
0000
0000
,
0001
0000
0000
1001
0000
0000
0000
0000
,
0000
0000
0000
0001
,
0100
0000
0000
0110
0000
0000
0000
0000
,
0000
0000
0000
0000
,
0010
0000
0000
0110
0000
0000
0000
0000
,
2000
0000
0000
3000
,
0001
0000
0001
0000
,
0010
0100
0010
0000
,
1000
0000
1000
0000
,
0010
0100
0010
0000
,
0001
0001
1000
1000
,
0001
0100
2000
3000
,
0100
0001
0100
0001
,
1001
0000
0000
0000
,
1001
0010
0010
0010
,
0010
0010
0010
0010
,
1001
0100
0100
0100
,
0100
0100
0020
0030
,
1000
0110
0001
0110
,
1000
1100
0001
0101
,
1000
1010
0001
0011
,
2000
0000
0002
3003
,
1001
0001
0010
0100
,
0010
0100
1000
0000
,
0001
0100
1000
0010
,
0001
0000
0001
0002
,
1003
0001
0100
0010
,
0100
0010
1000
0000
,
0001
0010
1000
0100
,
0002
0000
0000
0003
,
1001
0000
0100
0000
,
1001
0000
0010
0000
,
0220
0000
0000
0000
,
0330
0000
0000
0000
,
1001
1000
0001
0001
,
0010
0010
0100
0100
,
1000
0001
1000
1000
,
0010
0010
0100
1001
,
0001
0101
1000
1100
,
0010
0010
0100
0100
,
1000
1100
0001
0101
,
0010
0010
0100
0100
,
0002
0000
0000
0000
,
0003
0000
0000
0000
,
2000
0000
0000
0000
,
3000
0000
0000
0000
,
0020
0000
0000
0000
,
0030
0000
0000
0000
,
0200
0000
0000
0000
,
0300
0000
0000
0000
,
2020
0000
0000
0000
,
0000
0000
3030
0000
,
0022
0000
0000
0000
,
0000
0000
0033
0000
,
0202
0000
0000
0000
,
0000
0000
0303
0000
,
0020
0000
0000
0000
,
2000
0000
3030
0000
,
0002
0000
0103
0000
,
0200
0000
1300
0000
,
2000
0000
3010
0000
,
0020
0000
0031
0000
,
1001
0000
0000
0000
,
1001
0000
0000
0000
,
0110
0000
0110
0000
,
1001
1001
0110
0110
,
2002
3003
0000
0000
0000
0000
0000
0000
0000
0000
0000
0000
0000
0000
0000
0000
1000
0000
0000
0000
0000
0000
0000
0000
0000
0000
0000
0000
0000
0000
0000
0000
0010
0000
0000
0000
0000
0000
0000
0000
0000
0000
0000
0000
0000
0000
0000
0000
0100
0000
0000
0000
0000
0000
0000
0000
0000
0000
0000
0000
0000
0000
0000
0000
,
0001
1000
0100
0010
,
0010
1000
0010
0001
,
0100
0010
1000
0001
,
1001
0001
0010
0100
,
1000
0001
0100
0010
,
0010
0001
0010
1000
,
0100
0000
0010
0110
,
0000
0001
0010
0001
,
0010
0001
0100
1000
,
0010
1000
0100
1000
,
0100
1000
0001
0100
,
0000
0010
1000
0010
,
1000
0100
0001
0010
,
1000
0001
0000
1000
,
0000
0001
1000
0001
,
0000
1001
0100
0100
,
0100
0100
0100
0100
,
0100
1001
0010
0010
,
0010
0010
0010
0200
,
0300
1000
0110
0001
,
0110
1000
1010
0001
,
0011
1000
1100
0001
,
0101
2000
0000
0002
,
3003
0000
1001
0110
,
0110
1001
1001
0110
,
0100
0100
0010
0000
0110
0000
1001
0000
,
1001
0000
0011
0000
1010
0000
1000
0100
,
0001
1001
0000
0000
;

//---------------dance-single - ----------------
#NOTES:
     dance-single:
     :
     Medium:
     11:
     0.400871,0.597716,0.481045,0.160348,0.006681,420.000000,348.000000,72.000000,24.000000,0.000000,0.000000,0.400871,0.597716,0.481045,0.160348,0.006681,420.000000,348.000000,72.000000,24.000000,0.000000,0.000000:
0000
0000
0000
0000
,
0000
0000
0000
0000
,
0000
0000
0000
0000
,
0000
0000
0000
0000
,
0000
0000
0000
0000
,
0000
0000
0000
0000
,
0000
0000
0000
0000
,
0000
0000
0000
0000
,
0000
0000
0000
0000
,
0110
0000
1000
0001
0000
0000
0000
0000
,
0000
0000
0000
0000
,
0110
0000
0001
1000
0000
0000
0000
0000
,
0000
0000
0000
0001
,
0011
0000
1000
0010
0000
0000
0100
0000
,
0000
0100
0000
0100
,
1010
0000
0001
0010
0000
0000
0100
0000
,
2002
0000
0000
3003
,
0110
1000
0100
1000
,
0010
1000
0100
0000
,
0110
0001
0010
0001
,
0100
0001
0010
0110
,
0001
1000
0010
0100
,
0001
0000
0010
0000
0001
0100
0001
0000
,
1000
0100
0010
0000
0001
0010
0001
0000
,
0010
0100
0110
0000
,
0010
1001
0101
0101
,
1010
0000
1010
0000
0101
0000
0001
0010
,
0100
1100
1001
1001
,
0011
0000
0000
0000
0001
0000
0000
0000
0100
0000
0000
0010
0000
0000
1000
0000
,
0001
0101
0010
0011
,
1000
1010
0100
1100
,
0001
0101
0010
1010
,
0002
0010
2000
3003
,
1001
0000
0001
0000
0001
0010
0001
0000
,
1000
0100
0010
0001
,
1000
0000
1000
0000
0100
0010
0100
0000
,
0001
0000
0100
0010
,
0110
0000
1000
0000
1000
0100
1000
0000
,
0001
0010
0100
1000
,
0001
0000
0001
0000
0010
0000
1000
0010
,
0002
0000
0000
0003
,
1001
1000
0100
0010
,
1001
0001
0100
0010
,
0220
0000
0000
0000
,
0330
0000
0000
0000
,
1001
0000
0001
0000
0010
0001
0100
0000
,
0010
0010
0010
0000
0100
0100
0100
0000
,
0001
0000
1000
0000
0010
1000
0100
0000
,
0010
0010
0010
0000
0100
1000
1001
0000
,
0001
0001
0101
0000
1000
1000
1100
0000
,
0010
0010
0010
0000
0100
0100
0100
0000
,
1000
1000
1100
0000
0001
0001
0101
0000
,
0010
0010
0010
0000
0100
0100
0100
0000
,
0002
0000
0000
0000
,
0100
0000
0000
0000
,
2003
0000
0000
0000
,
3200
0000
0010
0000
,
2300
0000
0000
0000
,
0001
0000
0000
0000
,
3020
0000
0000
0000
,
0130
0000
0010
0000
,
2002
0000
0000
0000
,
0000
0000
3003
0010
,
0022
0000
0033
0000
,
1000
1000
0001
1000
,
2200
0000
0000
0000
,
0000
0000
3300
0001
,
0100
0100
0001
0000
,
2000
0000
3002
0000
,
0103
0000
0101
0000
,
0010
0000
0011
0000
,
0100
0000
1100
0000
,
0010
0000
1000
0000
,
1100
0000
0000
0000
,
0101
0000
0000
0000
,
0011
0000
1010
0000
,
1100
1100
0101
0101
,
2200
3300
0000
0000
0000
0000
0000
0000
0000
0000
0000
0000
0000
0000
0000
0000
0001
0000
0000
0000
0000
0000
0000
0000
0000
0000
0000
0000
0000
0000
0000
0000
0010
0000
0000
0000
0000
0000
0000
0000
0000
0000
0000
0000
0000
0000
0000
0000
0100
0000
0000
0000
0000
0000
0000
0000
1000
0000
0000
0000
0000
0000
0000
0000
,
0010
0001
0010
1000
,
1100
0000
0010
0000
0010
0000
0100
1000
,
0001
0100
0010
1000
,
1001
0000
1000
0000
0100
0000
0010
0001
,
0100
1000
0100
0001
,
0011
0000
0100
0000
0100
0000
0010
0001
,
0100
0000
0000
0010
1000
0000
0100
0000
,
1100
0010
0001
1000
,
0010
0000
0100
0000
0010
0000
1000
0001
,
1000
0001
0100
0000
0010
0000
0001
0000
,
1000
0000
0100
0000
0010
0000
0001
0010
,
0100
1000
0010
0000
0001
0000
0100
0000
,
0001
0000
1000
0000
0010
0000
0100
0010
,
0100
1000
0001
0000
0010
0000
1000
0000
,
0100
0010
0010
0100
,
0010
0100
1001
1010
,
1010
0101
0101
1010
,
1000
0100
0010
0000
0011
0000
1001
0000
,
1001
0000
0000
0000
1100
0000
0000
0000
1000
0000
0000
0000
0010
0000
0000
0100
,
0000
0001
1000
0000
1010
0000
0100
0000
,
1100
0001
0101
0010
,
0011
1000
1010
0100
,
0101
2000
0100
0002
,
3003
0000
0000
0000
0100
0100
0100
0100
,
0100
0100
0100
0100
0100
0100
0100
0100
,
0100
0000
0010
0010
0010
0010
0010
0010
,
0010
0010
0010
0010
0010
0010
0010
0010
,
0010
1001
0000
0000
;

//---------------dance-single - ----------------
#NOTES:
     dance-single:
     :
     Hard:
     14:
     0.534495,0.949313,0.334059,0.167030,0.093537,560.000000,510.000000,50.000000,25.000000,0.000000,0.000000,0.534495,0.949313,0.334059,0.167030,0.093537,560.000000,510.000000,50.000000,25.000000,0.000000,0.000000:
// measure 0
0000
0000
0000
0000
,  // measure 1
0000
0000
0000
0000
,  // measure 2
0000
0000
0000
0000
,  // measure 3
0000
0000
0000
0000
,  // measure 4
0000
0000
0000
0000
,  // measure 5
0000
0000
0000
0000
,  // measure 6
0000
0000
0000
0000
,  // measure 7
0000
0000
0000
0000
,  // measure 8
0000
0000
0000
0000
,  // measure 9
0110
0000
0000
1001
0000
0000
0000
0000
,  // measure 10
0000
0000
0000
0000
,  // measure 11
1001
0000
0000
0110
0000
0000
0000
0000
,  // measure 12
0000
0000
0000
0010
,  // measure 13
1010
0000
0000
0011
0000
0000
0100
0000
,  // measure 14
0000
0100
0000
0100
,  // measure 15
1100
0000
0000
0101
0000
0000
0010
0000
,  // measure 16
0220
0000
0000
0330
,  // measure 17
1001
0000
0000
0001
0010
0000
1000
0000
,  // measure 18
0010
0001
0010
0100
,  // measure 19
1001
0000
0000
1000
0010
0000
0001
0000
,  // measure 20
0010
1000
0010
0100
,  // measure 21
0001
0000
0100
0010
1000
0100
0010
0001
,  // measure 22
0000
1000
0010
1000
0001
0010
0100
1000
,  // measure 23
0100
0000
0010
0000
0100
0000
1000
0000
0001
0000
0000
0100
0000
0000
0010
0000
,  // measure 24
0100
0000
0000
0000
0000
0100
0010
0000
,  // measure 25
1001
0000
0001
0010
0100
0010
0100
0010
,  // measure 26
0001
0010
0100
0010
1000
0010
0001
0100
,  // measure 27
0010
0000
0001
0010
0100
0010
0100
0001
,  // measure 28
0010
0000
0001
0000
1000
0000
0010
0000
0100
0000
0000
0100
0000
0000
0001
0000
,  // measure 29
1001
0000
1000
0100
0001
0100
0001
0100
,  // measure 30
0010
0100
1000
0001
0010
0100
1000
0001
,  // measure 31
0101
0000
0001
0100
1000
0100
0010
1000
,  // measure 32
0002
0000
0000
0000
2003
0000
3001
1000
,  // measure 33
1100
0000
0010
0000
0010
0100
0010
0100
,  // measure 34
1000
0001
1000
0010
0001
0010
1000
0000
,  // measure 35
0001
0010
0001
0010
0100
0100
1000
1000
,  // measure 36
0001
0010
0000
0010
1000
0010
0001
0000
,  // measure 37
0011
0000
0100
0000
0100
0010
0100
0010
,  // measure 38
0001
1000
0001
0100
1000
0100
0001
0000
,  // measure 39
1000
1000
0010
0000
0001
0001
0100
0000
,  // measure 40
2000
0000
0000
3000
,  // measure 41
1001
0000
0001
0000
0001
0100
0010
0000
,  // measure 42
1001
0000
1000
0000
1000
0100
0010
0000
,  // measure 43
0220
0000
0000
0000
,  // measure 44
0330
0000
0000
0000
,  // measure 45
1001
0000
0100
0000
1100
0100
0010
0000
0001
0000
1000
0000
0110
0000
1000
0000
,  // measure 46
0010
0010
0010
0000
0010
0000
0010
0000
0100
0000
0100
0000
1100
0000
0100
0000
,  // measure 47
1001
0000
0100
0000
0101
0100
0010
0000
1000
0000
0001
0000
0110
0000
0001
0000
,  // measure 48
0010
0010
0010
0000
0010
0000
0010
0000
0100
0000
0010
0000
0001
1000
0001
0000
,  // measure 49
1001
0000
0000
0000
0100
0000
0000
0000
1010
0000
0000
0010
0000
0000
0010
0000
0110
0000
0000
0000
0001
0000
0000
0000
1001
0000
0000
1000
0000
0000
0100
0000
,  // measure 50
0010
0000
0010
0000
0010
0000
0000
0000
0010
0000
0000
0010
0000
0000
0010
0000
0100
0000
0000
0000
0100
0000
0000
0000
0100
0000
0000
0100
0000
0000
0100
0000
,  // measure 51
1001
0000
0000
0000
0100
0000
0000
0000
0011
0000
0000
0010
0000
0000
0010
0000
0110
0000
0000
0000
1000
0000
0000
0000
1001
0000
0000
0001
0000
0000
0100
0000
,  // measure 52
0010
0000
0010
0000
0010
0000
0000
0000
0010
0000
0000
0010
0000
0000
0010
0000
0100
0000
0000
0000
0100
0000
0000
0000
0100
0000
0000
0000
0100
0000
0000
0000
,  // measure 53
0002
0000
0000
0000
,  // measure 54
0013
0000
0000
0000
,  // measure 55
0200
0000
0000
0000
,  // measure 56
0310
0000
0001
0000
,  // measure 57
2000
0000
0000
0000
,  // measure 58
3100
0000
0000
0000
,  // measure 59
0020
0000
0000
0000
,  // measure 60
0130
0000
1000
0000
,  // measure 61
2010
0000
3100
0022
,  // measure 62
0000
0000
0033
1000
,  // measure 63
2200
0000
3300
0000
,  // measure 64
0001
0100
1000
0010
,  // measure 65
0012
0000
0103
2020
,  // measure 66
0000
0000
3030
0001
,  // measure 67
0010
0010
0100
0000
,  // measure 68
2000
0000
3002
0000
,  // measure 69
1003
0000
1100
0000
,  // measure 70
0001
0001
0010
0000
,  // measure 71
1000
0000
1010
0000
,  // measure 72
0001
0001
0100
1000
,  // measure 73
0000
0100
0001
0010
0000
0100
0001
0010
,  // measure 74
0000
0100
1000
0010
0001
0000
1100
0000
,  // measure 75
0000
0100
0001
0010
0000
0100
0001
0010
,  // measure 76
0100
1000
0100
0010
0100
0000
0000
0000
,  // measure 77
2002
3003
0000
0000
0000
0000
0000
0000
0000
0000
0000
0000
0000
0000
0000
0000
1000
0000
0000
0000
0000
0000
0000
0000
0100
0000
0000
0000
0000
0000
0000
0000
0010
0000
0000
0000
0000
0000
0000
0000
0100
0000
0000
0000
0000
0000
0000
0000
1000
0000
0000
0000
0000
0000
0000
0000
0001
0000
0000
0000
0000
0000
0000
0000
,  // measure 78
0010
0100
1000
0001
0100
0001
1000
0010
,  // measure 79
0001
0010
1000
0001
0010
1000
0001
0100
,  // measure 80
1000
0001
1000
0010
1000
0010
0100
0001
,  // measure 81
0010
0000
0001
0100
0010
0100
0001
1000
,  // measure 82
0010
0100
0001
1000
0100
1000
0001
0010
,  // measure 83
1000
0010
0001
1000
0010
0001
1000
0100
,  // measure 84
0001
0000
1000
0000
0001
0000
0010
0000
0011
0000
0000
0000
0110
0000
0000
0100
,  // measure 85
0000
1000
0010
1000
0100
0010
0100
1000
,  // measure 86
0010
0001
0010
0100
0001
0010
0100
1000
,  // measure 87
0001
0100
1000
0100
0010
1000
0100
0010
,  // measure 88
0001
0010
0100
0010
0001
1000
0010
0100
,  // measure 89
0010
0000
1000
0001
0010
0100
0001
0100
,  // measure 90
1000
0010
1000
0001
0100
0010
1000
0001
,  // measure 91
0010
0100
1000
0000
0100
0000
0001
0000
,  // measure 92
0010
1100
0101
0010
,  // measure 93
0100
0000
1001
0000
0001
0010
0100
0010
,  // measure 94
0100
0010
0001
0010
0100
0010
1000
0010
,  // measure 95
0001
0100
0010
0000
0001
0010
0100
0010
,  // measure 96
0100
0000
0001
0000
0010
0000
0001
0000
1000
0000
0010
0000
0100
0000
0000
0100
,  // measure 97
0000
0001
1001
0000
1000
0100
0001
0100
,  // measure 98
0001
0100
0010
0100
1000
0001
0010
0100
,  // measure 99
1000
0001
0101
0000
0001
0100
1000
0100
,  // measure 100
0010
1000
0002
0000
0000
0000
2000
0000
,  // measure 101
3003
0000
0000
0000
1000
1000
0100
0100
,  // measure 102
0010
0010
0001
0001
0010
0010
0100
0100
,  // measure 103
1000
0001
1000
0001
1000
0000
1000
0000
0010
0000
0010
0000
0001
0000
0001
0000
,  // measure 104
0100
0100
1000
1000
0001
0001
0100
0100
,  // measure 105
0010
0000
1000
0001
1000
0000
0000
0000
0000
0000
0000
0000
0000
0000
0000
0000
;

//---------------dance-single - ----------------
#NOTES:
     dance-single:
     :
     Challenge:
     17:
     0.740657,1.406390,0.708206,0.327378,0.471024,776.000000,670.000000,106.000000,49.000000,12.000000,0.000000,0.740657,1.406390,0.708206,0.327378,0.471024,776.000000,670.000000,106.000000,49.000000,12.000000,0.000000:
0000
0000
0000
0000
,
0000
0000
0000
0000
,
0000
0000
0000
0000
,
0000
0000
0000
0000
,
0000
0000
0000
0000
,
0000
0000
0000
0000
,
0000
0000
0000
0000
,
0000
0000
0000
0000
,
0000
0000
0000
0000
,
1100
0000
0000
0000
0001
0010
0002
0000
0000
0000
0000
0000
0000
0000
0000
0000
,
0000
0000
0000
0000
0000
0000
0003
1000
,
1010
0000
0000
0000
0001
0100
0002
0000
0000
0000
0000
0000
0000
0000
0000
0000
,
0000
0000
0000
0000
0000
0000
0000
0000
0003
0000
0000
0000
0010
0100
0010
0100
,
0010
0000
0100
0110
0000
1000
0010
1000
,
0001
0000
0001
0100
0000
0100
0001
0010
,
0110
0000
0100
0010
0000
0010
0001
1000
,
2002
0000
0000
3003
,
1001
0000
0001
0100
0101
0000
0010
0000
,
1000
0100
1000
0000
0110
0000
0001
0000
,
1001
0000
1000
0010
1010
0000
0100
0000
,
0001
0010
0001
0000
0110
0000
1001
0000
,
1000
0100
1000
0100
0010
0001
0010
0001
,
1000
0010
1000
0010
0100
0001
0010
0100
,
1000
1000
0100
0100
0001
0001
1000
0010
,
0001
0000
0000
0000
0000
0000
0000
0000
0000
0000
0100
0001
1000
0000
0000
0000
,
1001
0000
0000
0000
0001
0010
0001
0000
0010
1000
0010
0000
0001
0010
0001
0000
,
1000
0100
0010
0000
0001
0010
0100
0000
1000
0001
0100
0000
0010
1000
0001
0000
,
1001
0000
0000
0000
1000
0100
0001
0000
0001
0100
1000
0000
1000
0100
0010
0000
,
0100
1000
0001
0000
0100
0010
1000
0000
0001
0000
0000
0001
0000
0000
0010
0000
,
0110
0000
0000
0000
0010
0100
0001
0000
0100
1000
0010
0000
1000
0001
0010
0000
,
0001
1000
0100
0000
1000
0001
0100
0000
0001
1000
0010
0000
0100
0010
0100
0000
,
1001
0000
0000
0000
0001
0010
1000
0000
0001
0100
1000
0000
0100
0010
0001
0000
,
2000
0000
0000
0000
0100
0000
0000
0000
3002
0000
0000
0000
0103
0000
1000
0100
,
0010
0000
0000
0000
0110
0000
0000
0000
0001
0000
1000
0010
0100
0000
0001
0000
,
0010
0000
0001
0000
0010
0000
0001
0000
0100
0000
0010
1000
0001
0000
0000
0000
,
0100
0000
0001
0000
0100
0000
0001
0010
0001
0000
1000
0100
1000
0000
0001
0000
,
0100
0000
0100
0000
0010
0000
0100
0000
1000
0000
0100
0000
0001
1000
0001
1000
,
0100
0000
0000
0000
0110
0000
0000
0000
1000
0000
0001
0100
0010
0000
1000
0000
,
0100
0000
1000
0000
0100
0000
1000
0000
0010
0000
0100
0001
1000
0000
0000
0000
,
0100
0000
0100
0000
0001
0000
0001
0000
0010
0000
0010
0000
1000
0001
1000
0001
,
2000
0000
0002
3003
,
1001
0000
0001
0000
0001
0100
0010
1000
,
1001
0000
1000
0000
1000
0100
0010
0001
,
0100
0000
0010
0000
0100
0000
0010
0000
0100
0010
0100
0010
0100
0010
0100
0010
,
0200
0000
0000
0000
0000
0300
MMMM
0000
,
2001
0000
3100
0000
0101
0100
1000
0100
0010
0000
0010
0000
1001
0000
1100
0000
,
0010
0010
0010
0010
0010
0010
0010
0010
0200
0300
0200
0300
1200
0300
0201
0300
,
1002
0000
0103
0000
1100
0100
0001
0100
0010
0000
0010
0000
1001
0000
0101
0000
,
0010
0010
0010
0010
0010
0010
0010
0010
0200
0000
0310
0000
1000
1000
0001
0000
,
0102
0000
0000
0000
0013
0000
0000
0000
1010
0000
0000
1010
0000
0000
1100
0000
1002
0000
0000
0000
0103
0000
0000
0000
0110
0000
0000
1001
0000
0000
1100
0000
,
0010
0000
0010
0000
0010
0000
0010
0000
1010
0000
0000
0011
0000
0000
0011
0000
0101
0000
0000
0000
0101
0000
0000
0000
1100
0000
0000
1100
0000
0000
0101
0000
,
2100
0000
0000
0000
3010
0000
0000
0000
0011
0000
0000
0011
0000
0000
0101
0000
2001
0000
0000
0000
3100
0000
0000
0000
0110
0000
0000
1001
0000
0000
0101
0000
,
0010
0000
0010
0000
0010
0000
0010
0000
0011
0000
0000
1010
0000
0000
1010
0000
1200
0000
0300
0000
1200
0000
0300
0000
0201
0000
0300
0000
0210
0000
0300
0000
,
2001
0000
0000
0000
,
3200
0000
0310
0100
,
2000
0000
3000
0000
,
0002
0000
0003
0000
0100
0001
1000
0000
,
0020
0000
0030
0000
,
0200
0000
0300
0000
,
0002
0000
0000
0023
0000
0000
0130
0000
,
1000
0000
0000
1000
0000
0000
1000
0000
0100
0000
0010
0000
0001
0000
1000
0000
,
2001
0000
3100
0022
,
0030
1003
1100
0001
,
0201
0000
0310
0000
,
0200
0301
0002
1003
,
1002
0000
0013
2200
,
0300
3001
0011
2000
,
3100
0100
1000
0010
,
0200
0300
0110
0001
,
2000
3100
1100
1000
,
0001
0100
0001
0000
0110
0000
1000
0000
,
0002
0013
0011
0001
,
1000
0010
1000
0000
0110
0000
0001
0000
,
1001
0000
0000
0000
,
0010
0000
0000
0000
,
1000
0000
0001
0000
,
0100
0001
1000
0010
,
2002
3003
0000
0000
0000
0000
0000
0000
0000
0000
0000
0000
0000
0000
0000
0000
0100
0000
0000
0000
0000
0000
0000
0000
0001
0000
0000
0000
0010
0000
0000
0000
0000
0000
0000
0000
0001
0000
0000
0000
0010
0000
0000
0000
0000
0000
0000
0000
0100
0000
0000
0000
0000
0000
0000
0000
1000
0000
0000
0000
0000
0000
0000
0000
,
0100
0010
0001
0000
1000
0000
0010
0100
0000
1000
0100
0000
0001
0000
0010
0001
,
0000
1000
0001
0000
1000
0000
0100
0010
0000
0100
1000
0000
0001
0000
0100
0000
,
0010
1000
0010
0000
0100
0000
0001
1000
0000
1000
0100
0000
0001
0000
1000
0010
,
0000
0001
1000
0000
0010
0000
1000
0100
0000
1000
0100
0000
0010
0000
0001
0000
,
0010
0100
1000
0000
0001
0000
0100
0010
0000
0001
0010
0000
1000
0000
0100
1000
,
0000
0001
1000
0000
0001
0000
0010
0100
0000
0010
0001
0000
1000
0000
0010
0000
,
0100
0001
0100
0000
0010
0000
0110
0000
0110
0000
0000
0000
0011
0000
0000
1000
,
0000
0000
1100
0000
0010
0000
0001
0010
0001
0000
1000
0000
0010
0000
1000
0010
,
1000
0000
0001
0000
0010
0000
0100
0010
0100
0000
1000
0000
0001
0100
0001
0000
,
1000
0100
1000
0000
0100
0000
0010
0001
0010
0000
0100
0000
1000
0000
0010
1000
,
0010
0000
0100
0000
0001
0000
1000
0001
1000
0000
0100
0000
0010
0001
0010
0000
,
0100
1000
0100
0000
1000
0000
0001
1000
0100
0000
0010
0000
0100
0000
1000
0001
,
0100
0000
0010
0000
0100
0000
0001
0010
0100
0000
0010
0000
0001
0010
0001
0000
,
1000
0010
1000
0000
0100
0000
0010
0100
1000
0000
0010
0000
0100
0000
0010
0100
,
0001
0010
0100
0000
1000
0000
0010
1000
,
0001
0000
0000
0000
1001
0000
0000
0000
1000
0100
1000
0000
0100
0001
0100
0000
,
1000
0100
1000
0000
0001
0010
0100
0000
1000
0100
0010
0000
0001
1000
0010
0000
,
0100
0001
1000
0000
1001
0000
0000
0000
0001
0010
1000
0000
1000
0010
0001
0000
,
0001
0010
0100
0000
0010
0001
1000
0000
0010
0100
0001
0000
1000
0000
0000
1000
,
0000
0000
0100
0000
0110
0000
0000
0000
0100
0010
1000
0000
0010
0001
0100
0000
,
0001
1000
0100
0000
1000
0001
0010
0000
0001
1000
0010
0000
1000
0001
0100
0000
,
0010
0100
0010
0000
1001
0000
0000
0000
1000
0100
0001
0000
1000
0010
0001
0000
,
0010
0100
1000
0000
0001
0000
0001
0000
0010
0000
0020
0000
2000
0000
3030
0000
,
MMMM
0000
MMMM
0000
1100
1000
1001
0001
,
0101
0100
0110
0010
1010
1000
1001
0001
,
0010
0100
1000
0000
1100
0000
1100
0000
0101
0000
0101
0000
1010
0000
1010
0000
,
0011
0011
1001
0101
1010
0110
0101
0011
,
1001
0110
0000
0000
;

//---------------dance-double - ----------------
#NOTES:
     dance-double:
     :
     Easy:
     7:
     0.277746,0.597716,0.314016,0.146986,0.000000,291.000000,244.000000,47.000000,22.000000,0.000000,0.000000,0.277746,0.597716,0.314016,0.146986,0.000000,291.000000,244.000000,47.000000,22.000000,0.000000,0.000000:
00000000
00000000
00000000
00000000
,
00000000
00000000
00000000
00000000
,
00000000
00000000
00000000
00000000
,
00000000
00000000
00000000
00000000
,
00000000
00000000
00000000
00000000
,
00000000
00000000
00000000
00000000
,
00000000
00000000
00000000
00000000
,
00000000
00000000
00000000
00000000
,
00000000
00000000
00000000
00000000
,
00010000
00000000
00000000
00011000
00000000
00000000
00000000
00000000
,
00000000
00000000
00000000
00000000
,
00000100
00000000
00000000
00001100
00000000
00000000
00000000
00000000
,
00000000
00000000
00000000
00010000
,
00001000
00000000
00000000
00011000
00000000
00000000
00000000
00000000
,
00000000
00000000
00000000
00000000
,
01000000
00000000
00000000
01010000
00000000
00000000
00000000
00000000
,
00200000
00000000
00000000
00300000
,
10010000
00000000
10000000
00000000
,
00100000
00000000
00010000
00000000
,
00011000
00000000
00001000
00000000
,
00000100
00000000
00000001
00000000
,
00000001
00000010
00000100
00001000
,
00000100
00000000
00010000
00001000
,
00010000
00000000
00001000
00000000
,
00011000
00000000
00000000
00000000
,
00011000
00000100
00000100
00000100
,
00000100
00000010
00000100
00001000
,
00011000
01000000
01000000
01000000
,
01000000
00100000
10000000
00000000
,
10010000
00010000
00100000
00010000
,
01000000
00010000
00100000
00001000
,
00010000
00000010
00001000
00000100
,
00002000
00000000
00000002
00003003
,
00001001
00000001
00000010
00000001
,
00000010
00000100
00001000
00000000
,
00000100
00000100
00001000
00000010
,
00001000
00000000
00000010
00000000
,
00010000
00001000
00010000
00001000
,
00100000
00010000
00100000
00000000
,
01000000
10000000
00100000
01000000
,
00020000
00000000
00000000
00030000
,
10010000
00000000
00000000
00000000
,
00011000
00000000
00000000
00000000
,
00002002
00000000
00000000
00000000
,
00003003
00000000
00000000
00000000
,
00001001
00001000
00000001
00000001
,
00000010
00000010
00000100
00000100
,
00010000
00001000
00010000
00010000
,
00100000
00100000
01000000
10010000
,
00001000
00011000
10000000
10010000
,
00100000
00100000
01000000
01000000
,
00010000
00011000
00000001
00001001
,
00000010
00000010
00000100
00000100
,
00000020
00000000
00000000
00000000
,
00000030
00000000
00000000
00000000
,
00020000
00000000
00000000
00000000
,
00030000
00000000
00000000
00000000
,
00002000
00000000
00000000
00000000
,
00003000
00000000
00000000
00000000
,
00200000
00000000
00000000
00000000
,
00300000
00000000
00000000
00000000
,
02200000
00000000
00000000
00000000
,
00000000
00000000
03300000
00000000
,
20020000
00000000
00000000
00000000
,
00000000
00000000
30030000
00000000
,
00022000
00000000
00000000
00000000
,
00000000
00000000
00033000
00000000
,
00000020
00000000
00000000
00000000
,
00000200
00000000
00000330
00000000
,
00000001
00000000
00000000
00000000
,
00000001
00000000
00000000
00000000
,
00001000
00000000
00000000
00000000
,
00001000
00000000
00000000
00000000
,
00011000
00000000
00000000
00000000
,
00000010
00000000
00000000
00000000
,
00011000
00000000
00100000
00000000
,
00011000
00010010
00011000
00101000
,
00022000
00033000
00000000
00000000
00000000
00000000
00000000
00000000
00000000
00000000
00000000
00000000
00000000
00000000
00000000
00000000
00010000
00000000
00000000
00000000
00000000
00000000
00000000
00000000
00000000
00000000
00000000
00000000
00000000
00000000
00000000
00000000
00001000
00000000
00000000
00000000
00000000
00000000
00000000
00000000
00000000
00000000
00000000
00000000
00000000
00000000
00000000
00000000
00000010
00000000
00000000
00000000
00000000
00000000
00000000
00000000
00000000
00000000
00000000
00000000
00000000
00000000
00000000
00000000
,
00000100
00000010
00001000
00010000
,
00010000
00100000
10000000
01000000
,
00100000
01000000
10000000
00010000
,
10010000
00001000
00010000
01000000
,
00100000
01000000
00010000
00001000
,
00001000
00000100
00000001
00000010
,
00000100
00000000
00010000
00011000
,
00000000
00100000
00010000
01000000
,
00010000
00100000
01000000
00010000
,
00001000
00000010
00000001
00000100
,
00000001
00000010
00001000
00010000
,
00000000
01000000
10000000
00010000
,
01000000
00100000
10000000
00010000
,
00100000
00001000
00000000
00010000
,
00000000
00001000
00010000
00001000
,
00000000
00011000
00100000
00100000
,
00100000
00100000
01000000
00100000
,
00010000
00011000
00000010
00000010
,
00000010
00000010
00000100
00000001
,
00000000
00001001
00001000
00000100
,
00001000
00000010
00001000
00000100
,
00010000
00001000
01000000
00010000
,
00100000
00020000
00000000
20000000
,
30030000
00000000
10010000
11000000
,
11000000
01010000
01010000
00011000
,
00001000
00001000
00000010
00000000
00000011
00000000
00001001
00000000
,
00001001
00000000
00001100
00000000
00011000
00000000
01000000
01000000
,
00010000
10010000
00000000
00000000
;

//---------------dance-double - ----------------
#NOTES:
     dance-double:
     :
     Medium:
     11:
     0.382737,0.597716,0.287291,0.173711,0.000000,401.000000,358.000000,43.000000,26.000000,0.000000,0.000000,0.382737,0.597716,0.287291,0.173711,0.000000,401.000000,358.000000,43.000000,26.000000,0.000000,0.000000:
00000000
00000000
00000000
00000000
,
00000000
00000000
00000000
00000000
,
00000000
00000000
00000000
00000000
,
00000000
00000000
00000000
00000000
,
00000000
00000000
00000000
00000000
,
00000000
00000000
00000000
00000000
,
00000000
00000000
00000000
00000000
,
00000000
00000000
00000000
00000000
,
00000000
00000000
00000000
00000000
,
00110000
00000000
00000000
00101000
00000000
00000000
00000000
00000000
,
00000000
00000000
00000000
00000000
,
00001010
00000000
00000000
00010010
00000000
00000000
00000000
00000000
,
00000000
00000000
00000000
00001000
,
00011000
00000000
00000000
00011000
00000000
00000000
00000100
00000000
,
00000000
00000100
00000000
00000100
,
00011000
00000000
00000000
00011000
00000000
00000000
01000000
00000000
,
02200000
00000000
00000000
03300000
,
10000000
10000000
00010000
00010000
,
00100000
00010000
01000000
00001000
,
00010000
00010000
00001000
00001000
,
00010000
00000010
00000100
00000100
,
00001000
00000100
00000001
00000010
,
00000100
00000000
00000010
00000000
00001000
00010000
00001000
00000000
,
00010000
01000000
10000000
00100000
,
01100000
00000000
00000000
00000000
,
00100000
00000000
10010000
00000000
00010000
01000000
00010000
00000000
,
00100000
01000000
00100000
00000000
01000000
10000000
00010000
00000000
,
01100000
00000000
10000000
00000000
00100000
00010000
00001000
00000000
,
00010000
00001000
00000100
00000000
00000020
00000000
00000030
00000000
,
00001001
00000000
00000001
00000000
00000100
00000010
00000100
00000000
,
00000001
00000010
00000001
00000000
00000100
00000010
00001000
00000000
,
00001100
00000000
00010000
00000000
00001000
01000000
00100000
00000000
,
20000000
00000000
00000000
00000000
30020000
00000000
01030000
01000000
,
00100000
00000000
10010000
00000000
00010000
00100000
01000000
00000000
,
10000000
00000000
01000000
00000000
00010000
00010000
00001000
00000000
,
00000010
00000000
00000001
00000000
00001000
00001000
00000100
00000000
,
00000010
00000000
00000000
00000000
00000001
00000001
00002000
00000000
,
00003100
00000000
00001001
00000000
00001000
00000010
00000100
00000000
,
00000001
00000000
00000010
00000000
00001000
00001000
00010000
00000000
,
01000000
10000000
00010000
00000000
01000000
00100000
10000000
00000000
,
00020000
00000000
00200000
00330000
,
01100000
10000000
01000000
00010000
,
00011000
00001000
00000100
00000001
,
00000220
00000000
00000000
00000000
,
00000330
00000000
00000000
00000000
,
00001001
00000000
00001100
00000000
00010000
00010000
00001000
00000000
,
00100000
00100000
00100000
00000000
01000000
01000000
01000000
00000000
,
10000000
00000000
01010000
00000000
00001000
00001000
00010000
00000000
,
00000010
00000010
00000010
00000000
00000100
00001000
00000110
00000000
,
00001000
00000010
00001010
00000000
00000100
00000010
00001001
00000000
,
00000010
00000010
00100000
00000000
00000100
00000100
01000000
00000000
,
00010000
00100000
00110000
00000000
01000000
00100000
10010000
00000000
,
00100000
00100000
00000010
00000000
01000000
01000000
00000100
00000000
,
00020000
00000000
00000000
00000000
,
00031000
00000000
00000000
00000000
,
02000000
00000000
00000000
00000000
,
03100000
00000000
00010000
00000000
,
00002000
00000000
00000000
00000000
,
00013000
00000000
00000000
00000000
,
00000200
00000000
00000000
00000000
,
00000310
00000000
00000001
00000000
,
00002200
00000000
00000000
00000000
,
00000000
00000000
00003300
00000001
,
00000202
00000000
00000303
00000000
,
00001000
00000000
00010000
00000000
,
00220000
00000000
00000000
00000000
,
00000000
00000000
00330000
10000000
,
00100000
00100000
01000000
00000000
,
00002000
00000000
00023000
00000000
,
00031000
00000000
00011000
00000000
,
00100000
00000000
00110000
00000000
,
00000010
00000000
00001010
00000000
,
00010000
00000000
00011000
00000000
,
00001000
00000000
00000100
00000000
,
00000001
00000010
00000010
00000000
,
00000010
00001000
00010000
00000000
00001000
00010000
01000000
00000000
,
00010000
00010000
00001000
00001000
,
00000200
00000300
00000000
00000000
00000000
00000000
00000000
00000000
00000000
00000000
00000000
00000000
00000000
00000000
00000000
00000000
00000001
00000000
00000000
00000000
00000000
00000000
00000000
00000000
00000000
00000000
00000000
00000000
00000000
00000000
00000000
00000000
00001000
00000000
00000000
00000000
00000000
00000000
00000000
00000000
00000000
00000000
00000000
00000000
00000000
00000000
00000000
00000000
00000100
00000000
00000000
00000000
00000000
00000000
00000000
00000000
00000010
00000000
00000000
00000000
00000000
00000000
00000000
00000000
,
00000001
00001000
00000010
00010000
,
00011000
00000000
00001000
00000000
00100000
00000000
00010000
01000000
,
00010000
00100000
01000000
10000000
,
10010000
00000000
10000000
00000000
00010000
00000000
01000000
00100000
,
10000000
00010000
00100000
00001000
,
00011000
00010000
00000010
00001000
,
00000100
00000000
00000000
00010000
00001000
00000000
01000000
00000000
,
01100000
00100000
00010000
00001000
,
00000100
00000000
00000001
00000000
00000010
00000000
00000001
00001000
,
00000010
00000100
00001000
00010000
,
01000000
00000000
00100000
00000000
00100000
00000000
00010000
10000000
,
01000000
00100000
00010000
01000000
,
00001000
00000000
00010000
00000000
00000010
00000000
00000100
00000010
,
00000100
00000001
00000010
00001000
,
00000100
00000010
00000010
00000100
,
00000000
00000000
00000010
00000000
00001001
00000000
00001000
00000100
,
00001000
00000000
00000010
00000100
00000010
00000000
00000100
00000001
,
00001000
00000000
00000110
00000000
00000001
00000000
00000010
00001000
,
00010000
00000000
00001000
00010000
01000000
00000000
00200000
00000000
,
00300000
00000000
10010000
00000000
10000000
00000000
01000000
00100000
,
01000000
00000000
10000000
00100000
10000000
00000000
01000000
00100000
,
00010000
00000000
01010000
00000000
00001000
00000000
00010000
00000100
,
00000010
00000002
00000000
00002000
,
00003003
00000000
00000000
00000000
00000100
00000100
00000010
00000010
,
00000001
00000001
00001000
00001000
00000100
00000100
00010000
00010000
,
00001000
00000000
01000000
01000000
00010000
00010000
10000000
10000000
,
00100000
00100000
01000000
00010000
00100000
00001000
00000010
00001000
,
00010000
00011000
00000000
00000000
;

//---------------dance-double - ----------------
#NOTES:
     dance-double:
     :
     Hard:
     14:
     0.537358,0.878994,0.300653,0.213798,0.090196,563.000000,518.000000,45.000000,32.000000,0.000000,0.000000,0.537358,0.878994,0.300653,0.213798,0.090196,563.000000,518.000000,45.000000,32.000000,0.000000,0.000000:
00000000
00000000
00000000
00000000
,
00000000
00000000
00000000
00000000
,
00000000
00000000
00000000
00000000
,
00000000
00000000
00000000
00000000
,
00000000
00000000
00000000
00000000
,
00000000
00000000
00000000
00000000
,
00000000
00000000
00000000
00000000
,
00000000
00000000
00000000
00000000
,
00000000
00000000
00000000
00000000
,
01010000
00000000
00001000
00010000
00000000
00000000
00000000
00000000
,
00000000
00000000
00000000
00000000
,
00001010
00000000
00010000
00001000
00000000
00000000
00000000
00000000
,
00000000
00000000
00000000
00100000
,
00110000
00000000
00001000
00020000
00000000
00000000
00000100
00000000
,
00000000
00001000
00000000
00030100
,
00001100
00000000
00010000
00001000
00000000
00000000
00010000
00000000
,
00022000
00000000
00000000
00033000
,
00011000
00000000
00000000
00100000
00010000
00000000
10000000
00000000
,
00010000
00100000
00010000
01000000
,
00011000
00000000
00000000
00000100
00001000
00000000
00000001
00000000
,
00001000
00000100
00001000
00000010
,
00000100
00000000
00001000
00010000
00100000
01000000
00010000
10000000
,
01000000
00010000
00001000
00100000
00001000
00000100
00000001
00000010
,
00000000
00000000
00000001
00000000
00000100
00000000
00001000
00000000
00010000
00000000
00000000
00100000
00000000
00000000
10000000
00000000
,
10010000
00000000
00000000
00000000
00000000
01000000
00100000
00000000
,
10010000
00000000
10000000
01000000
00100000
01000000
00100000
01000000
,
10000000
00100000
10000000
01000000
00010000
00001000
00000010
00000001
,
00001001
00000000
00000001
00000100
00000010
00000001
00000010
00000100
,
00000001
00000000
00001000
00000000
00000100
00000000
00001000
00000000
00000010
00000000
00000000
00000010
00000000
00000000
00010000
00000000
,
00011000
00000000
00001000
00100000
01000000
00100000
01000000
00100000
,
00010000
10000000
00100000
10000000
00010000
01000000
00100000
10000000
,
10010000
00000000
10000000
01000000
00100000
00010000
00100000
00010000
,
02000000
00000000
00000000
00000000
03002000
00000000
00013000
00010000
,
00001000
00000000
00011000
00000000
00000100
00000010
00000100
00000010
,
00000001
00001000
00000010
00000100
00001000
00010000
01000000
00000000
,
10000000
00010000
10000000
00010000
00100000
00010000
01000000
00001000
,
00010000
00000010
00000000
00000010
00001000
00000100
00020000
00000000
,
00031000
00000000
00011000
00000000
00100000
01000000
00100000
01000000
,
10000000
00010000
01000000
00100000
00010000
00001000
00000010
00000000
,
00000100
00000010
00000001
00000100
00001000
00010000
00100000
10000000
,
02000000
00000000
00000000
03000000
,
01100000
00000000
10000000
00000000
10000000
00100000
00010000
00000000
,
00011000
00000000
00001000
00000000
00001000
00000100
00000001
00000000
,
00000220
00000000
00000000
00000000
,
00000330
00000000
00000000
00000000
,
00001001
00000000
00000100
00000000
00001001
00000100
00001000
00000000
00010000
00000000
00010000
00000000
00001010
00000000
00011000
00000000
,
00100000
00100000
00100000
00000000
00100000
00000000
00100000
00000000
01000000
00000000
01000000
00000000
01100000
00000000
01000000
00000000
,
10010000
00000000
01000000
00000000
10010000
01000000
00010000
00000000
00001000
00000000
00001000
00000000
00110000
00000000
00011000
00000000
,
00000010
00000010
00000010
00000000
00000010
00000000
00000010
00000000
00000200
00000000
00000310
00000000
00002002
00000000
00003003
00000000
,
00001000
00000000
00000000
00000000
00000010
00000000
00000000
00000000
00000101
00000000
00000000
00000001
00000000
00000000
00000001
00000000
00000010
00000000
00000000
00000000
00000001
00000000
00000000
00000000
00001100
00000000
00000000
00001000
00000000
00000000
00001000
00000000
,
00000010
00000000
00000010
00000000
00000010
00000000
00000000
00000000
00100000
00000000
00000000
00100000
00000000
00000000
00100000
00000000
00000100
00000000
00000000
00000000
00000100
00000000
00000000
00000000
01000000
00000000
00000000
01000000
00000000
00000000
01000000
00000000
,
00010000
00000000
00000000
00000000
00100000
00000000
00000000
00000000
11000000
00000000
00000000
10000000
00000000
00000000
10000000
00000000
00100000
00000000
00000000
00000000
10000000
00000000
00000000
00000000
01010000
00000000
00000000
00010000
00000000
00000000
00010000
00000000
,
00100000
00000000
00100000
00000000
00100000
00000000
00000000
00000000
00000010
00000000
00000000
00000010
00000000
00000000
00000010
00000000
01000000
00000000
00000000
00000000
01000000
00000000
00000000
00000000
00000100
00000000
00000000
00000000
00000100
00000000
00000000
00000000
,
00020000
00000000
00000000
00000000
,
00032000
00000000
00003010
00000000
,
00000002
00000000
00000003
00000000
,
00002000
00003000
00000100
00010000
,
00002000
00000000
00003000
00000000
,
00020000
00000000
00030000
00000000
,
00200000
00000000
00000000
00000000
,
10300000
00000000
00010000
10000000
,
02200000
00000000
00000000
00000000
,
00000000
00000000
03300000
00010000
,
00022000
00000000
00033000
00000000
,
00000010
00000010
00001000
00000100
,
00000022
00000000
00000000
00000000
,
00000000
00000000
00000033
00001000
,
00000100
00000100
00010000
00000010
,
00000200
00000000
00000320
00002030
,
00003001
00000000
00000101
00000000
,
00000010
00000010
00001000
00000000
,
00010000
00000000
01010000
00000000
,
00100000
00100000
10000000
00000000
,
00000000
01000000
00010000
00001000
00000000
00010000
00001000
00000010
,
00000000
00000001
00000100
00001000
00010000
00001000
00010000
01000000
,
00000000
01000000
00010000
00001000
00000000
00010000
00001000
00000010
,
00001000
00010000
01000000
00010000
00001000
00000000
00011000
00000000
,
00022000
00033000
00000000
00000000
00000000
00000000
00000000
00000000
00000000
00000000
00000000
00000000
00000000
00000000
00000000
00000000
00010000
00000000
00000000
00000000
00000000
00000000
00000000
00000000
00000100
00000000
00000000
00000000
00000000
00000000
00000000
00000000
00001000
00000000
00000000
00000000
00000000
00000000
00000000
00000000
00000100
00000000
00000000
00000000
00000000
00000000
00000000
00000000
00010000
00000000
00000000
00000000
00000000
00000000
00000000
00000000
00001000
00000000
00000000
00000000
00000000
00000000
00000000
00000000
,
00000100
00000010
00000001
00000010
00000100
00000010
00001000
00000100
,
00000010
00000100
00010000
00001000
01000000
00010000
10000000
01000000
,
00100000
00010000
10000000
00100000
10000000
00100000
01000000
00010000
,
00100000
00000000
00001000
00100000
00010000
00100000
00001000
00010000
,
00100000
01000000
10000000
01000000
00100000
01000000
00010000
00100000
,
01000000
00100000
00001000
00010000
00000010
00001000
00000001
00000010
,
00000100
00000000
00001000
00000000
00000001
00000000
00000100
00000000
00000001
00000000
00000000
00000000
00001010
00000000
00000000
00001000
,
00000000
00000100
00000010
00000001
00000100
00000010
00000100
00000001
,
00000010
00001000
00010000
01000000
10000000
00010000
01000000
00100000
,
10000000
01000000
00100000
01000000
00010000
00001000
00000100
00000010
,
00001000
00000010
00010000
00001000
00100000
00001000
00010000
00000100
,
00001000
00000000
00000001
00001000
00000010
00000100
00000001
00000100
,
00001000
00010000
00100000
10000000
00010000
00100000
01000000
00010000
,
01000000
10000000
00010000
00000000
01000000
00000000
10000000
00000000
,
00100000
00110000
00011000
00000010
,
00000100
00000000
00001001
00000000
00000001
00000010
00000100
00000010
,
00000100
00000010
00000001
00000100
00000001
00000010
00001000
00010000
,
01000000
10000000
10010000
00000000
10000000
00100000
01000000
10000000
,
01000000
00000000
00100000
00000000
10000000
00000000
00010000
00000000
00100000
00000000
00010000
00000000
01000000
00000000
00000000
01000000
,
00000000
00001000
00011000
00000000
00010000
00000100
00000010
00000100
,
00000010
00000100
00001000
00000001
00000100
00000001
00001000
00000010
,
00000100
00000001
00001001
00000000
00000001
00000010
00000100
00001000
,
00000100
00001000
00000020
00000000
00001000
00000000
00020000
00000000
,
00030030
00000000
00000000
00000000
00010000
00010000
00001000
00001000
,
00000010
00000010
00000001
00000001
00000100
00000100
00001000
00001000
,
00010000
00001000
00010000
00001000
00010000
00000000
00010000
00000000
00100000
00000000
00100000
00000000
10000000
00000000
10000000
00000000
,
01000000
01000000
00010000
00001000
00000100
00000001
00000010
00001000
,
00010000
00000000
00001000
00010000
00001000
00000000
00000000
00000000
00000000
00000000
00000000
00000000
00000000
00000000
00000000
00000000
;

//---------------dance-double - ----------------
#NOTES:
     dance-double:
     :
     Challenge:
     17:
     0.732067,1.406390,0.688162,0.347422,0.457661,767.000000,664.000000,103.000000,52.000000,24.000000,0.000000,0.732067,1.406390,0.688162,0.347422,0.457661,767.000000,664.000000,103.000000,52.000000,24.000000,0.000000:
00000000
00000000
00000000
00000000
,
00000000
00000000
00000000
00000000
,
00000000
00000000
00000000
00000000
,
00000000
00000000
00000000
00000000
,
00000000
00000000
00000000
00000000
,
00000000
00000000
00000000
00000000
,
00000000
00000000
00000000
00000000
,
00000000
00000000
00000000
00000000
,
00000000
00000000
00000000
00000000
,
01010000
00000000
00000000
00000000
00001000
00010000
00002000
00000000
00000000
00000000
00000000
00000000
00000000
00000000
00000000
00000000
,
00000000
00000000
00000000
00000000
00000000
00000000
00003000
00000100
,
00001100
00000000
00000000
00000000
00010000
00001000
00020000
00000000
00000000
00000000
00000000
00000000
00000000
00000000
00000000
00000000
,
00000000
00000000
00000000
00000000
00000000
00000000
00000000
00000000
00030000
00000000
00000000
00000000
00000010
00001000
00000010
00001000
,
00000001
00000000
00000010
00000210
00000000
00000010
00000310
00000001
,
00001000
00000000
00001000
00000100
00000000
00001000
00000010
00010000
,
00011000
00000000
00001000
00100000
00000000
00100000
00001000
00010000
,
00022000
00000000
00000000
00033000
,
00011000
00000000
00000100
00001000
00001100
00000000
00000001
00000000
,
00000100
00000010
00000100
00000000
00001010
00000000
00010000
00001000
,
00011000
00000000
00100000
00010000
00110000
00000000
10000000
00000000
,
00100000
01000000
00100000
00000000
01010000
00000000
00001000
00010000
,
00000100
00000010
00000100
00000010
00000001
00000010
00000001
00001000
,
00000010
00000100
00000010
00000100
00001000
00000100
00001000
00010000
,
01000000
01000000
10000000
10000000
00100000
00100000
01000000
00001000
,
00010000
00000000
00000000
00000000
00000000
00000000
00000000
00000000
00000000
00000000
00001000
00010000
00001000
00000000
00000000
00000000
,
00011000
00000000
00000000
00000000
00000100
00001000
00000100
00000000
00010000
00001000
00010000
00000000
00000010
00001000
00000010
00000000
,
00001000
00000001
00000100
00000000
00000010
00001000
00000001
00000000
00000010
00000100
00001000
00000000
00000100
00000010
00000001
00000000
,
00001001
00000000
00000000
00000000
00001000
00000010
00000100
00000000
00000010
00000100
00000001
00000000
00000010
00000100
00000010
00000000
,
00000001
00000000
00000100
00000000
00001000
00000000
00010000
00000000
00100000
00000000
00000000
00100000
00000000
00000000
10000000
00000000
,
10010000
00000000
00000000
00000000
10000000
01000000
00100000
00000000
01000000
00100000
00010000
00000000
00100000
01000000
10000000
00000000
,
00100000
10000000
00010000
00000000
01000000
00001000
00010000
00000000
00001000
00010000
00000010
00000000
00001000
00000001
00000100
00000000
,
00001001
00000000
00000000
00000000
00000001
00000010
00001000
00000000
00010000
00001000
00000010
00000000
00000001
00001000
00000010
00000000
,
00000200
00000000
00000000
00000000
00000000
00000000
00000000
00000000
00000320
00000000
00000000
00000000
00001030
00000000
00000100
00010000
,
00001000
00000000
00000000
00000000
00011000
00000000
00000000
00000000
00001000
00000000
00100000
00010000
00100000
00000000
01000000
00000000
,
10000000
00000000
00100000
00000000
10000000
00000000
00100000
00000000
01000000
00000000
00010000
10000000
01000000
00000000
00000000
00000000
,
10000000
00000000
00100000
00000000
10000000
00000000
01000000
10000000
01000000
00000000
00100000
00010000
00100000
00000000
00001000
00000000
,
00010000
00000000
00010000
00000000
00000010
00000000
00001000
00000000
00000100
00000000
00000010
00000000
00000001
00001000
00000001
00001000
,
00000001
00000000
00000000
00000000
00001001
00000000
00000000
00000000
00000001
00000000
00000100
00000010
00000100
00000000
00000001
00000000
,
00001000
00000000
00000100
00000000
00001000
00000000
00000100
00000000
00010000
00000000
00001000
01000000
00010000
00000000
00000000
00000000
,
10000000
00000000
10000000
00000000
01000000
00000000
01000000
00000000
00100000
00000000
00100000
00000000
00010000
10000000
00010000
10000000
,
00020000
00000000
20000000
30030000
,
11000000
00000000
00100000
00000000
00100000
00010000
00001000
00000100
,
00001100
00000000
00000010
00000000
00000010
00000001
00000100
00001000
,
00010000
00000000
00001000
00000000
00010000
00000000
00001000
00000000
00010000
00001000
00010000
00001000
00010000
00001000
00010000
00001000
,
00020000
00000000
00000000
00000000
00000000
00030000
MMMMMMMM
00000000
,
00011000
00000000
00001000
00000000
00011000
00010000
00001000
00010000
01000000
00000000
01000000
00000000
10010000
00000000
11000000
00000000
,
00100000
00100000
00100000
00100000
00000010
00100000
00000010
00100000
00000200
00000300
00000200
00000300
02001000
03000000
00000200
00000300
,
00011000
00000000
00010000
00000000
00011000
00001000
00010000
00001000
00000100
00000000
00000100
00000000
00001001
00000000
00000101
00000000
,
00000010
00000010
00000010
00000010
00100000
00000010
00100000
00000010
00020000
00000000
00031000
00000000
00010000
01000000
10000000
00000000
,
20010000
00000000
00000000
00000000
31000000
00000000
00000000
00000000
00110000
00000000
00000000
00110000
00000000
00000000
00011000
00000000
00020100
00000000
00000000
00000000
00031000
00000000
00000000
00000000
00001010
00000000
00000000
00001001
00000000
00000000
00000101
00000000
,
00000010
00000000
00000010
00000000
00000010
00000000
00000010
00000000
00010010
00000000
00000000
00101000
00000000
00000000
00101000
00000000
01010000
00000000
00000000
00000000
01010000
00000000
00000000
00000000
01001000
00000000
00000000
01001000
00000000
00000000
00010100
00000000
,
00001002
00000000
00000000
00000000
00000103
00000000
00000000
00000000
00001010
00000000
00000000
00001010
00000000
00000000
00011000
00000000
01002000
00000000
00000000
00000000
00013000
00000000
00000000
00000000
00110000
00000000
00000000
10010000
00000000
00000000
11000000
00000000
,
00100000
00000000
00100000
00000000
00100000
00000000
00100000
00000000
00101000
00000000
00000000
00010010
00000000
00000000
00010010
00000000
00001200
00000000
00000300
00000000
00001200
00000000
00000300
00000000
00010200
00000000
00000300
00000000
02001000
00000000
03000000
00000000
,
20010000
00000000
00000000
00000000
,
32000000
00000000
00000000
03020000
00000000
00000000
01030000
00000000
,
20000000
00000000
30000000
00000000
,
00200000
00000000
00300000
00000000
01000000
00001000
00010000
00000000
,
00000020
00000000
00000030
00000000
,
00000200
00000000
00000300
00000000
,
00000002
00000000
00000000
00000023
00000000
00000000
00000130
00000000
,
00001000
00000000
00000000
00001000
00000000
00000000
00001000
00000000
00000100
00000000
00010000
00000000
00001000
00000000
00010000
00000000
,
00021000
00000000
00030010
00002020
,
00000030
00003001
00000101
00001000
,
00002100
00000000
00003001
00000000
,
00000010
00000001
00000100
00001000
,
00012000
00000000
00103000
00220000
,
00300000
10030000
11000000
00010000
,
01000000
01000000
00100000
00010000
,
00002000
00003000
00000110
00000001
,
00002000
00003010
00011000
00001000
,
00010000
01000000
10000000
00000000
01100000
00000000
10000000
00000000
,
00020000
00130000
00011000
00010000
,
00001000
00000100
00000001
00000000
00000110
00000000
00000001
00000000
,
00000020
00000000
00000000
00000000
,
00000032
00000000
00000000
00000000
,
00000203
00000000
00002300
00000000
,
00023000
01000000
00032000
00003100
,
00022000
00033000
00000000
00000000
00000000
00000000
00000000
00000000
00000000
00000000
00000000
00000000
00000000
00000000
00000000
00000000
00000100
00000000
00000000
00000000
00000000
00000000
00000000
00000000
00010000
00000000
00000000
00000000
00001000
00000000
00000000
00000000
00000000
00000000
00000000
00000000
00010000
00000000
00000000
00000000
00001000
00000000
00000000
00000000
00000000
00000000
00000000
00000000
00100000
00000000
00000000
00000000
00000000
00000000
00000000
00000000
00001000
00000000
00000000
00000000
00000000
00000000
00000000
00000000
,
00010000
00000010
00001000
00000000
00000010
00000000
00010000
00000100
00000000
00010000
00000100
00000000
00000010
00000000
00000100
00001000
,
00000000
00000001
00001000
00000000
00000001
00000000
00000100
00000010
00000000
00000010
00001000
00000000
00000010
00000000
00000100
00000000
,
00000001
00001000
00000001
00000000
00000010
00000000
00000100
00001000
00000000
00000100
00000010
00000000
00001000
00000000
00010000
01000000
,
00000000
00010000
00001000
00000000
00100000
00000000
00001000
00010000
00000000
00001000
00010000
00000000
00000100
00000000
00010000
00000000
,
00001000
01000000
00010000
00000000
01000000
00000000
00001000
00100000
00000000
00001000
00100000
00000000
01000000
00000000
00100000
00010000
,
00000000
10000000
00010000
00000000
10000000
00000000
00100000
01000000
00000000
01000000
00010000
00000000
01000000
00000000
00100000
00000000
,
10000000
00010000
10000000
00000000
01000000
00000000
00100000
00000000
01100000
00000000
00000000
00000000
00110000
00000000
00000000
00011000
,
00000000
00000000
01010000
00000000
00100000
00000000
10000000
00100000
10000000
00000000
00010000
00000000
00100000
00000000
00010000
00100000
,
00010000
00000000
01000000
00000000
00001000
00000000
00010000
00001000
00010000
00000000
00000100
00000000
00000010
00000100
00000010
00000000
,
00000001
00001000
00000001
00000000
00000100
00000000
00000010
00001000
00000010
00000000
00000100
00000000
00000001
00000000
00001000
00000100
,
00001000
00000000
00000100
00000000
00010000
00000000
00001000
00010000
00001000
00000000
00100000
00000000
00010000
01000000
00010000
00000000
,
10000000
00100000
10000000
00000000
01000000
00000000
00100000
00010000
01000000
00000000
00100000
00000000
01000000
00000000
00010000
10000000
,
01000000
00000000
00010000
00000000
00001000
00000000
00000010
00000100
00001000
00000000
00000010
00000000
00000100
00000001
00000100
00000000
,
00000010
00001000
00000010
00000000
00000100
00000000
00000001
00001000
00000100
00000000
00000010
00000000
00001000
00000000
00010000
00001000
,
00010000
01000000
10000000
00000000
00010000
00000000
00100000
00010000
,
10000000
00000000
00000000
00000000
10010000
00000000
00000000
00000000
01000000
00010000
01000000
00000000
00001000
00010000
00001000
00000000
,
00100000
00010000
00100000
00000000
00010000
10000000
01000000
00000000
00100000
00010000
10000000
00000000
00100000
01000000
00010000
00000000
,
01000000
00100000
10000000
00000000
10010000
00000000
00000000
00000000
00010000
00100000
01000000
00000000
00100000
01000000
10000000
00000000
,
00100000
01000000
00100000
00000000
10000000
00000000
01000000
00000000
00010000
00000000
00001000
00000000
00000010
00000000
00000000
00000010
,
00000000
00000000
00000001
00000000
00001001
00000000
00000000
00000000
00000001
00000100
00000010
00000000
00000100
00000010
00001000
00000000
,
00000010
00000100
00000001
00000000
00000010
00000001
00001000
00000000
00000100
00010000
00001000
00000000
00010000
00001000
00100000
00000000
,
00010000
10000000
01000000
00000000
10010000
00000000
00000000
00000000
10000000
00100000
00010000
00000000
00001000
00010000
00100000
00000000
,
10000000
00010000
00100000
00000000
02000000
00000000
00000000
00000000
00000000
00000000
00000000
00000000
00200000
00000000
03300000
00000000
,
MMMMMMMM
00000000
MMMMMMMM
00000000
11000000
10000000
10010000
00010000
,
00110000
00100000
00101000
00001000
00011000
00010000
00010100
00000100
,
00010000
00001000
00010000
00000000
00011000
00000000
00011000
00000000
00010010
00000000
00010010
00000000
00001010
00000000
00001010
00000000
,
00001001
00001001
00000011
00001100
00000110
00001001
00001010
00011000
,
00101000
01100000
00000000
00000000
;
