#VERSION:0.83;
#TITLE:Hope in the dark;
#SUBTITLE:;
#ARTIST:Luxiem;
#TITLETRANSLIT:;
#SUBTITLETRANSLIT:;
#ARTISTTRANSLIT:;
#GENRE:にじさんじ;
#ORIGIN:;
#CREDIT:;
#BANNER:Hope in the dark.png;
#BACKGROUND:../bg.png;
#PREVIEWVID:;
#JACKET:Hope in the dark-jacket.png;
#CDIMAGE:;
#DISCIMAGE:;
#LYRICSPATH:;
#CDTITLE:../cdtitle.png;
#MUSIC:Hope in the dark.ogg;
#OFFSET:1.187000;
#SAMPLESTART:9.558000;
#SAMPLELENGTH:15.000000;
#SELECTABLE:YES;
#BPMS:0.000=201.000;
#STOPS:;
#DELAYS:;
#WARPS:;
#TIMESIGNATURES:0.000=4=4;
#TICKCOUNTS:0.000=4;
#COMBOS:0.000=1;
#SPEEDS:0.000=1.000=0.000=0;
#SCROLLS:0.000=1.000;
#FAKES:;
#LABELS:0.000=Song Start;
#BGCHANGES:3.000=Hope in the dark.avi=1.000=0=0=0=StretchNoLoop====,
99999=-nosongbg-=1.000=0=0=0 // don't automatically add -songbackground-
;
#KEYSOUNDS:;
#ATTACKS:
;

//---------------dance-single - ----------------
#NOTEDATA:;
#CHARTNAME:;
#STEPSTYPE:dance-single;
#DESCRIPTION:;
#CHARTSTYLE:;
#DIFFICULTY:Hard;
#METER:13;
#RADARVALUES:0.530815,0.692771,0.202491,0.658095,0.308798,367.000000,347.000000,20.000000,65.000000,0.000000,0.000000,0.000000,0.000000,0.000000,0.530815,0.692771,0.202491,0.658095,0.308798,367.000000,347.000000,20.000000,65.000000,0.000000,0.000000,0.000000,0.000000,0.000000;
#CREDIT:led_light;
#NOTES:
0000
0000
0000
0000
,
0000
0000
0000
0000
,
0000
0000
0000
0000
,
0000
0000
0000
0000
,
0000
0000
0000
0000
,
0000
0000
0000
0000
,
0000
0000
0000
0000
,
0011
0000
0000
0010
0000
0010
0100
0000
0010
0100
0000
0020
,
0000
0130
2100
0000
,
3002
0100
0000
0100
,
2003
0010
0000
3010
,
0100
0000
0000
0100
0000
0000
0100
0000
0010
1000
0000
0200
,
0000
0310
0220
0330
,
0002
0010
0000
0010
,
2003
0100
0000
3100
,
1000
0000
0000
0010
0000
0010
0001
0000
0000
0010
0000
0010
,
2000
3100
0022
0033
,
2000
0010
0000
0010
,
3002
0100
0000
0103
,
0010
0000
0000
0010
0000
0000
0010
0000
0100
0001
0000
0020
,
0000
0130
0220
0330
,
2000
0100
0000
0100
,
3002
0010
0000
0013
,
0001
0000
0000
0100
0000
0100
1000
0000
0000
0100
0000
0100
,
0002
0013
2200
3300
,
2000
3010
0200
0301
,
1000
1000
1100
1000
,
0001
0000
0000
0001
0000
0000
0001
0000
0010
0001
0000
1000
,
0200
0010
2300
0001
,
3002
0000
0000
0013
0000
0000
0100
0000
1000
0000
0000
0002
,
0000
0000
0203
0000
0000
0310
0000
0000
1000
0010
0000
0100
,
0000
0000
0001
0010
0000
0100
0000
0000
0010
0001
0000
2000
,
0000
3010
0210
0000
,
0302
0013
0200
1300
,
0001
0001
0101
0001
,
1000
0000
0000
1000
0000
0000
1000
0000
0100
1000
0000
0001
,
0020
0100
0032
1000
,
2003
3020
0230
0302
,
2003
0000
0000
3000
0000
0000
0100
0000
0100
0000
0000
0012
,
0000
0000
0000
0103
0000
0001
0100
0000
0000
0010
0000
1000
,
0010
0000
0001
0010
0000
0000
0220
0000
0000
0330
0000
0000
,
1000
0100
0000
0100
1000
0001
0100
0001
,
1000
0010
0100
0010
1000
0000
1100
0000
,
0010
0001
0000
0001
1000
0100
1000
0001
,
0010
0001
1000
0001
0100
0000
0110
0000
,
0100
0001
0000
0001
1000
0100
0010
0100
,
1000
0100
1000
0001
0100
0000
0110
0000
,
0100
0001
0100
0001
0010
0100
0010
0100
,
1000
0100
1000
0001
1000
1000
0001
0000
,
1000
0100
0010
0001
0000
0001
1000
0100
,
1000
0001
0100
0010
0000
0010
0100
0001
,
0010
0100
1000
0001
0000
0001
1000
0100
,
1000
0001
1000
0001
0100
0000
0110
0000
,
1000
0100
0010
0001
0000
0001
1000
0100
,
1000
0001
0100
0010
0000
0010
0100
0010
,
0002
0000
0013
0000
0100
0001
0100
0010
,
1000
0001
1000
0001
0010
0010
0100
0010
,
0002
0010
0000
1000
,
0000
0010
0000
0100
,
0003
0000
0000
1000
0000
0000
1000
0000
0100
1000
0000
0001
,
0000
0000
0100
0010
0000
0100
0010
0000
0100
0001
0000
0001
,
2000
0100
0000
0001
,
0000
0100
0000
0001
,
3000
0000
0000
0010
0000
1000
0001
0000
0100
0001
0000
0100
,
0010
0000
0010
0000
0000
0220
0000
0000
0000
0330
0000
0000
,
2000
0100
0000
0100
,
3002
0010
0000
0013
,
0100
0000
0000
0100
0000
0000
0100
0000
0010
0001
0000
0200
,
0000
0000
0000
0310
0000
0000
0100
0000
0010
1000
0000
0000
,
1000
0000
0000
0100
0000
0000
0010
0000
0001
0000
0000
2000
,
0000
0000
3020
0000
0000
0130
0000
0000
0001
0100
0000
0010
,
0000
0000
1000
0100
0000
0010
0000
0000
0100
1000
0000
0002
,
0000
0103
0120
0000
,
2030
3100
0020
0031
,
1000
1000
1010
1000
,
0001
0000
0000
0001
0000
0000
0001
0000
0010
0001
0000
1000
,
0200
0010
2300
0001
,
3002
0203
0320
2030
,
3002
0000
0000
0003
0000
0000
0010
0000
0010
0000
0000
2100
,
0000
0000
0000
3010
0000
1000
0010
0000
0000
0100
0000
0001
,
0100
0000
1000
0100
0000
0000
1001
0000
0000
0000
0000
0000
;

//---------------dance-single - ----------------
#NOTEDATA:;
#CHARTNAME:;
#STEPSTYPE:dance-single;
#DESCRIPTION:;
#CHARTSTYLE:;
#DIFFICULTY:Beginner;
#METER:3;
#RADARVALUES:0.117155,0.244507,0.080996,0.101245,0.000000,81.000000,73.000000,8.000000,10.000000,0.000000,0.000000,0.000000,0.000000,0.000000,0.117155,0.244507,0.080996,0.101245,0.000000,81.000000,73.000000,8.000000,10.000000,0.000000,0.000000,0.000000,0.000000,0.000000;
#CREDIT:led_light;
#NOTES:
0000
0000
0000
0000
,
0000
0000
0000
0000
,
0000
0000
0000
0000
,
0000
0000
0000
0000
,
0000
0000
0000
0000
,
0000
0000
0000
0000
,
0000
0000
0000
0000
,
0000
0000
0000
0000
,
0000
0000
0000
0000
,
0020
0000
0000
0000
,
0030
0000
0000
0000
,
1000
0000
1000
0000
,
1000
0000
0000
0000
,
0001
0000
0000
0000
,
0000
0000
0000
0000
,
0001
0000
1000
0000
,
0002
0000
0003
0000
,
0020
0000
0000
0000
,
0030
0000
0000
0000
,
0001
0000
0001
0000
,
0001
0000
0000
0000
,
1000
0000
0000
0000
,
0000
0000
0000
0000
,
1000
0000
0001
0000
,
2000
0000
3000
0000
,
0010
0000
0000
0000
,
0010
0000
0000
0000
,
0100
0000
0100
0000
,
1000
0000
0000
0000
,
0001
0000
0000
0000
,
1000
0000
0000
0000
,
0100
0000
0100
0000
,
0001
0000
0000
0000
,
1000
0000
0000
0000
,
1000
0000
0000
0000
,
0001
0000
0001
0000
,
1000
0000
0000
0000
,
0100
0000
0000
0000
,
0010
0000
0000
0000
,
2002
0000
0000
0000
,
0000
0000
3003
0000
,
0001
0000
0000
0000
,
0001
0000
0000
0000
,
0100
0000
0000
0000
,
0100
0000
0000
0000
,
0010
0000
0000
0000
,
0010
0000
0000
0000
,
1000
0000
0000
0000
,
1000
0000
0000
0000
,
1001
0000
0000
0000
,
1001
0000
0000
0000
,
0110
0000
0000
0000
,
0100
0000
0000
0000
,
0110
0000
0000
0000
,
0110
0000
0000
0000
,
1001
0000
0000
0000
,
1000
0000
1000
0000
,
0002
0000
0000
0000
,
0000
0000
0000
0000
,
0003
0000
0000
0000
,
0000
0000
0000
0000
,
1000
0000
0000
0000
,
1000
0000
0000
0000
,
0020
0000
0000
0000
,
0030
0000
0000
0000
,
0100
0000
0000
0000
,
0100
0000
0000
0000
,
0010
0000
0010
0000
,
0001
0000
0000
0000
,
1000
0000
0000
0000
,
0001
0000
0000
0000
,
0010
0000
0010
0000
,
1000
0000
0000
0000
,
0001
0000
0000
0000
,
0001
0000
0000
0000
,
1000
0000
1000
0000
,
0001
0000
0000
0000
,
0010
0000
0000
0000
,
0100
0000
0000
0000
,
2002
0000
0000
0000
,
0000
0000
3003
0000
;

//---------------dance-single - ----------------
#NOTEDATA:;
#CHARTNAME:;
#STEPSTYPE:dance-single;
#DESCRIPTION:;
#CHARTSTYLE:;
#DIFFICULTY:Easy;
#METER:5;
#RADARVALUES:0.216954,0.326010,0.060747,0.242989,0.000000,150.000000,144.000000,6.000000,24.000000,0.000000,0.000000,0.000000,0.000000,0.000000,0.216954,0.326010,0.060747,0.242989,0.000000,150.000000,144.000000,6.000000,24.000000,0.000000,0.000000,0.000000,0.000000,0.000000;
#CREDIT:led_light;
#NOTES:
0000
0000
0000
0000
,
0000
0000
0000
0000
,
0000
0000
0000
0000
,
0000
0000
0000
0000
,
0000
0000
0000
0000
,
0000
0000
0000
0000
,
0000
0000
0000
0000
,
0110
0100
0100
1000
,
0002
0000
0003
0000
,
2001
0000
0000
0000
,
0100
0000
3000
0000
,
0001
1000
0010
0010
,
0200
0000
0300
0000
,
0002
0000
0000
0000
,
1000
0000
0003
0000
,
0100
1000
0010
1000
,
0200
0000
0300
0000
,
1002
0000
0000
0000
,
0010
0000
0003
0000
,
1000
0001
0100
0100
,
0020
0000
0030
0000
,
2000
0000
0000
0000
,
0001
0000
3000
0000
,
0010
0001
0100
0001
,
0020
0000
0030
0000
,
0001
0000
0001
0000
,
0100
0010
0010
0000
,
0100
0010
1000
0001
,
0020
0000
0030
0000
,
0001
0000
0001
0000
,
1000
0001
0001
0000
,
1000
0000
0001
0000
,
2000
0000
3000
0000
,
1000
0000
1000
0000
,
0010
0100
0100
0000
,
0010
0100
0001
1000
,
0200
0000
0300
0000
,
1000
0100
0001
0100
,
1000
0000
0001
0000
,
2002
0000
0000
0000
,
0000
0000
3003
0000
,
1000
0000
1000
0000
,
0001
0000
0001
0000
,
1000
0000
1000
0000
,
0010
0000
0100
0000
,
0001
0000
0001
0000
,
1000
0000
0100
0000
,
1000
0000
1000
0000
,
0010
0100
0010
0000
,
1000
0000
0000
0001
0000
0000
0000
0000
,
0001
0000
0000
0100
0000
0000
0000
0000
,
0001
0000
0000
1000
0000
0000
0000
0000
,
0100
0010
0100
0000
,
1000
0000
0000
0001
0000
0000
0000
0000
,
0001
0000
0000
0010
0000
0000
0000
0000
,
0100
0000
0100
0000
,
0010
0010
0110
0001
,
2000
0000
0000
0000
,
0000
0000
0000
0000
,
3000
0000
0001
0000
,
0100
0000
0001
0000
,
2000
0000
3000
0000
,
0020
0000
0030
0000
,
0200
0000
0000
0000
,
0310
0000
0000
0000
,
2000
0000
0000
0000
,
0100
0000
3000
0000
,
0001
1000
0010
0010
,
0200
0000
0300
0000
,
0001
0000
0001
0000
,
1000
0001
0001
0000
,
1000
0000
0001
0000
,
2000
0000
3000
0000
,
1000
0000
1000
0000
,
0010
0100
0100
0000
,
0010
0100
0001
1000
,
0200
0000
0300
0000
,
1000
0100
0001
0100
,
1000
0000
0001
0000
,
2002
0000
0000
0000
,
0000
0000
3003
0000
;

//---------------dance-single - ----------------
#NOTEDATA:;
#CHARTNAME:;
#STEPSTYPE:dance-single;
#DESCRIPTION:;
#CHARTSTYLE:;
#DIFFICULTY:Medium;
#METER:9;
#RADARVALUES:0.376054,0.529766,0.131619,0.354359,0.126557,260.000000,247.000000,13.000000,35.000000,0.000000,0.000000,0.000000,0.000000,0.000000,0.376054,0.529766,0.131619,0.354359,0.126557,260.000000,247.000000,13.000000,35.000000,0.000000,0.000000,0.000000,0.000000,0.000000;
#CREDIT:led_light;
#NOTES:
0000
0000
0000
0000
,
0000
0000
0000
0000
,
0000
0000
0000
0000
,
0000
0000
0000
0000
,
0000
0000
0000
0000
,
0000
0000
0000
0000
,
0000
0000
0000
0000
,
0100
0000
0000
0100
0000
0000
0100
0000
0010
0100
0000
0000
,
0020
0030
0110
0000
,
2000
0000
0100
0000
,
3001
0001
1000
0000
,
0001
0000
0000
0001
0000
0000
0100
0000
0001
0100
0000
0000
,
0020
0000
2030
0000
,
3002
0000
0010
0000
,
1003
0100
0100
0000
,
1000
0010
0001
0010
,
2000
0000
3100
0100
,
0002
0000
0010
0000
,
1003
1000
0001
0000
,
1000
0000
0000
1000
0000
0000
0010
0000
1000
0010
0000
0000
,
0200
0000
0302
0000
,
2003
0000
0100
0000
,
3001
0010
0010
0000
,
0001
0100
1000
0100
,
0002
0000
0013
0010
,
0200
0000
0310
0000
,
0100
0100
1001
0000
,
0001
0000
0000
0001
0000
0000
1000
0000
0100
0010
0000
0000
,
0002
0000
1003
0100
,
1000
0000
0000
0010
0000
0000
0100
0000
0000
0000
0000
0001
,
0000
0000
0010
0000
0000
0010
0000
0000
0000
0001
0000
1000
,
0000
0000
0000
0100
0000
1000
0000
0000
0000
0010
0000
0200
,
0000
0000
0302
0000
,
0023
0000
0130
0000
,
0010
0010
1001
0000
,
0001
0000
0000
0001
0000
0000
1000
0000
0010
0100
0000
0000
,
0002
0000
1003
0010
,
1000
0100
0001
0100
,
2000
0000
0000
3000
0000
0000
0001
0000
0100
0000
0000
0210
,
0000
1000
0000
0001
,
0000
1300
0110
0000
,
1001
0000
0000
0100
1000
0000
0100
0000
,
0010
0000
0000
0001
0010
0000
0100
0000
,
1000
0000
0000
0010
1000
0000
0010
0000
,
0100
0001
1000
1001
,
0001
0000
0000
1000
0100
0000
1000
0000
,
0001
0000
0000
0100
0010
0000
1000
0000
,
0001
0001
1000
1000
,
0100
0010
0100
0000
0010
0000
0110
0000
,
0001
0000
0010
0001
0000
0000
0010
0000
,
0100
0000
1000
0100
0000
0000
1000
0000
,
0010
0000
1000
0010
0000
0000
1000
0000
,
0001
0000
0100
0010
0100
0000
0110
0000
,
1000
0000
0100
1000
0000
0000
0100
0000
,
0010
0000
0001
0100
0000
0000
0001
0000
,
2000
0000
3100
0000
0010
0100
0010
0000
,
0001
1000
0001
1000
0010
0000
0100
0001
,
2000
0000
0000
0000
,
0002
0000
0000
0000
,
3003
0010
0100
0010
,
1000
0000
0000
0001
0000
0000
0100
0000
0010
0100
0000
0000
,
0002
0000
0010
0000
,
0100
0000
1000
0000
,
2003
3020
0230
0302
,
0013
0000
0000
0000
0000
0110
0000
0000
0000
0000
0000
0000
,
0002
0000
0100
0000
,
1003
1000
0001
0000
,
1000
0000
0000
1000
0000
0000
0100
0000
1000
0100
0000
0000
,
0020
0000
0031
1000
,
0001
0000
0000
0010
0000
0000
0100
0000
0000
0000
0000
1000
,
0000
0000
0010
0000
0000
0010
0000
0000
0000
1000
0000
0001
,
0000
0000
0000
0100
0000
0001
0000
0000
0000
0010
0000
0200
,
0000
0000
2300
0000
,
3020
0000
0130
0000
,
0010
0010
1001
0000
,
1000
0000
0000
1000
0000
0000
0001
0000
0010
0100
0000
0000
,
2000
0000
3001
0010
,
0001
0100
1000
0100
,
0002
0000
0000
0003
0000
0000
1000
0000
0100
0000
0000
0210
,
0000
0001
0000
1000
,
0000
0301
0110
0000
;

//---------------dance-double - ----------------
#NOTEDATA:;
#CHARTNAME:;
#STEPSTYPE:dance-double;
#DESCRIPTION:;
#CHARTSTYLE:;
#DIFFICULTY:Easy;
#METER:5;
#RADARVALUES:0.211169,0.326010,0.040498,0.242989,0.000000,146.000000,142.000000,4.000000,24.000000,0.000000,0.000000,0.000000,0.000000,0.000000,0.211169,0.326010,0.040498,0.242989,0.000000,146.000000,142.000000,4.000000,24.000000,0.000000,0.000000,0.000000,0.000000,0.000000;
#CREDIT:led_light;
#NOTES:
// measure 0
00000000
00000000
00000000
00000000
,  // measure 1
00000000
00000000
00000000
00000000
,  // measure 2
00000000
00000000
00000000
00000000
,  // measure 3
00000000
00000000
00000000
00000000
,  // measure 4
00000000
00000000
00000000
00000000
,  // measure 5
00000000
00000000
00000000
00000000
,  // measure 6
00000000
00000000
00000000
00000000
,  // measure 7
00000100
00000100
00010000
00001000
,  // measure 8
00020000
00000000
00030000
00000000
,  // measure 9
00012000
00000000
00000000
00000000
,  // measure 10
00010000
00000000
00003000
00000000
,  // measure 11
00010000
00010000
00010000
00001000
,  // measure 12
00200000
00000000
00300000
00000000
,  // measure 13
02000000
00000000
00000000
00000000
,  // measure 14
00100000
00000000
03000000
00000000
,  // measure 15
00010000
00100000
01000000
00100000
,  // measure 16
00002000
00000000
00003000
00000000
,  // measure 17
00021000
00000000
00000000
00000000
,  // measure 18
00001000
00000000
00030000
00000000
,  // measure 19
00001000
00001000
00001000
00010000
,  // measure 20
00000020
00000000
00000030
00000000
,  // measure 21
00000200
00000000
00000000
00000000
,  // measure 22
00000010
00000000
00000300
00000000
,  // measure 23
00001000
00000010
00000100
00000010
,  // measure 24
00020000
00000000
00030000
00000000
,  // measure 25
00000100
00000000
00000100
00000000
,  // measure 26
00010000
00010000
00001000
00000000
,  // measure 27
00100000
00010000
00001000
00010000
,  // measure 28
00200000
00000000
00300000
00000000
,  // measure 29
01000000
00000000
01000000
00000000
,  // measure 30
10000000
00010000
01000000
00000000
,  // measure 31
00100000
00000000
01000000
00000000
,  // measure 32
00020000
00000000
00030000
00000000
,  // measure 33
01000000
00000000
01000000
00000000
,  // measure 34
00001000
00001000
00010000
00000000
,  // measure 35
00000100
00001000
00010000
00001000
,  // measure 36
00000200
00000000
00000300
00000000
,  // measure 37
00001000
00000010
00000001
00000010
,  // measure 38
00001000
00000000
00000001
00000000
,  // measure 39
00002002
00000000
00000000
00000000
,  // measure 40
00000000
00000000
00003003
00000000
,  // measure 41
00000001
00000000
00000001
00000000
,  // measure 42
00001000
00000000
00001000
00000000
,  // measure 43
00000100
00000000
00000100
00000000
,  // measure 44
00010000
00000000
00001000
00000000
,  // measure 45
00010000
00000000
00010000
00000000
,  // measure 46
00100000
00000000
00100000
00000000
,  // measure 47
01000000
00000000
01000000
00000000
,  // measure 48
00010000
10000000
01000000
00000000
,  // measure 49
10000000
00000000
00000000
00010000
00000000
00000000
00000000
00000000
,  // measure 50
00010000
00000000
00000000
01000000
00000000
00000000
00000000
00000000
,  // measure 51
01000000
00000000
00000000
00001000
00000000
00000000
00000000
00000000
,  // measure 52
00001000
00010000
00001000
00000000
,  // measure 53
00010000
00000000
00000000
00000100
00000000
00000000
00000000
00000000
,  // measure 54
00000100
00000000
00000000
00001000
00000000
00000000
00000000
00000000
,  // measure 55
00000010
00000000
00000010
00000000
,  // measure 56
00000100
00000001
00001000
00000000
,  // measure 57
00000002
00000000
00000000
00000000
,  // measure 58
00000000
00000000
00000000
00000000
,  // measure 59
00000003
00000000
00001000
00000000
,  // measure 60
00000100
00000000
00001000
00000000
,  // measure 61
00000020
00000000
00000030
00000000
,  // measure 62
00020000
00000000
00030000
00000000
,  // measure 63
00002000
00000000
00000000
00000000
,  // measure 64
00003000
00000000
00000000
00000000
,  // measure 65
00020000
00000000
00000000
00000000
,  // measure 66
00001000
00000000
00030000
00000000
,  // measure 67
00001000
00001000
00001000
00010000
,  // measure 68
00000200
00000000
00000300
00000000
,  // measure 69
00000010
00000000
00000010
00000000
,  // measure 70
00000001
00001000
00000010
00000000
,  // measure 71
00000100
00000000
00000010
00000000
,  // measure 72
00002000
00000000
00003000
00000000
,  // measure 73
00000010
00000000
00000010
00000000
,  // measure 74
00010000
00010000
00001000
00000000
,  // measure 75
00100000
00010000
00001000
00010000
,  // measure 76
00200000
00000000
00300000
00000000
,  // measure 77
00010000
01000000
10000000
01000000
,  // measure 78
00010000
00000000
10000000
00000000
,  // measure 79
20020000
00000000
00000000
00000000
,  // measure 80
00000000
00000000
30030000
00000000
;

//---------------dance-double - ----------------
#NOTEDATA:;
#CHARTNAME:;
#STEPSTYPE:dance-double;
#DESCRIPTION:;
#CHARTSTYLE:;
#DIFFICULTY:Medium;
#METER:9;
#RADARVALUES:0.376054,0.529766,0.161993,0.334110,0.121494,260.000000,244.000000,16.000000,33.000000,0.000000,0.000000,0.000000,0.000000,0.000000,0.376054,0.529766,0.161993,0.334110,0.121494,260.000000,244.000000,16.000000,33.000000,0.000000,0.000000,0.000000,0.000000,0.000000;
#CREDIT:led_light;
#NOTES:
00000000
00000000
00000000
00000000
,
00000000
00000000
00000000
00000000
,
00000000
00000000
00000000
00000000
,
00000000
00000000
00000000
00000000
,
00000000
00000000
00000000
00000000
,
00000000
00000000
00000000
00000000
,
00000000
00000000
00000000
00000000
,
00001000
00000000
00000000
00001000
00000000
00000000
00010000
00000000
00001000
00010000
00000000
00000000
,
00002000
00003000
00011000
00000000
,
00200000
00000000
00000000
00000000
,
00301000
00010000
00000000
00011000
,
00010000
00000000
00000000
00010000
00000000
00000000
00000100
00000000
00000010
00000100
00000000
00000000
,
00002000
00000000
00000020
00000030
,
00003002
00000000
00000000
00000000
,
00001003
00001000
00000000
00001100
,
00001000
00000010
00000100
00000010
,
00002000
00000000
00003100
00000001
,
00000200
00000000
00000000
00000000
,
00010300
00001000
00000000
00011000
,
00001000
00000000
00000000
00001000
00000000
00000000
00100000
00000000
01000000
00100000
00000000
00000000
,
00020000
00000000
02000000
03000000
,
20030000
00000000
00000000
00000000
,
30010000
00010000
00000000
00110000
,
00010000
01000000
00100000
01000000
,
00020000
00000000
00130000
10000000
,
00200000
00000000
01300000
00000000
,
10000000
10000000
00010000
00000000
,
00100000
00000000
00000000
00010000
00000000
00000000
00100000
00000000
01000000
00010000
00000000
00000000
,
00002000
00000000
00013000
00000100
,
00001000
00000000
00000000
00000010
00000000
00000000
00010000
00000000
00000000
00000000
00000000
00000010
,
00000000
00000000
00001000
00000000
00000000
00001000
00000000
00000000
00000000
00000100
00000000
00000010
,
00000000
00000000
00000000
00000100
00000000
00010000
00000000
00000000
00000000
00010000
00000000
00002000
,
00000000
00000000
00023000
00000000
,
00032000
00000000
00103000
00000000
,
00010000
00100000
00100000
00000000
,
00001000
00000000
00000000
00010000
00000000
00000000
00000010
00000000
00000100
00000010
00000000
00000000
,
00002000
00000000
00003010
00000100
,
00000001
00000010
00001000
00000010
,
00000002
00000000
00000000
00000003
00000000
00000000
00001000
00000000
00000010
00000000
00000000
00000210
,
00000000
00001000
00000000
00000001
,
00000000
00001300
00000110
00000000
,
00001001
00000000
00000000
00000100
00010000
00000000
00000100
00000000
,
00000010
00000000
00000000
00000001
00000010
00000000
00001000
00000000
,
00010000
00000000
00000000
00001000
00100000
00000000
00001000
00000000
,
00010000
00010000
00001000
00011000
,
00001000
00000000
00000000
00100000
01000000
00000000
10000000
00000000
,
00010000
00000000
00000000
10000000
01000000
00000000
00100000
00000000
,
00010000
00010000
01000000
01000000
,
00001000
00010000
00001000
00000000
00010000
00000000
00011000
00000000
,
00001000
00000000
00100000
00010000
00000000
00100000
00010000
00000000
,
01000000
00000000
00001000
00010000
00000000
00001000
00010000
00000000
,
00000100
00000000
00001000
00000010
00000000
00001000
00000010
00000000
,
00001000
00000000
00000100
00010000
00001000
00000000
00011000
00000000
,
00010000
00000000
00000100
00001000
00000000
00000100
00001000
00000000
,
00000010
00000000
00001000
00000001
00000000
00001000
00000001
00000000
,
00000200
00000000
00000310
00000000
00010000
00001000
00100000
00000000
,
00001000
00010000
00001000
00010000
00001000
00000000
00010000
00100000
,
20000000
00000000
00000000
00000000
,
30020000
00000000
00000000
00000000
,
00030000
00100000
00001000
00010000
,
00001000
01000000
00001000
00011000
,
00000200
00000000
00001300
00000000
,
00000010
00000000
00000010
00000000
,
00000200
00000000
00000302
00000000
,
00001003
00000000
00000000
00000000
00000000
00000110
00000000
00000000
00000000
00000000
00000000
00000000
,
00000200
00000000
00000000
00000000
,
00010300
00001000
00000000
00011000
,
00001000
00000000
00000000
00001000
00000000
00000000
00100000
00000000
01000000
00100000
00000000
00000000
,
00020000
00000000
00130000
00100000
,
00010000
00000000
00000000
00100000
00000000
00000000
00001000
00000000
00000000
00000000
00000000
00100000
,
00000000
00000000
00010000
00000000
00000000
00010000
00000000
00000000
00000000
01000000
00000000
00100000
,
00000000
00000000
00000000
01000000
00000000
00001000
00000000
00000000
00000000
00001000
00000000
00020000
,
00000000
00000000
00032000
00000000
,
00023000
00000000
00030010
00000000
,
00001000
00000010
00000010
00000000
,
00010000
00000000
00000000
00001000
00000000
00000000
00100000
00000000
01000000
00100000
00000000
00000000
,
00020000
00000000
00130000
01000000
,
10000000
00100000
00010000
00100000
,
20000000
00000000
00000000
30000000
00000000
00000000
00010000
00000000
00100000
00000000
00000000
02100000
,
00000000
00010000
00000000
10000000
,
00000000
03010000
01100000
00000000
;

//---------------dance-double - ----------------
#NOTEDATA:;
#CHARTNAME:;
#STEPSTYPE:dance-double;
#DESCRIPTION:;
#CHARTSTYLE:;
#DIFFICULTY:Hard;
#METER:13;
#RADARVALUES:0.519244,0.692771,0.212615,0.658095,0.303736,359.000000,338.000000,21.000000,65.000000,0.000000,0.000000,0.000000,0.000000,0.000000,0.519244,0.692771,0.212615,0.658095,0.303736,359.000000,338.000000,21.000000,65.000000,0.000000,0.000000,0.000000,0.000000,0.000000;
#CREDIT:led_light;
#NOTES:
00000000
00000000
00000000
00000000
,
00000000
00000000
00000000
00000000
,
00000000
00000000
00000000
00000000
,
00000000
00000000
00000000
00000000
,
00000000
00000000
00000000
00000000
,
00000000
00000000
00000000
00000000
,
00000000
00000000
00000000
00000000
,
00000011
00000000
00000000
00000001
00000000
00001000
00000010
00000000
00001000
00000010
00000000
00020000
,
00000000
00031000
00210000
00000000
,
00302000
01000000
00000000
01000000
,
00023000
01000000
00000000
01000000
,
00031000
00000000
00000000
00001000
00000000
00000000
00010000
00000000
00000100
00001000
00000000
00000020
,
00000000
00000130
00000220
00000330
,
00000002
00000010
00000000
00000010
,
00002003
00000100
00000000
00003100
,
00001000
00000000
00000000
00000010
00000000
00001000
00000010
00000000
00000000
00010000
00000000
00001000
,
00020000
00031000
00002200
00003300
,
00020000
00000010
00000000
00000010
,
00032000
00000010
00000000
00000010
,
00013000
00000000
00000000
00010000
00000000
00000000
00001000
00000000
00100000
00010000
00000000
02000000
,
00000000
03100000
02200000
03300000
,
20000000
01000000
00000000
01000000
,
30020000
00100000
00000000
00130000
,
00010000
00000000
00000000
01000000
00000000
00010000
01000000
00000000
00000000
00001000
00000000
00010000
,
00002000
00013000
00220000
00330000
,
20000000
30010000
02000000
03100000
,
00010000
00010000
00011000
00010000
,
00000010
00000000
00000000
00000010
00000000
00000000
00010000
00000000
00001000
00010000
00000000
00001000
,
00020000
00001000
00030200
00000010
,
00002300
00000000
00000000
00003001
00000000
00000000
00001000
00000000
00000100
00000000
00000000
00000020
,
00000000
00000000
00000230
00000000
00000000
00001300
00000000
00000000
00000100
00000010
00000000
00000001
,
00000000
00000000
00000010
00000100
00000000
00001000
00000000
00000000
00000100
00010000
00000000
00002000
,
00000000
00013000
00021000
00000000
,
00032000
00013000
00000020
00000130
,
00001000
00001000
00011000
00010000
,
00000100
00000000
00000000
00000100
00000000
00000000
00000010
00000000
00000100
00010000
00000000
00010000
,
00002000
00010000
00203000
01000000
,
00320000
02030000
03200000
20300000
,
30020000
00000000
00000000
00030000
00000000
00000000
00100000
00000000
01000000
00000000
00000000
00120000
,
00000000
00000000
00000000
01030000
00000000
00010000
01000000
00000000
00000000
00001000
00000000
00010000
,
00000100
00000000
00010000
00001000
00000000
00000000
00022000
00000000
00000000
00033000
00000000
00000000
,
00010000
00001000
00000000
00001000
00010000
01000000
00010000
00001000
,
00010000
00000010
00001000
00000010
00010000
00000000
00011000
00000000
,
00000100
00010000
00000000
00010000
00001000
00010000
00001000
00000010
,
00000001
00000010
00000001
00001000
00000001
00000000
00001001
00000000
,
00000001
00000100
00000000
00000100
00000010
00000001
00000010
00000100
,
00001000
00010000
00100000
00010000
00001000
00000000
00011000
00000000
,
00100000
00001000
00100000
00001000
01000000
00010000
01000000
00010000
,
10000000
01000000
00100000
01000000
10000000
00000000
10010000
00000000
,
10000000
01000000
00100000
00010000
00000000
00100000
00010000
00000000
,
00001000
00000100
00000010
00000001
00000000
00000010
00000001
00000000
,
00000001
00000100
00000010
00001000
00000000
00000010
00001000
00000000
,
00010000
01000000
00010000
01000000
00001000
00000000
00011000
00000000
,
00100000
00010000
10000000
01000000
00000000
01000000
00100000
00000000
,
00010000
00001000
00000100
00000010
00000000
00000001
00001000
00000000
,
00000020
00000000
00000130
00000000
00000001
00001000
00000100
00000000
,
00010000
00001000
00010000
00001000
00010000
00000000
00000100
00001000
,
00000020
00000100
00000000
00000001
,
00000000
00010000
00000000
00000100
,
00000030
00000000
00000000
00001000
00000000
00000000
00000100
00000000
00000000
00001000
00000000
00000001
,
00000000
00000000
00000100
00000010
00000000
00001000
00000100
00000000
00000100
00001000
00000000
00000100
,
00020000
00001000
00000000
00000100
,
00000000
00001000
00000000
00100000
,
00030000
00000000
00000000
00001000
00000000
00100000
00010000
00000000
00100000
00001000
00000000
00100000
,
00010000
00000000
00010000
00000000
00000000
02200000
00000000
00000000
00000000
03300000
00000000
00000000
,
20000000
01000000
00000000
01000000
,
30020000
00100000
00000000
00130000
,
01000000
00000000
00000000
01000000
00000000
00000000
01000000
00000000
00010000
00001000
00000000
00020000
,
00000000
00000000
00000000
00031000
00000000
00000000
00100000
00000000
00010000
01000000
00000000
00000000
,
00100000
00000000
00000000
10000000
00000000
00000000
00010000
00000000
00100000
00000000
00000000
02000000
,
00000000
00000000
03200000
00000000
00000000
00310000
00000000
00000000
00100000
01000000
00000000
10000000
,
00000000
00000000
01000000
00100000
00000000
00010000
00000000
00000000
00100000
00001000
00000000
00020000
,
00000000
00031000
00012000
00000000
,
00023000
00031000
02000000
03100000
,
00010000
00010000
00011000
00001000
,
00100000
00000000
00000000
00100000
00000000
00000000
01000000
00000000
00100000
00001000
00000000
00001000
,
00020000
00001000
00030200
00000010
,
00002300
00003020
00000230
00000302
,
00002003
00000000
00000000
00003000
00000000
00000000
00000100
00000000
00000010
00000000
00000000
00002100
,
00000000
00000000
00000000
00003010
00000000
00001000
00000010
00000000
00000000
00010000
00000000
00001000
,
00100000
00000000
00001000
00010000
00000000
00000000
00011000
00000000
00000000
00000000
00000000
00000000
;
