#TITLE:Holdin' On;
#SUBTITLE:(Skrillex & Nero Remix);
#ARTIST:MONSTA;
#TITLETRANSLIT:;
#SUBTITLETRANSLIT:;
#ARTISTTRANSLIT:;
#GENRE:Popular Songs;
#CREDIT:;
#BANNER:Holdin' On (Skrillex & Nero Remix).png;
#BACKGROUND:Holdin' On (Skrillex & Nero Remix)-bg.png;
#LYRICSPATH:;
#CDTITLE:../cdtitle.png;
#MUSIC:Holdin' On (Skrillex & Nero Remix).ogg;
#OFFSET:2.757000;
#SAMPLESTART:38.619999;
#SAMPLELENGTH:15.000000;
#LASTBEATHINT:2.547650;
#SELECTABLE:YES;
#DISPLAYBPM:87.000000:174.000000;
#BPMS:0.000000=87.000000
,36.000000=174.000000
,68.000000=348.000000
,74.000000=174.000000
,202.000000=87.000000
;
#STOPS:68.000000=0.517000,
69.000000=0.517000,
70.000000=0.517000,
71.000000=0.517000,
72.000000=0.517000,
73.000000=0.517000,
74.000000=1.379000
;
#BGCHANGES:-99.000=../bg.avi=1.000=0=0=1=====,
99999=-nosongbg-=1.000=0=0=0 // don't automatically add -songbackground-
;
#KEYSOUNDS:;
#ATTACKS:;

//---------------dance-single - ----------------
#NOTES:
     dance-single:
     :
     Beginner:
     2:
     0.102338,0.176719,0.043155,0.000000,0.000000,83.000000,78.000000,5.000000,0.000000,0.000000,0.000000,0.102338,0.176719,0.043155,0.000000,0.000000,83.000000,78.000000,5.000000,0.000000,0.000000,0.000000:
0000
0000
0000
0000
,
0000
0000
0000
0000
,
0000
0000
0000
0000
,
0000
0000
0000
0000
,
0000
0000
0000
0000
,
0100
0000
0000
0000
,
0100
0000
0000
0000
,
0100
0000
0000
0000
,
0100
0000
0000
0000
,
0001
0000
0000
0000
,
0000
0000
0000
0000
,
0001
0000
0000
0000
,
0000
0000
0000
0000
,
1000
0000
0000
0000
,
1000
0000
0000
0000
,
0010
0000
0000
0000
,
0010
0000
0000
0000
,
0010
0000
0000
0000
,
0000
0000
0000
0000
,
0000
0000
0100
0000
,
0100
0000
0010
0000
,
0000
0000
1000
0000
,
1000
0000
0001
0000
,
0000
0000
0001
0000
,
0001
0000
0010
0000
,
0000
0000
0100
0000
,
0000
0000
0110
0000
,
0000
0000
0010
0000
,
0010
0000
0100
0000
,
0000
0000
0001
0000
,
0001
0000
1000
0000
,
0000
0000
1000
0000
,
1000
0000
0100
0000
,
0000
0000
0010
0000
,
0000
0000
0100
0000
,
1000
0000
1000
1000
,
1000
0000
0001
0000
,
1000
0000
0001
0001
,
0001
0000
0100
0000
,
0010
0000
0100
0100
,
0100
0000
0001
0000
,
1000
0000
0010
0000
,
0010
0010
0010
0000
,
1000
0000
0001
0001
,
0001
0000
0010
0000
,
0100
0000
0010
0010
,
0010
0000
0001
0000
,
1000
0000
0100
0100
,
0100
0000
1000
0000
,
0000
0000
0001
0000
,
0000
0000
1001
0000
,
0000
0000
1001
0000
,
0000
0000
0110
0000
,
0000
0000
0110
0000
,
0000
0000
1000
0000
,
0000
0000
0001
0000
,
0000
0000
0010
0000
,
0000
0000
0100
0000
,
0000
0000
1000
0000
;

//---------------dance-single - ----------------
#NOTES:
     dance-single:
     :
     Challenge:
     14:
     0.573342,0.770313,0.379762,0.431548,0.254613,465.000000,421.000000,44.000000,50.000000,0.000000,0.000000,0.573342,0.770313,0.379762,0.431548,0.254613,465.000000,421.000000,44.000000,50.000000,0.000000,0.000000:
// measure 0
0000
0000
0000
0000
,  // measure 1
0000
0000
0000
0000
,  // measure 2
0000
0000
0000
0000
,  // measure 3
0000
0000
0000
0000
,  // measure 4
0000
0000
0000
0000
,  // measure 5
2000
0000
0000
0000
3002
0000
0000
0000
0203
0000
1000
0000
1300
0100
0010
1000
,  // measure 6
0200
0000
0000
0000
0320
0000
0000
0000
2030
0000
0010
0000
3010
0001
1000
0000
,  // measure 7
0002
0000
0000
0000
2003
0000
0000
0000
3200
0000
0001
0000
0301
0100
0010
0001
,  // measure 8
0200
0000
0000
0000
0320
0000
0000
0000
0032
0000
0010
0000
0013
1000
0001
0000
,  // measure 9
1000
0000
0000
0001
1000
0000
0100
0000
2000
0000
0000
0000
3010
0000
0100
0000
,  // measure 10
0001
0000
0000
1000
0001
0000
0100
0000
0002
0000
0000
0000
0013
0000
0100
0000
,  // measure 11
1000
0000
0000
0100
1000
0000
0100
0000
0020
0000
0000
0000
0031
0000
0100
0000
,  // measure 12
0020
0000
0100
0000
0130
0010
0100
0001
,  // measure 13
0010
0000
0000
0100
1000
0000
0001
0000
2000
0000
0000
0000
3010
0000
0100
0000
,  // measure 14
0001
0000
0000
1000
0100
0000
1000
0000
0002
0000
0000
0000
0013
0000
0001
0000
,  // measure 15
0100
0010
0100
0010
1000
0001
1000
0001
,  // measure 16
0010
0000
0100
0000
0010
0000
0100
0000
1000
0001
1000
0001
0100
0010
1000
0001
,  // measure 17
0020
0030
2200
3300
0002
0003
0220
0330
,  // measure 18
2000
0000
0000
0000
0000
0000
0000
0000
0000
0000
0000
0000
0000
0000
0000
0000
0000
0000
0000
0000
0000
0000
0000
0000
3000
0000
0000
0000
0000
0000
0000
0000
0000
0000
0000
0000
0000
0000
0000
0000
0000
0000
0000
0000
0000
0000
0000
0000
0022
0000
0000
0000
0000
0000
0000
0000
0000
0000
0000
0000
0000
0000
0000
0000
0000
0000
0000
0000
0000
0000
0000
0000
0033
0000
0000
0000
0000
0000
0000
0000
0000
0000
0000
0000
0000
0000
0000
0000
0000
0000
0000
0000
0000
0000
0000
0000
0000
0101
0000
0000
0000
0000
0000
0000
0000
0000
0000
0000
0000
0000
0000
0000
0000
0000
0000
0000
0000
0000
0000
0000
0000
0000
0000
0000
0000
0000
0000
0000
0000
0000
0000
0000
0000
0000
0000
0000
0000
0000
0000
0000
0000
0000
0000
0000
1010
0000
0000
0000
0000
0000
0000
0000
0000
0000
0000
0000
0000
0000
0000
0000
0000
0000
0000
0000
0000
0000
0000
0000
0000
0000
0000
0000
0000
0000
0000
0000
0000
0000
0000
0000
0000
0000
0000
0000
0000
0000
0000
0000
0000
0000
0000
0000
,  // measure 19
0100
0001
0001
0001
0010
1000
1000
1000
,  // measure 20
0100
0001
0010
1000
1100
0000
0011
0000
,  // measure 21
1000
0010
0010
0010
0100
0001
0010
0010
,  // measure 22
1000
1000
0010
0001
0100
0000
0110
0000
,  // measure 23
0001
1000
0100
0100
1000
0001
0100
0100
,  // measure 24
0010
0100
0001
0010
0100
0000
1001
0000
,  // measure 25
0100
0010
1000
1000
1100
0100
0001
0011
,  // measure 26
0010
1000
1010
0000
1100
0000
0011
0000
,  // measure 27
0100
1000
1000
1000
0010
0001
0001
0001
,  // measure 28
0100
1000
0010
0001
0101
0000
1010
0000
,  // measure 29
0001
0010
0010
0010
0100
1000
0010
0010
,  // measure 30
0001
0001
0010
1000
0100
0000
0110
0000
,  // measure 31
1000
0001
0100
0100
0001
1000
0100
0100
,  // measure 32
0010
0100
1000
0010
0100
0000
1001
0000
,  // measure 33
0100
0010
0001
0001
0200
0000
0310
0000
,  // measure 34
2000
0100
0100
3100
0001
0000
0101
0000
,  // measure 35
1000
0100
1000
0000
0001
0000
0100
0000
0010
0000
1000
0000
0100
0000
0100
0000
,  // measure 36
0001
0001
0100
1000
1001
0000
1010
0000
,  // measure 37
0100
0001
1000
1000
0100
0001
1000
1000
,  // measure 38
0010
0010
0001
0100
1000
0000
1100
0000
,  // measure 39
0001
0100
0001
0000
1000
0000
0100
0000
0010
0000
0001
0000
0100
0000
0100
0000
,  // measure 40
1000
1000
0100
0001
1001
0000
0011
0000
,  // measure 41
0100
1000
0001
0001
0200
1000
1300
0001
,  // measure 42
0011
0000
0110
0000
0011
0000
1010
0000
0000
1001
0000
0000
,  // measure 43
1000
0100
0001
0001
1000
0010
0001
0001
,  // measure 44
0010
0100
1000
0001
0101
0000
0110
0000
,  // measure 45
0001
0100
0001
0010
1000
0100
0001
0010
,  // measure 46
0002
0100
0203
1000
1300
0000
1001
0000
,  // measure 47
0010
1000
0100
0100
0001
0010
0010
1000
,  // measure 48
0100
0100
0001
0010
0012
0000
0103
0000
,  // measure 49
0010
0000
2000
0000
0100
0000
3100
0000
1000
0001
0100
0001
0100
0001
1000
0001
,  // measure 50
0100
0001
0100
0001
1000
0000
0000
0000
2010
0000
0001
0000
3001
0010
1000
1000
,  // measure 51
0100
0001
0001
0010
1000
1000
1100
0000
2100
0000
0001
0000
3001
0100
0010
0001
,  // measure 52
0010
0100
0001
0010
0200
0000
0301
0000
0120
0000
0001
0000
0031
0001
0001
0001
,  // measure 53
1000
1000
1000
1000
0010
1000
0100
0000
0021
0000
0100
0000
0130
0010
0100
1000
,  // measure 54
0002
0000
0100
0000
2003
0000
3010
0000
0102
0000
1000
0000
1003
0100
0001
0001
,  // measure 55
0010
1000
1000
0100
0001
0001
0011
0000
0012
0000
1000
0000
1003
0010
0100
1000
,  // measure 56
0100
0010
1000
0100
0020
0000
1030
0000
0210
0000
1000
0000
1300
1000
1000
1000
,  // measure 57
0001
0001
0001
0001
0100
0001
0010
0000
0110
0000
0200
0001
0300
0200
1000
0300
,  // measure 58
0002
0000
0103
0000
0120
0000
1030
0100
0002
0000
0000
0000
0000
0000
0000
0000
,  // measure 59
0000
0000
0003
0000
;

//---------------dance-single - ----------------
#NOTES:
     dance-single:
     :
     Hard:
     12:
     0.500596,0.693282,0.233036,0.362500,0.151042,406.000000,379.000000,27.000000,42.000000,0.000000,0.000000,0.500596,0.693282,0.233036,0.362500,0.151042,406.000000,379.000000,27.000000,42.000000,0.000000,0.000000:
0000
0000
0000
0000
,
0000
0000
0000
0000
,
0000
0000
0000
0000
,
0000
0000
0000
0000
,
0000
0000
0000
0000
,
0002
0000
0203
0000
0302
1000
1003
0001
,
0020
0000
0230
0000
0320
0001
0031
1000
,
2000
0000
3200
0000
2300
0001
3001
1000
,
0020
0000
0230
0000
0320
1000
1030
0001
,
0001
0000
1000
0010
0001
0000
0010
0000
,
1000
0000
0001
0010
1000
0000
0010
0000
,
0001
0000
1000
0100
1000
0000
0010
0000
,
1000
0000
0001
0100
0001
0000
0010
0000
,
0100
0000
1000
0100
0001
0000
0100
0000
,
1000
0000
0001
0100
1000
0000
0100
0000
,
0010
1000
0010
0000
1000
0100
1000
0000
,
0100
0001
0100
0000
0001
0010
0001
0010
,
0200
0302
0023
2030
,
3200
0000
0000
0000
0000
0000
0000
0000
0000
0000
0000
0000
0000
0000
0000
0000
0000
0000
0000
0000
0000
0000
0000
0000
0000
0000
0000
0000
0000
0000
0000
0000
0000
0000
0000
0000
0000
0000
0000
0000
0000
0000
0000
0000
0000
0000
0000
0000
0302
0000
0000
0000
0000
0000
0000
0000
0000
0000
0000
0000
0000
0000
0000
0000
0000
0000
0000
0000
0000
0000
0000
0000
0000
0000
0000
0000
0000
0000
0000
0000
0000
0000
0000
0000
0003
0000
0000
0000
0000
0000
0000
0000
0000
0000
0000
0000
0000
0110
0000
0000
0000
0000
0000
0000
0000
0000
0000
0000
0000
0000
0000
0000
0000
0000
0000
0000
0000
0000
0000
0000
0000
0000
0000
0000
0000
0000
0000
0000
0000
0000
0000
0000
0000
0000
0000
0000
0000
0000
0000
0000
0000
0000
0000
0000
1001
0000
0000
0000
0000
0000
0000
0000
0000
0000
0000
0000
0000
0000
0000
0000
0000
0000
0000
0000
0000
0000
0000
0000
0000
0000
0000
0000
0000
0000
0000
0000
0000
0000
0000
0000
0000
0000
0000
0000
0000
0000
0000
0000
0000
0000
0000
0000
,
1000
0100
0010
0100
1000
0100
0010
0100
,
1000
0001
0100
0010
1000
0000
1001
0000
,
0100
0010
0001
0010
0100
1000
0001
1000
,
0100
0010
0001
0100
0010
0000
0110
0000
,
0100
0001
0010
0100
1000
0010
1000
0100
,
0010
0001
0100
0001
1000
0000
1001
0000
,
0100
0010
1000
0010
0011
0000
0100
0101
,
0000
0100
1100
0000
1010
0000
1001
0000
,
0001
0100
0010
0100
0001
0100
0010
0100
,
0001
1000
0100
0010
0001
0000
1001
0000
,
0100
0010
1000
0010
0100
0001
1000
0001
,
0100
0010
1000
0100
0010
0000
0110
0000
,
0100
1000
0010
0100
0001
0010
0001
0100
,
0010
1000
0100
1000
0001
0000
1001
0000
,
0100
0010
0001
0010
2000
0000
3100
0000
,
1000
0001
1000
0001
0100
0000
0110
0000
,
0001
0100
0001
0100
0010
0001
0010
1000
,
0100
0001
0100
1000
0001
0000
1001
0000
,
1000
0001
0100
0001
1000
0100
1000
0001
,
0010
0001
1000
0010
0100
0000
0110
0000
,
0001
0010
0001
0010
0100
0001
0100
1000
,
0010
0001
0010
1000
0001
0000
1001
0000
,
0001
1000
0100
1000
0001
0100
0010
0010
,
1000
0000
1000
0000
1000
0000
0100
0000
0000
0011
0000
0000
,
0100
1000
0001
1000
0100
1000
0001
1000
,
0100
0010
0001
1000
0010
0000
0101
0000
,
1000
0010
0100
0010
1000
0001
0010
0001
,
1000
0010
0010
0100
0100
0000
1010
0000
,
0100
0001
1000
0001
0100
0001
1000
0001
,
0100
0010
1000
0001
0020
0000
0130
0000
,
1000
0001
1000
0001
0100
0100
1000
0010
,
0010
0000
0001
0000
0100
0000
0000
0000
2020
0000
3030
0000
1000
0001
1000
0001
,
0010
0001
0010
0001
1000
0010
1000
0000
0202
0000
0303
0000
1000
0100
1000
0100
,
1000
0001
1000
0001
0200
0000
0310
0000
2020
0000
3030
0000
0001
0010
0001
0010
,
1000
0010
1000
0010
0001
0010
0100
0000
2002
0000
3003
0000
0100
0001
0100
0001
,
2000
0000
3100
0000
0200
0000
0310
0000
0022
0000
0033
0000
0001
1000
0001
1000
,
0010
1000
0010
1000
0001
0010
0001
0000
2200
0000
3300
0000
0001
0100
0001
0100
,
0001
1000
0001
1000
0200
0000
0310
0000
0022
0000
0033
0000
1000
0010
1000
0010
,
0001
0010
0001
0010
1000
0010
0100
0000
0010
0000
1000
0100
0000
1000
0010
0000
,
0200
0310
0020
2030
0002
0000
0000
0000
,
0000
0000
3003
0000
;

//---------------dance-single - ----------------
#NOTES:
     dance-single:
     :
     Easy:
     5:
     0.233036,0.282448,0.094941,0.025893,0.000000,189.000000,178.000000,11.000000,3.000000,0.000000,0.000000,0.233036,0.282448,0.094941,0.025893,0.000000,189.000000,178.000000,11.000000,3.000000,0.000000,0.000000:
0000
0000
0000
0000
,
0000
0000
0000
0000
,
0000
0000
0000
0000
,
0000
0000
0000
0000
,
0000
0000
0000
0000
,
1000
0000
0001
1000
,
0100
0000
0010
0100
,
0001
0000
1000
0001
,
0100
0000
0010
0100
,
1000
0100
0001
0000
,
0001
0100
1000
0000
,
0100
0001
0010
0001
,
2000
0000
0000
3000
,
0001
0010
1000
0000
,
1000
0010
0001
0000
,
1000
0010
0100
0001
,
0001
0010
0100
1000
,
0001
0001
0001
0001
,
0001
0001
0000
0001
,
1000
0000
1000
0010
,
0100
0010
1000
1000
,
0001
0000
1000
0100
,
0001
0100
1000
1000
,
0001
0000
0001
0010
,
0100
0010
0001
0001
,
1000
0000
1001
0000
,
0110
0000
1001
0000
,
0001
0000
0001
0010
,
0100
0010
0001
0001
,
1000
0000
0001
0100
,
1000
0100
0001
0001
,
1000
0000
1000
0010
,
0100
0010
1000
1000
,
0001
0000
1001
0000
,
0000
0110
0110
0000
,
0010
0010
0001
0010
,
0100
1000
0001
0000
,
0001
0001
0100
0010
,
1000
0001
0100
0000
,
0010
0010
1000
0010
,
0100
0001
1000
0000
,
1000
1000
0100
0000
,
1001
1001
0110
0000
,
0010
0010
0100
1000
,
0001
1000
0100
0000
,
0010
0010
0001
0100
,
1000
0100
0010
0000
,
0010
0010
0100
0001
,
1000
0001
0100
0000
,
0100
0001
2000
0000
,
0000
3000
1001
0001
,
0001
0001
0100
0100
,
0100
0100
0010
0010
,
0010
0010
1000
1000
,
1000
0001
1001
1000
,
1000
1000
0100
0100
,
0100
0100
0010
0010
,
0010
0010
0001
0001
,
0001
1000
0002
0000
,
0000
0000
0003
0000
;

//---------------dance-single - ----------------
#NOTES:
     dance-single:
     :
     Medium:
     9:
     0.380995,0.462188,0.353869,0.138095,0.004315,309.000000,268.000000,41.000000,16.000000,0.000000,0.000000,0.380995,0.462188,0.353869,0.138095,0.004315,309.000000,268.000000,41.000000,16.000000,0.000000,0.000000:
0000
0000
0000
0000
,
0000
0000
0000
0000
,
0000
0000
0000
0000
,
0000
0000
0000
0000
,
0000
0000
0000
0000
,
0200
1000
0000
1300
,
0020
0001
0000
0031
,
2000
0010
0000
3010
,
0002
0100
0000
0103
,
1000
0000
0010
0100
0001
0000
0000
0000
,
0001
0000
0010
0100
1000
0000
0000
0000
,
1000
0000
0001
0010
1000
0000
0010
0000
,
0002
0000
0000
0003
,
1000
0000
0100
0010
0001
0000
1000
0000
,
0001
0000
0100
0010
1000
0000
0001
0000
,
0100
0100
1000
1000
,
0010
0010
0001
0001
,
0200
0300
0020
0030
0200
0300
0020
0030
,
0200
0300
0020
0030
0000
0000
0110
0000
,
1001
0000
0100
0000
1000
0010
0001
0000
,
0001
0010
1000
0000
1001
0000
1001
0000
,
0110
0000
0001
0000
0100
0001
0010
0000
,
0010
0001
0100
0000
0110
0000
0110
0000
,
1001
0000
0010
0000
0001
0100
1000
0000
,
1000
0100
0001
0000
1001
0000
1001
0000
,
0110
0000
1000
0000
0010
0000
0000
0100
,
0000
0010
0110
0110
,
1001
0000
0100
0000
0001
0010
1000
0000
,
1000
0010
0001
0000
1001
0000
1001
0000
,
0110
0000
1000
0000
0100
1000
0010
0000
,
0010
1000
0100
0000
0110
0000
0110
0000
,
1001
0000
0010
0000
1000
0100
0001
0000
,
0001
0100
1000
0000
1001
0000
1001
0000
,
0110
0001
0100
0010
,
0000
0001
1000
0001
1000
0000
1001
0000
,
0100
0100
0100
0000
0010
0010
0010
0000
,
1000
0100
1000
0100
1000
0000
1010
0000
,
0001
0010
0001
0000
0100
0001
0100
0000
,
0010
0100
0010
0100
0010
0000
1001
0000
,
0100
0100
0100
0000
0010
0010
0010
0000
,
0001
0100
0001
0100
0001
0000
0011
0000
,
1000
0010
1000
0000
0100
0000
0100
0000
,
0110
1001
0110
1001
,
0100
0001
0010
0000
0100
0001
0010
0000
,
0100
0001
0010
0100
0010
0000
1001
0000
,
0100
0010
1000
0000
0100
0010
1000
0000
,
0100
0010
1000
0100
0010
0000
0110
0000
,
0100
1000
0010
0000
0100
1000
0010
0000
,
0100
1000
0010
0100
0010
0000
0100
0000
,
0000
0010
0100
0000
0001
0000
0000
1000
,
0000
0000
0001
0000
1001
0000
0100
0100
,
0010
0010
0001
0100
1100
0000
0010
0010
,
1000
1000
0100
0010
0011
0000
0001
0001
,
1000
1000
0001
0100
0101
0000
1000
1000
,
0002
0003
2000
3000
1001
0000
0100
0100
,
0010
0010
1000
0100
0101
0000
0010
0010
,
0001
0001
0100
0010
1010
0000
1000
1000
,
0001
0000
0001
0000
1000
0000
0100
0000
1100
0000
0000
0001
0000
0000
1000
0000
,
0002
0103
2000
3010
0002
0000
0000
0000
,
0000
0000
0003
0000
;

//---------------dance-double - ----------------
#NOTES:
     dance-double:
     :
     Challenge:
     14:
     0.565944,0.770313,0.345238,0.405655,0.254613,459.000000,419.000000,40.000000,47.000000,0.000000,0.000000,0.565944,0.770313,0.345238,0.405655,0.254613,459.000000,419.000000,40.000000,47.000000,0.000000,0.000000:
00000000
00000000
00000000
00000000
,
00000000
00000000
00000000
00000000
,
00000000
00000000
00000000
00000000
,
00000000
00000000
00000000
00000000
,
00000000
00000000
00000000
00000000
,
00002000
00000000
00000000
00000000
00203000
00000000
00000000
00000000
20300000
00000000
00010000
00000000
30010000
01000000
10000000
00100000
,
00020000
00000000
00000000
00000000
00030020
00000000
00000000
00000000
00000032
00000000
00001000
00000000
00001003
00000100
00000010
00000000
,
00020000
00000000
00000000
00000000
00030020
00000000
00000000
00000000
00000032
00000000
00001000
00000000
00001003
00000100
00000001
00000010
,
00002000
00000000
00000000
00000000
00203000
00000000
00000000
00000000
20300000
00000000
00010000
00000000
30010000
01000000
00100000
00000000
,
00002000
00000000
00000000
00013000
00000010
00000000
00001000
00000000
00000001
00000000
00000000
00000000
00000100
00000000
00000010
00000000
,
00002000
00000000
00000000
00003100
00010000
00000000
00001000
00000000
00100000
00000000
00000000
00000000
01000000
00000000
10000000
00000000
,
00020000
00000000
00000000
01030000
00100000
00000000
00010000
00000000
00002000
00000000
00000000
00000000
00003100
00000000
00000010
00000000
,
00000002
00000000
00001000
00000000
00001003
00000100
00000001
00001000
,
00000001
00000000
00000000
00000010
00000100
00000000
00010000
00000000
00001000
00000000
00000000
00000000
00100000
00000000
01000000
00000000
,
10000000
00000000
00000000
00010000
01000000
00000000
00100000
00000000
10000000
00000000
00000000
00000000
00010000
00000000
00100000
00000000
,
01000000
10000000
00100000
01000000
00010000
00100000
00001000
00010000
,
00000100
00000000
00001000
00000000
00000010
00000000
00000100
00000000
00000001
00000010
00000001
00000010
00000100
00001000
00000001
00000100
,
00000020
00000030
00000220
00000330
00002000
00003000
00022000
00033000
,
02000000
00000000
00000000
00000000
00000000
00000000
00000000
00000000
00000000
00000000
00000000
00000000
00000000
00000000
00000000
00000000
00000000
00000000
00000000
00000000
00000000
00000000
00000000
00000000
03000000
00000000
00000000
00000000
00000000
00000000
00000000
00000000
00000000
00000000
00000000
00000000
00000000
00000000
00000000
00000000
00000000
00000000
00000000
00000000
00000000
00000000
00000000
00000000
02200000
00000000
00000000
00000000
00000000
00000000
00000000
00000000
00000000
00000000
00000000
00000000
00000000
00000000
00000000
00000000
00000000
00000000
00000000
00000000
00000000
00000000
00000000
00000000
03300000
00000000
00000000
00000000
00000000
00000000
00000000
00000000
00000000
00000000
00000000
00000000
00000000
00000000
00000000
00000000
00000000
00000000
00000000
00000000
00000000
00000000
00000000
00000000
00000000
11000000
00000000
00000000
00000000
00000000
00000000
00000000
00000000
00000000
00000000
00000000
00000000
00000000
00000000
00000000
00000000
00000000
00000000
00000000
00000000
00000000
00000000
00000000
00000000
00000000
00000000
00000000
00000000
00000000
00000000
00000000
00000000
00000000
00000000
00000000
00000000
00000000
00000000
00000000
00000000
00000000
00000000
00000000
00000000
00000000
00000000
00000000
00110000
00000000
00000000
00000000
00000000
00000000
00000000
00000000
00000000
00000000
00000000
00000000
00000000
00000000
00000000
00000000
00000000
00000000
00000000
00000000
00000000
00000000
00000000
00000000
00000000
00000000
00000000
00000000
00000000
00000000
00000000
00000000
00000000
00000000
00000000
00000000
00000000
00000000
00000000
00000000
00000000
00000000
00000000
00000000
00000000
00000000
00000000
00000000
,
10000000
00100000
00010000
00010000
00001000
00000010
00000001
00000001
,
00000100
00001000
00000100
00000001
00000011
00000000
00001100
00000000
,
00000001
00000100
00000010
00000010
00001000
00010000
00100000
00100000
,
01000000
01000000
00010000
10000000
10000000
00000000
10010000
00000000
,
00100000
00001000
00010000
00000010
00001000
00000001
00000010
00000100
,
00010000
00000010
00001000
00010000
01000000
00000000
01100000
00000000
,
01000000
00100000
10000000
01000000
01010000
01000000
00010000
00011000
,
00001000
00000100
00001100
00000000
00000101
00000000
00001010
00000000
,
00000001
00000010
00001000
00001000
00010000
00100000
10000000
10000000
,
01000000
00010000
01000000
10000000
10100000
00000000
01010000
00000000
,
10000000
01000000
00100000
00100000
00010000
00001000
00000010
00000010
,
00000100
00000100
00001000
00000001
00000001
00000000
00001001
00000000
,
00000010
00010000
00001000
00100000
00010000
10000000
00100000
01000000
,
00001000
00100000
00010000
00001000
00000100
00000000
00000110
00000000
,
00000100
00000010
00000001
00000100
00000020
00000000
00000031
00000000
,
00000020
00001000
00001000
00001000
00001030
00000000
00011000
00000000
,
00100000
00010000
00100000
00000000
01000000
00000000
01000000
00000000
10000000
00000000
00010000
00000000
00001000
00000000
00001000
00000000
,
00000010
00000010
00000100
00000001
00000010
00000000
00000110
00000000
,
00001000
00000010
00000001
00000001
00000100
00001000
00010000
00010000
,
10000000
10000000
01000000
00010000
00001000
00000000
00011000
00000000
,
00000100
00001000
00000100
00000000
00000010
00000000
00000010
00000000
00000001
00000000
00001000
00000000
00010000
00000000
00010000
00000000
,
01000000
01000000
00100000
10000000
01000000
00000000
01100000
00000000
,
00010000
01000000
10000000
10000000
00100000
00010000
00001000
00010000
,
00101000
00000000
00011000
00000000
00101000
00000000
00010010
00000000
00000000
00001001
00000000
00000000
,
00000100
00000001
00000010
00001000
00010000
00001000
00000100
00000001
,
00000010
00001000
00010000
00100000
10000000
00000000
10010000
00000000
,
01000000
00100000
00001000
00010000
00100000
01000000
00001000
00010000
,
00000100
00000010
00001000
00010000
00000010
00000000
00001001
00000000
,
00000100
00000001
00000010
00001000
00010000
00001000
00000100
00000001
,
00000010
00001000
00010000
00100000
02000000
00000000
03100000
00000000
,
20000000
00000000
00000000
00000000
31000000
00000000
00000000
00000000
10000000
00010000
01000000
00010000
01000000
00001000
00010000
00000010
,
00001000
00000010
00001000
00000001
00000100
00000000
00000000
00000000
00002001
00000000
00000100
00000000
00003100
00000010
00000001
00000001
,
00000100
00001000
00010000
00010000
01000000
10000000
11000000
00000000
21000000
00000000
00010000
00000000
30010000
01000000
00010000
10000000
,
00100000
01000000
00100000
00010000
00002000
00000000
00003010
00000000
00000120
00000000
00000100
00000000
00000130
00000100
00000100
00000100
,
00000010
00000010
00000010
00000010
00000001
00000001
00001000
00000000
00001002
00000000
00000010
00000000
00000013
00001000
00000010
00001000
,
00020000
00000000
01030000
00000000
20000000
00000000
30100000
00000000
10020000
00000000
00100000
00000000
00130000
01000000
10000000
10000000
,
00100000
00010000
00001000
00001000
00000010
00000001
00000011
00000000
00000012
00000000
00001000
00000000
00001003
00000010
00001000
00000001
,
00000100
00000010
00000100
00001000
00020000
00000000
01030000
00000000
02100000
00000000
00100000
00000000
03100000
00100000
00100000
00100000
,
01000000
01000000
01000000
01000000
10000000
10000000
00010000
00000000
20010000
00000000
30020000
01000000
00030000
00002000
00000010
00003000
,
00000200
00000000
00001300
00000000
00001002
00000000
00000103
00000010
00020000
00000000
00000000
00000000
00000000
00000000
00000000
00000000
,
00000000
00000000
00030000
00000000
;

//---------------dance-double - ----------------
#NOTES:
     dance-double:
     :
     Hard:
     12:
     0.496897,0.693282,0.241667,0.371131,0.146726,403.000000,375.000000,28.000000,43.000000,0.000000,0.000000,0.496897,0.693282,0.241667,0.371131,0.146726,403.000000,375.000000,28.000000,43.000000,0.000000,0.000000:
00000000
00000000
00000000
00000000
,
00000000
00000000
00000000
00000000
,
00000000
00000000
00000000
00000000
,
00000000
00000000
00000000
00000000
,
00000000
00000000
00000000
00000000
,
02000000
00000000
03200000
00000000
20300000
00010000
30010000
00001000
,
00002000
00000000
00003002
00000000
00002003
00000010
00003010
00000100
,
00000020
00000000
00000230
00000000
00000302
00001000
00001003
00010000
,
00020000
00000000
20030000
00000000
30020000
01000000
01030000
00100000
,
00100000
00000000
10000000
01000000
00010000
00000000
01000000
00000000
,
10000000
00000000
00100000
00010000
00001000
00000000
00000100
00000000
,
00000001
00000000
00001000
00000100
00000010
00000000
00001000
00000000
,
00010000
00000000
00000010
00001000
00010000
00000000
01000000
00000000
,
00100000
00000000
10000000
01000000
00010000
00000000
01000000
00000000
,
10000000
00000000
00100000
00010000
00001000
00000000
00000100
00000000
,
00000010
00001000
00000010
00000000
00001000
00010000
00001000
00000000
,
00010000
00100000
00010000
00000000
10000000
00100000
10000000
00100000
,
02000000
03020000
00032000
00003200
,
00000302
00000000
00000000
00000000
00000000
00000000
00000000
00000000
00000000
00000000
00000000
00000000
00000000
00000000
00000000
00000000
00000000
00000000
00000000
00000000
00000000
00000000
00000000
00000000
00000000
00000000
00000000
00000000
00000000
00000000
00000000
00000000
00000000
00000000
00000000
00000000
00000000
00000000
00000000
00000000
00000000
00000000
00000000
00000000
00000000
00000000
00000000
00000000
00000023
00000000
00000000
00000000
00000000
00000000
00000000
00000000
00000000
00000000
00000000
00000000
00000000
00000000
00000000
00000000
00000000
00000000
00000000
00000000
00000000
00000000
00000000
00000000
00000000
00000000
00000000
00000000
00000000
00000000
00000000
00000000
00000000
00000000
00000000
00000000
00000030
00000000
00000000
00000000
00000000
00000000
00000000
00000000
00000000
00000000
00000000
00000000
00000000
00001100
00000000
00000000
00000000
00000000
00000000
00000000
00000000
00000000
00000000
00000000
00000000
00000000
00000000
00000000
00000000
00000000
00000000
00000000
00000000
00000000
00000000
00000000
00000000
00000000
00000000
00000000
00000000
00000000
00000000
00000000
00000000
00000000
00000000
00000000
00000000
00000000
00000000
00000000
00000000
00000000
00000000
00000000
00000000
00000000
00000000
00000000
00001001
00000000
00000000
00000000
00000000
00000000
00000000
00000000
00000000
00000000
00000000
00000000
00000000
00000000
00000000
00000000
00000000
00000000
00000000
00000000
00000000
00000000
00000000
00000000
00000000
00000000
00000000
00000000
00000000
00000000
00000000
00000000
00000000
00000000
00000000
00000000
00000000
00000000
00000000
00000000
00000000
00000000
00000000
00000000
00000000
00000000
00000000
00000000
,
00001000
00000010
00000001
00000010
00001000
00000100
00000001
00000100
,
00001000
00000010
00010000
00001000
00100000
00000000
01100000
00000000
,
10000000
00100000
00010000
00100000
10000000
01000000
00010000
00010000
,
00001000
00001000
00000100
00000001
00001000
00000000
00001001
00000000
,
00000001
00000010
00001000
00000010
00000001
00000100
00001000
00000100
,
00000001
00000010
00000100
00010000
00001000
00000000
00011000
00000000
,
01000000
00010000
10000000
00100000
01100000
00000000
01000000
11000000
,
00000000
01000000
01010000
00000000
00110000
00000000
10010000
00000000
,
00010000
01000000
10000000
01000000
00010000
00100000
10000000
00100000
,
00010000
01000000
00001000
00010000
00000100
00000000
00000110
00000000
,
00000001
00000100
00001000
00000100
00000001
00000010
00001000
00001000
,
00010000
00010000
00100000
10000000
00010000
00000000
10010000
00000000
,
10000000
01000000
00010000
01000000
10000000
00100000
00010000
00100000
,
10000000
01000000
00100000
00001000
00010000
00000000
00011000
00000000
,
00000010
00001000
00000001
00000100
00000020
00000000
00000130
00000000
,
00000001
00001000
00000001
00001000
00000010
00000000
00000110
00000000
,
00000010
00000001
00000010
00001000
00000001
00000010
00001000
00000010
,
00000100
00010000
00001000
01000000
00100000
00000000
10100000
00000000
,
10000000
00010000
00100000
00001000
00010000
00000100
00010000
00001000
,
00100000
00001000
00010000
00000010
00001000
00000000
00001001
00000000
,
00000100
00000001
00000100
00001000
00000001
00000100
00001000
00000100
,
00000010
00010000
00001000
00100000
01000000
00000000
11000000
00000000
,
10000000
00010000
01000000
00001000
00010000
00000010
00010000
00001000
,
01000000
00000000
01000000
00000000
01000000
00000000
01000000
00000000
00000000
10010000
00000000
00000000
,
10000000
01000000
00010000
00010000
00001000
00000100
00000001
00000001
,
00000010
00001000
00010000
00001000
00000100
00000000
00001001
00000000
,
00000001
00000001
00001000
00001000
00010000
00010000
10000000
10000000
,
00010000
00001000
00000100
00000010
00000001
00000000
00001001
00000000
,
00000001
00000010
00001000
00001000
00010000
00100000
10000000
10000000
,
01000000
00010000
00001000
00010000
00200000
00000000
10300000
00000000
,
00200000
00000000
00310000
00000000
00100000
01000000
01000000
10000000
,
00100000
00000000
00100000
00000000
00010000
00000000
00000000
00000000
20020000
00000000
30030000
00000000
10000000
01000000
10000000
01000000
,
00100000
00010000
00100000
00010000
00001000
00000100
00001000
00000000
00000022
00000000
00000033
00000000
00000001
00000100
00000001
00000100
,
00000010
00001000
00000010
00001000
00000200
00000000
00010300
00000000
00022000
00000000
00033000
00000000
01000000
00001000
01000000
00001000
,
00100000
00010000
00100000
00010000
10000000
00010000
01000000
00000000
02200000
00000000
03300000
00000000
10000000
00100000
10000000
00100000
,
02000000
00000000
03010000
00000000
00000200
00000000
00001300
00000000
00002002
00000000
00003003
00000000
00000001
00000100
00000001
00000100
,
00000010
00001000
00000010
00001000
00010000
01000000
00010000
00000000
20200000
00000000
30300000
00000000
10000000
01000000
10000000
01000000
,
00100000
00010000
00100000
00010000
02000000
00000000
03001000
00000000
00022000
00000000
00033000
00000000
00000100
00010000
00000100
00010000
,
00000010
00001000
00000010
00001000
00000001
00001000
00000100
00000000
00000110
00000000
00000000
00000100
00000000
00000000
00000100
00000000
,
00000020
00001030
00200000
00320000
20000000
00000000
00000000
00000000
,
00000000
00000000
30030000
00000000
;

//---------------dance-double - ----------------
#NOTES:
     dance-double:
     :
     Easy:
     5:
     0.234269,0.282448,0.103571,0.017262,0.000000,190.000000,178.000000,12.000000,2.000000,0.000000,0.000000,0.234269,0.282448,0.103571,0.017262,0.000000,190.000000,178.000000,12.000000,2.000000,0.000000,0.000000:
00000000
00000000
00000000
00000000
,
00000000
00000000
00000000
00000000
,
00000000
00000000
00000000
00000000
,
00000000
00000000
00000000
00000000
,
00000000
00000000
00000000
00000000
,
00010000
00000000
00001000
00010000
,
00001000
00000000
00010000
00100000
,
00010000
00000000
00001000
00000010
,
00001000
00000000
00010000
01000000
,
10000000
01000000
00010000
00000000
,
00010000
01000000
10000000
00000000
,
10000000
00100000
00010000
00001000
,
00000020
00000000
00000000
00000030
,
00000001
00000100
00001000
00000000
,
00001000
00000100
00000001
00000000
,
00000001
00000010
00001000
00010000
,
00100000
10000000
01000000
00010000
,
00001000
00010000
00001000
00010000
,
00001000
00010000
00000000
00000010
,
00001000
00000000
00000001
00000100
,
00001000
00000100
00000001
00000010
,
00001000
00000000
00010000
00001000
,
00000100
00001000
00010000
00100000
,
00010000
00000000
00001000
00010000
,
01000000
10000000
01000000
00100000
,
00001000
00000000
00011000
00000000
,
00011000
00000000
00011000
00100000
,
00010000
00000000
10000000
01000000
,
00010000
01000000
10000000
00100000
,
00010000
00000000
00001000
00010000
,
01000000
00010000
00001000
00000010
,
00001000
00000000
00010000
00001000
,
00000100
00000001
00000100
00000010
,
00010000
00000000
00001000
00000000
,
00000000
00011000
00011000
00000000
,
01000000
01000000
00100000
00100000
,
00010000
00100000
10000000
00000000
,
01000000
01000000
00010000
00001000
,
00000100
00001000
00010000
00000000
,
00000010
00000010
00000100
00000100
,
00001000
00000100
00000001
00000000
,
00000010
00000010
00001000
00000000
,
00001001
00001001
00001001
00000000
,
00001000
00000010
00000001
00000100
,
00001000
00010000
00001000
00000000
,
00010000
01000000
10000000
00100000
,
00010000
00001000
00010000
00000000
,
00001000
00000010
00000001
00000100
,
00001000
00010000
00001000
00000000
,
00000000
00000000
00001001
00000000
,
00000110
00000000
00001001
00000001
,
00000001
00000001
00001000
00001000
,
00001000
00001000
00010000
00010000
,
00010000
00010000
10000000
10000000
,
10000000
01000000
10010000
10000000
,
10000000
10000000
00010000
00010000
,
00010000
00010000
00001000
00001000
,
00001000
00001000
00000001
00000001
,
00000001
00000010
00002000
00000000
,
00000000
00000000
00003000
00000000
;

//---------------dance-double - ----------------
#NOTES:
     dance-double:
     :
     Medium:
     9:
     0.361267,0.385156,0.353869,0.103571,0.000000,293.000000,252.000000,41.000000,12.000000,0.000000,0.000000,0.361267,0.385156,0.353869,0.103571,0.000000,293.000000,252.000000,41.000000,12.000000,0.000000,0.000000:
00000000
00000000
00000000
00000000
,
00000000
00000000
00000000
00000000
,
00000000
00000000
00000000
00000000
,
00000000
00000000
00000000
00000000
,
00000000
00000000
00000000
00000000
,
20000000
01000000
00000000
31000000
,
00020000
00100000
00000000
00130000
,
00002000
00000100
00000000
00003100
,
00000002
00000010
00000000
00000013
,
00000001
00000000
00000100
00000010
00001000
00000000
00000000
00000000
,
00000100
00000000
00010000
00001000
01000000
00000000
00000000
00000000
,
00010000
00000000
00100000
00010000
01000000
00000000
00100000
00000000
,
20000000
00000000
00000000
30000000
,
10000000
00000000
01000000
00100000
00010000
00000000
01000000
00000000
,
00001000
00000000
00010000
00000100
00001000
00000000
00000010
00000000
,
00000100
00000100
00000001
00000001
,
00000010
00000010
00001000
00001000
,
00020000
00030000
00002000
00003000
00020000
00030000
00002000
00003000
,
00020000
00030000
00002000
00003000
00000000
00000000
00000110
00000000
,
00001001
00000000
00000100
00000000
00000001
00000010
00001000
00000000
,
00010000
00100000
10000000
00000000
01100000
00000000
01100000
00000000
,
10010000
00000000
01000000
00000000
10000000
00100000
00010000
00000000
,
00001000
00000100
00000001
00000000
00001001
00000000
00001001
00000000
,
00000110
00000000
00000010
00000000
00000001
00000100
00001000
00000000
,
00010000
01000000
10000000
00000000
10010000
00000000
01100000
00000000
,
10010000
00000000
01000000
00000000
10000000
00000000
00000000
00010000
,
00000000
10000000
10010000
01100000
,
10010000
00000000
00100000
00000000
10000000
01000000
00010000
00000000
,
00001000
00000100
00000001
00000000
00000110
00000000
00000110
00000000
,
00001001
00000000
00000010
00000000
00000001
00000100
00001000
00000000
,
00010000
00100000
10000000
00000000
10010000
00000000
10010000
00000000
,
01100000
00000000
01000000
00000000
10000000
00100000
00010000
00000000
,
00001000
00000010
00000001
00000000
00001001
00000000
00000110
00000000
,
00001001
00000010
00000001
00001000
,
00000000
00000010
00000100
00000010
00000100
00000000
00001001
00000000
,
00000010
00001000
00000010
00000000
00001000
00010000
00001000
00000000
,
00010000
00100000
00010000
00100000
00010000
00000000
01100000
00000000
,
10000000
00100000
10000000
00000000
00010000
00100000
00010000
00000000
,
01000000
00100000
01000000
00100000
01000000
00000000
10010000
00000000
,
01000000
00010000
01000000
00000000
00010000
00001000
00010000
00000000
,
00001000
00000100
00001000
00000100
00001000
00000000
00000110
00000000
,
00000001
00000100
00000001
00000000
00001000
00000000
00001000
00000000
,
00001001
00000110
00001001
00000110
,
00000001
00000010
00000100
00000000
00001000
00000100
00000010
00000000
,
00000001
00000010
00000100
00010000
00001000
00000000
00011000
00000000
,
00010000
00001000
00010000
00000000
00100000
00010000
00100000
00000000
,
01000000
00100000
10000000
00100000
10000000
00000000
01100000
00000000
,
10000000
01000000
00100000
00000000
00010000
00100000
01000000
00000000
,
10000000
01000000
00100000
00001000
00010000
00000000
00000100
00000000
,
00000000
00010000
00000010
00000000
00001000
00000000
00000000
00000001
,
00000000
00001000
00001001
00000010
,
00000100
00000000
00000010
00000001
00000011
00000000
00000100
00000000
,
00010000
00000000
00001000
00010000
00011000
00000000
01000000
00000000
,
00100000
00000000
01000000
00100000
10100000
00000000
01000000
00000000
,
00100000
00010000
10010000
01000000
,
00100000
00000000
01000000
10000000
11000000
00000000
00100000
00000000
,
00001000
00000000
00010000
00001000
00011000
00000000
00000010
00000000
,
00000100
00000000
00000010
00000100
00000101
00000000
00000010
00000000
,
00000100
00001000
00000002
00000000
,
00000000
00000000
00000003
00000000
;
