#VERSION:0.83;
#TITLE:High;
#SUBTITLE:;
#ARTIST:Kawai Sprite;
#TITLETRANSLIT:;
#SUBTITLETRANSLIT:;
#ARTISTTRANSLIT:;
#GENRE:Friday Night Funkin';
#ORIGIN:;
#CREDIT:;
#BANNER:High.png;
#BACKGROUND:../bg.png;
#PREVIEWVID:;
#JACKET:High-jacket.png;
#CDIMAGE:;
#DISCIMAGE:;
#LYRICSPATH:;
#CDTITLE:../cdtitle.png;
#MUSIC:High.ogg;
#OFFSET:1.730000;
#SAMPLESTART:4.029000;
#SAMPLELENGTH:15.000000;
#SELECTABLE:YES;
#BPMS:0.000=125.000;
#STOPS:;
#DELAYS:;
#WARPS:;
#TIMESIGNATURES:0.000=4=4;
#TICKCOUNTS:0.000=4;
#COMBOS:0.000=1;
#SPEEDS:0.000=1.000=0.000=0;
#SCROLLS:0.000=1.000;
#FAKES:;
#LABELS:0.000=Song Start;
#BGCHANGES: -1.000=High.avi=1.000=0=0=0=StretchNoLoop====,
99999=-nosongbg-=1.000=0=0=0 // don't automatically add -songbackground-
;
#KEYSOUNDS:;
#ATTACKS:
;

//---------------dance-single - ----------------
#NOTEDATA:;
#CHARTNAME:;
#STEPSTYPE:dance-single;
#DESCRIPTION:;
#CHARTSTYLE:;
#DIFFICULTY:Hard;
#METER:13;
#RADARVALUES:0.525349,0.559888,0.000000,0.519947,0.605029,389.000000,389.000000,0.000000,55.000000,0.000000,0.000000,0.000000,0.000000,0.000000,0.525349,0.559888,0.000000,0.519947,0.605029,389.000000,389.000000,0.000000,55.000000,0.000000,0.000000,0.000000,0.000000,0.000000;
#CREDIT:led_light;
#NOTES:
0000
0000
0000
0000
,
0000
0000
0000
0000
,
0000
0000
0000
0000
,
1000
0000
0000
0000
1000
0000
0100
0000
1000
0001
0000
0001
0000
0000
0100
0000
,
0100
0000
0000
0000
0100
0000
0001
0000
0100
0010
0000
1000
0000
0000
1000
0001
,
1000
0000
0000
0000
1000
0000
0100
0000
1000
0001
0000
0001
0000
0000
0100
0000
,
0010
1000
0010
0000
1000
0000
0001
0010
0001
0000
0010
0000
0001
0100
0010
0000
,
1000
0000
0000
0000
1000
0000
0010
0000
1000
0001
0000
0001
0000
0000
0010
0000
,
0010
0000
0000
0000
0010
0000
0001
0000
0010
0100
0000
1000
0000
0000
1000
0001
,
1000
0000
0000
0000
1000
0000
0010
0000
1000
0001
0000
0001
0000
0000
0010
0000
,
0100
1000
0100
0000
1000
0000
0001
0100
0001
0000
0100
0000
0001
0010
0100
0000
,
1000
0000
0100
0010
0001
0000
0000
1000
0001
0000
0000
0001
0000
0000
0001
0100
,
0001
0000
0100
0010
1000
0000
0000
0001
1000
0100
0000
1000
0000
0000
0100
0010
,
0001
0000
0010
0100
1000
0000
0000
0001
1000
0000
0000
1000
0000
0000
1000
0000
,
0010
1000
0010
0000
0100
0000
0001
0000
1000
0000
0001
0000
0010
0100
1000
0100
,
1000
0000
0100
0010
0001
0000
0000
1000
0001
0000
0000
0001
0000
0000
0001
0100
,
0001
0000
0100
0010
1000
0000
0000
0001
1000
0100
0000
1000
0000
0000
0100
0010
,
0001
0000
0010
0100
1000
0000
0000
0001
1000
0000
0000
1000
0000
0000
1000
0000
,
0010
1000
0010
0000
0100
0000
0001
0000
0010
0001
0010
0000
0100
1000
0100
0000
,
1000
0001
1000
0000
0020
0000
0000
0000
0230
0000
0000
0000
0302
0000
0000
0000
,
1003
0000
0000
0001
0010
0100
1000
0000
0002
0000
0003
0001
0200
0000
0300
0100
,
0020
2030
3200
0302
,
0103
0010
0100
0000
1000
0100
1000
0000
0020
0000
0030
0010
0200
0000
0300
0100
,
0001
1000
0001
0000
0020
0000
0000
0000
0230
0000
0000
0000
2300
0000
0000
0000
,
3001
0000
0000
1000
0010
0100
0001
0000
2000
0000
3000
1000
0200
0000
0300
0100
,
0020
0032
0203
2300
,
3100
0010
0100
0000
0001
0100
0001
0000
0020
0000
0030
0010
0200
0000
0300
0100
,
2000
0000
0000
0000
3001
0000
0000
0000
0100
0001
0000
0001
0100
0000
0000
0001
,
2000
0000
0000
0000
3100
0000
0000
0000
0010
0001
0000
0001
0010
0000
0000
0100
,
2000
0000
0000
0000
3001
0000
0000
0000
0100
0010
0000
0010
0100
0000
0000
0010
,
1000
0000
0001
0010
0001
0000
0010
0000
0001
1000
0010
0000
0100
0000
0010
0000
,
2000
0000
0000
0000
3001
0000
0000
0000
0010
0001
0000
0001
0010
0000
0000
0001
,
2000
0000
0000
0000
3010
0000
0000
0000
0100
0001
0000
0001
0100
0000
0000
0010
,
2000
0000
0000
0000
3001
0000
0000
0000
0010
0100
0000
0100
0010
0000
0000
0100
,
1000
0000
0001
0100
0001
0000
0100
0000
0001
1000
0100
0000
0010
0000
0100
0000
,
1000
0001
1000
0000
0020
0000
0000
0000
0230
0000
0000
0000
0302
0000
0000
0000
,
1003
0000
0000
0001
0010
0100
1000
0000
0002
0000
0003
0001
0200
0000
0300
0100
,
0020
2030
3200
0302
,
0103
0010
0100
0000
1000
0100
1000
0000
0020
0000
0030
0010
0200
0000
0300
0100
,
0001
1000
0001
0000
0020
0000
0000
0000
0230
0000
0000
0000
2300
0000
0000
0000
,
3001
0000
0000
1000
0010
0100
0001
0000
2000
0000
3000
1000
0200
0000
0300
0100
,
0020
0032
0203
2300
,
3100
0010
0100
0000
0001
0100
0001
0000
0020
0000
0030
0010
0200
0000
0300
0100
,
2000
0000
0000
0001
0000
0000
0001
0000
0000
0001
0000
0000
3001
0000
0100
0000
,
0020
0000
0000
0100
0000
0000
0100
0000
0000
0100
0000
0000
0130
0000
0001
0000
,
1000
0000
0100
0000
0001
0100
0001
0000
0100
0010
0100
0000
1000
0100
1000
0000
,
0001
0000
0100
0000
1000
0100
1000
0000
0100
0010
0100
0000
0001
0100
0001
0000
,
2000
0000
0000
0001
0000
0000
0001
0000
0000
0001
0000
0000
3001
0000
0010
0000
,
0200
0000
0000
0010
0000
0000
0010
0000
0000
0010
0000
0000
0310
0000
0001
0000
,
1000
0000
0010
0000
0001
0010
0001
0000
0010
0100
0010
0000
1000
0010
1000
0000
,
0001
0000
0010
0000
1000
0010
1000
0000
0010
0100
0010
0000
0001
0010
0001
0000
,
2000
0000
3000
0000
;

//---------------dance-single - ----------------
#NOTEDATA:;
#CHARTNAME:;
#STEPSTYPE:dance-single;
#DESCRIPTION:;
#CHARTSTYLE:;
#DIFFICULTY:Medium;
#METER:8;
#RADARVALUES:0.344381,0.340802,0.037814,0.368690,0.056721,255.000000,251.000000,4.000000,39.000000,0.000000,0.000000,0.000000,0.000000,0.000000,0.344381,0.340802,0.037814,0.368690,0.056721,255.000000,251.000000,4.000000,39.000000,0.000000,0.000000,0.000000,0.000000,0.000000;
#CREDIT:led_light;
#NOTES:
0000
0000
0000
0000
,
0000
0000
0000
0000
,
0000
0000
0000
0000
,
0100
0000
0000
0000
0100
0000
0001
0000
1000
0000
0000
1000
0000
0000
0100
0000
,
0100
0000
0000
0000
0100
0000
1000
0000
0001
0000
0000
0100
0000
0000
0100
0000
,
0100
0000
0000
0000
0010
0000
1000
0000
0001
0000
0000
0001
0000
0000
0010
0000
,
0100
0010
0001
0000
0100
0010
1000
0000
,
0010
0000
0000
0000
0010
0000
1000
0000
0001
0000
0000
0001
0000
0000
0010
0000
,
0010
0000
0000
0000
0010
0000
0001
0000
1000
0000
0000
0010
0000
0000
0010
0000
,
0010
0000
0000
0000
0100
0000
0001
0000
1000
0000
0000
1000
0000
0000
0100
0000
,
0010
0100
1000
0000
0010
0100
0001
0000
,
1000
0000
0100
0000
1000
0000
0000
0000
0001
0000
0000
0001
0000
0000
0001
0000
,
0100
0000
0010
0000
1000
0000
0000
0000
0100
0000
0000
0100
0000
0000
0100
0000
,
0010
0000
0001
0000
1000
0000
0000
0000
0010
0000
0000
0010
0000
0000
0010
0000
,
0100
0001
1000
0000
0001
0010
0100
0000
,
1000
0000
0010
0000
1000
0000
0000
0000
0001
0000
0000
0001
0000
0000
0001
0000
,
0010
0000
0100
0000
1000
0000
0000
0000
0010
0000
0000
0010
0000
0000
0010
0000
,
0100
0000
0001
0000
1000
0000
0000
0000
0100
0000
0000
0100
0000
0000
0100
0000
,
0010
0001
1000
0000
0001
0100
0010
0000
,
1000
0100
0020
0000
0032
0000
0203
0000
,
0310
0000
0100
0001
2000
0000
3002
0000
,
0203
0310
2000
3001
,
1000
0100
0010
0000
0001
0000
1010
0000
,
0001
0100
0020
0000
2030
0000
3200
0000
,
0310
0000
0100
1000
0002
0000
2003
0000
,
3200
0310
0002
1003
,
0001
0100
0010
0000
1000
0000
0011
0000
,
2000
0000
3100
0000
0100
0010
0100
0000
,
0002
0000
0103
0000
0100
0010
0100
0000
,
2000
0000
3010
0000
0010
0100
0010
0000
,
0100
0001
0010
0000
0100
1000
0001
0000
,
2000
0000
3010
0000
0010
0100
0010
0000
,
0002
0000
0013
0000
0010
0100
0010
0000
,
2000
0000
3100
0000
0100
0010
0100
0000
,
0010
0001
0100
0000
0010
1000
0001
0000
,
1000
0010
0200
0000
0302
0000
0023
0000
,
0130
0000
0010
0001
2000
0000
3002
0000
,
0023
0130
2000
3001
,
1000
0010
0100
0000
0001
0000
1100
0000
,
0001
0010
0200
0000
2300
0000
3020
0000
,
0130
0000
0010
1000
0002
0000
2003
0000
,
3020
0130
0002
1003
,
0001
0010
0100
0000
1000
0000
0101
0000
,
2000
0010
3000
0010
,
0002
0100
0003
0100
,
1000
0100
1000
0000
0010
1000
0010
0000
,
1000
0100
1000
0000
0001
0100
0001
0000
,
2000
0100
3000
0100
,
0002
0010
0003
0010
,
1000
0010
1000
0000
0100
1000
0100
0000
,
1000
0010
1000
0000
0001
0010
0001
0000
,
0200
0000
0300
0000
;

//---------------dance-single - ----------------
#NOTEDATA:;
#CHARTNAME:;
#STEPSTYPE:dance-single;
#DESCRIPTION:;
#CHARTSTYLE:;
#DIFFICULTY:Easy;
#METER:5;
#RADARVALUES:0.209329,0.219087,0.000000,0.122897,0.000000,155.000000,155.000000,0.000000,13.000000,0.000000,0.000000,0.000000,0.000000,0.000000,0.209329,0.219087,0.000000,0.122897,0.000000,155.000000,155.000000,0.000000,13.000000,0.000000,0.000000,0.000000,0.000000,0.000000;
#CREDIT:led_light;
#NOTES:
0000
0000
0000
0000
,
0000
0000
0000
0000
,
0000
0000
0000
0000
,
0100
0100
0100
0000
,
0001
0001
0001
0000
,
1000
1000
1000
0000
,
0010
1000
0001
0010
,
0100
0100
0100
0000
,
1000
1000
1000
0000
,
0001
0001
0001
0000
,
0010
0001
1000
0010
,
0100
0001
1000
0000
,
0100
0001
1000
0000
,
0100
1000
0001
0000
,
0100
1000
0001
0100
,
0010
1000
0001
0000
,
0010
1000
0001
0000
,
0010
0001
1000
0000
,
0010
0001
1000
0010
,
1000
0100
1000
0100
,
1000
0000
1000
0001
,
0100
0000
0100
0000
,
0010
1000
0100
1000
,
0001
0100
0001
0100
,
0001
0000
0001
1000
,
0100
0000
0100
0000
,
0010
0001
0100
0001
,
2000
3000
1000
1000
,
0002
0003
0001
0001
,
0020
0030
0010
0010
,
0100
0100
1000
0010
,
2000
3000
1000
1000
,
0002
0003
0001
0001
,
0200
0300
0100
0100
,
0010
0010
1000
0100
,
1000
0010
1000
0010
,
1000
0000
1000
0001
,
0010
0000
0010
0000
,
0100
1000
0010
1000
,
0001
0010
0001
0010
,
0001
0000
0001
1000
,
0010
0000
0010
0000
,
0100
0001
0010
0001
,
2000
0000
3000
0001
,
2000
3000
0200
0300
,
0001
0001
0010
0010
,
1000
1000
0001
0001
,
2000
0000
3000
0001
,
2000
3000
0020
0030
,
0001
0001
0100
0100
,
1000
1000
0001
0001
,
0020
0000
0030
0000
;

//---------------dance-single - ----------------
#NOTEDATA:;
#CHARTNAME:;
#STEPSTYPE:dance-single;
#DESCRIPTION:;
#CHARTSTYLE:;
#DIFFICULTY:Beginner;
#METER:2;
#RADARVALUES:0.112092,0.146058,0.000000,0.028361,0.000000,83.000000,83.000000,0.000000,3.000000,0.000000,0.000000,0.000000,0.000000,0.000000,0.112092,0.146058,0.000000,0.028361,0.000000,83.000000,83.000000,0.000000,3.000000,0.000000,0.000000,0.000000,0.000000,0.000000;
#CREDIT:led_light;
#NOTES:
0000
0000
0000
0000
,
0000
0000
0000
0000
,
0000
0000
0000
0000
,
1000
0000
0000
0000
,
1000
0000
0000
0000
,
0001
0000
0000
0000
,
0001
0000
0000
0000
,
1000
0000
0000
0000
,
1000
0000
0000
0000
,
0001
0000
0000
0000
,
0001
0000
0000
0000
,
1000
0000
1000
0000
,
0010
0000
0001
0000
,
0100
0000
0100
0000
,
1000
0000
0001
0000
,
1000
0000
1000
0000
,
0100
0000
0001
0000
,
0010
0000
0010
0000
,
1000
0000
0001
0000
,
1000
1000
1000
0000
,
1000
0000
0001
0000
,
0010
0000
0100
0000
,
0010
0000
0001
0000
,
1000
1000
1000
0000
,
1000
0000
0001
0000
,
0100
0000
0010
0000
,
0100
0000
0001
0000
,
1000
0000
0000
0000
,
1000
0000
0000
0000
,
0100
0000
0000
0000
,
0100
0000
0100
0000
,
0010
0000
0000
0000
,
0010
0000
0000
0000
,
0001
0000
0000
0000
,
0001
0000
0001
0000
,
1000
1000
1000
0000
,
1000
0000
0001
0000
,
0100
0000
0010
0000
,
0100
0000
0001
0000
,
1000
1000
1000
0000
,
1000
0000
0001
0000
,
0010
0000
0100
0000
,
0010
0000
0001
0000
,
2000
0000
3000
0000
,
1000
0000
0000
0000
,
0010
0000
0010
0000
,
0001
0000
0001
0000
,
0002
0000
0003
0000
,
0001
0000
0000
0000
,
0100
0000
0100
0000
,
1000
0000
1000
0000
,
0002
0000
0003
0000
;

//---------------dance-single - FNF Hard----------------
#NOTEDATA:;
#CHARTNAME:;
#STEPSTYPE:dance-single;
#DESCRIPTION:FNF Hard;
#CHARTSTYLE:;
#DIFFICULTY:Edit;
#METER:14;
#RADARVALUES:0.573968,0.754632,0.000000,0.671204,0.779921,425.000000,425.000000,0.000000,71.000000,0.000000,0.000000,0.000000,0.000000,0.000000,0.573968,0.754632,0.000000,0.671204,0.779921,425.000000,425.000000,0.000000,71.000000,0.000000,0.000000,0.000000,0.000000,0.000000;
#CREDIT:led_light (FNF Hard);
#NOTES:
// measure 0
0000
0000
0000
0000
,  // measure 1
0000
0000
0000
0000
,  // measure 2
0000
0000
0000
0000
,  // measure 3
1000
0000
0000
0000
1000
0000
0001
0000
0010
1000
0000
0001
0000
0000
1000
0000
,  // measure 4
1000
0000
0000
0000
1000
0000
0001
0000
0010
1000
0000
0001
0000
0000
1000
1000
,  // measure 5
1000
0000
0000
0000
1000
0000
0001
0000
0010
0001
0000
1000
0000
0000
0001
0000
,  // measure 6
0010
0001
0010
0001
1000
0000
1000
0100
0001
0000
0010
0000
0010
0001
1000
0000
,  // measure 7
1000
0000
0000
0000
1000
0000
0001
0000
0010
1000
0000
0001
0000
0000
1000
0000
,  // measure 8
1000
0000
0000
0000
1000
0000
0001
0000
0010
1000
0000
0001
0000
0000
1000
1000
,  // measure 9
1000
0000
0000
0000
1000
0000
0001
0000
0010
0001
0000
1000
0000
0000
0001
0000
,  // measure 10
0010
0001
0010
0001
1000
0000
1000
0100
0001
0000
0010
0000
0010
0001
1000
0000
,  // measure 11
0010
0000
0100
1000
0001
0000
0000
0100
0001
0000
0000
0001
0000
0000
0001
0020
,  // measure 12
0000
0030
0100
1000
0001
0000
0000
0100
1000
0100
0000
0001
0000
0000
0010
1000
,  // measure 13
0000
0000
1000
0010
0001
0000
0000
0001
0010
0000
0000
0010
0000
0000
0010
0010
,  // measure 14
0010
0001
1000
0000
0010
0000
1000
0000
0010
0001
1000
0100
0001
1000
0100
0001
,  // measure 15
0010
0000
0100
1000
0001
0000
0000
0100
0001
0000
0000
0001
0000
0000
0001
0020
,  // measure 16
0000
0030
0100
1000
0001
0000
0000
0100
1000
0100
0000
0001
0000
0000
0010
1000
,  // measure 17
0000
0000
1000
0010
0001
0000
0000
0001
0010
0000
0000
0010
0000
0000
0010
0010
,  // measure 18
0010
0001
1000
0000
0010
0000
1000
0000
0010
0001
1000
0100
0001
1000
0100
0001
,  // measure 19
1000
0001
0010
0001
0200
0000
0000
0300
2000
0000
0000
3000
0002
0000
0000
0003
,  // measure 20
0001
0000
0000
0100
0001
0010
1000
0100
0002
0000
0003
0100
2000
0000
3000
0100
,  // measure 21
0020
0000
0000
0030
0002
0000
0000
0003
2000
0000
0000
3000
0020
0000
0000
0030
,  // measure 22
0001
1000
0010
0001
1000
0010
0001
1000
0020
0000
0030
0001
2000
0000
3000
0010
,  // measure 23
1000
0001
0010
0001
0200
0000
0000
0300
2000
0000
0000
3000
0002
0000
0000
0003
,  // measure 24
0001
0000
0000
0100
0001
0010
1000
0100
0002
0000
0003
0100
2000
0000
3000
0100
,  // measure 25
0020
0000
0000
0030
0002
0000
0000
0003
2000
0000
0000
3000
0020
0000
0000
0030
,  // measure 26
0001
1000
0010
0001
1000
0010
0001
1000
0020
0000
0030
0001
2000
0000
3000
0010
,  // measure 27
0200
0000
0000
0000
0300
0000
0001
0000
0010
0001
0000
0010
2000
0000
3000
1000
,  // measure 28
0020
0000
0000
0030
0100
0000
0001
0000
0010
0001
0000
0010
2000
0000
3000
1000
,  // measure 29
0200
0000
0000
0300
1000
0000
0001
0000
0010
0001
0000
0010
2000
0000
3000
1000
,  // measure 30
1000
0000
0000
0000
1000
0000
0001
0000
1000
0000
0001
0000
0010
0000
1000
0000
0001
0000
0100
0000
2000
3000
0000
0000
0100
0000
0000
0000
0001
0000
0000
0000
,  // measure 31
0200
0000
0000
0000
0300
0000
0001
0000
0010
0001
0000
0010
2000
0000
3000
1000
,  // measure 32
0020
0000
0000
0030
0100
0000
0001
0000
0010
0001
0000
0010
2000
0000
3000
1000
,  // measure 33
0200
0000
0000
0300
1000
0000
0001
0000
0010
0001
0000
0010
2000
0000
3000
1000
,  // measure 34
1000
0000
0000
0000
1000
0000
0001
0000
1000
0000
0001
0000
0010
0000
1000
0000
0001
0000
0100
0000
2000
3000
0000
0000
0100
0000
0000
0000
0001
0000
0000
0000
,  // measure 35
1000
0001
0010
0001
0200
0000
0000
0300
2000
0000
0000
3000
0002
0000
0000
0003
,  // measure 36
0001
0000
0000
0100
0001
0010
1000
0100
0002
0000
0003
0100
2000
0000
3000
0100
,  // measure 37
0020
0000
0000
0030
0002
0000
0000
0003
2000
0000
0000
3000
0020
0000
0000
0030
,  // measure 38
0001
1000
0010
0001
1000
0010
0001
1000
0020
0000
0030
0001
2000
0000
3000
0010
,  // measure 39
1000
0001
0010
0001
0200
0000
0000
0300
2000
0000
0000
3000
0002
0000
0000
0003
,  // measure 40
0001
0000
0000
0100
0001
0010
1000
0100
0002
0000
0003
0100
2000
0000
3000
0100
,  // measure 41
0020
0000
0000
0030
0002
0000
0000
0003
2000
0000
0000
3000
0020
0000
0000
0030
,  // measure 42
0001
1000
0010
0001
1000
0010
0001
1000
0020
0000
0030
0001
2000
0000
3000
0010
,  // measure 43
0002
0000
0000
0000
0000
0000
0000
0000
0003
0000
0000
0000
0020
0000
0000
0030
,  // measure 44
0200
0000
0000
0300
0100
0000
0020
0000
0000
0030
0010
0000
0002
0000
0000
0003
,  // measure 45
0010
0000
0001
1000
0001
0100
0001
1000
0010
1000
0001
1000
0001
0100
0001
1000
,  // measure 46
0010
0000
0001
1000
0001
0100
0001
1000
0010
1000
0001
1000
0001
0100
0001
1000
,  // measure 47
0002
0000
0000
0000
0000
0000
0000
0000
0003
0000
0000
0000
0020
0000
0000
0030
,  // measure 48
0200
0000
0000
0000
0000
0000
0300
0000
0100
0000
0000
0000
0020
0000
0000
0000
0000
0000
0030
0000
0010
0000
0000
0000
0001
0000
0100
0000
2000
3000
0000
0000
,  // measure 49
0010
0000
0001
1000
0001
0100
0001
1000
0010
1000
0001
1000
0001
0100
0001
1000
,  // measure 50
0010
0000
0001
1000
0001
0100
0001
1000
0010
1000
0001
1000
0001
0100
0001
1000
,  // measure 51
0020
0000
0030
0000
;
