#TITLE:High;
#SUBTITLE:[B-Side Remix];
#ARTIST:Rozebud;
#TITLETRANSLIT:;
#SUBTITLETRANSLIT:;
#ARTISTTRANSLIT:;
#GENRE:Friday Night Funkin';
#CREDIT:;
#BANNER:High [B-Side Remix].png;
#BACKGROUND:../bg.png;
#LYRICSPATH:;
#CDTITLE:../cdtitle.png;
#MUSIC:High [B-Side Remix].ogg;
#OFFSET:1.721000;
#SAMPLESTART:3.532000;
#SAMPLELENGTH:15.000000;
#LASTBEATHINT:1.646283;
#SELECTABLE:YES;
#BPMS:0.000000=137.000000
;
#STOPS:
;
#BGCHANGES: -1.000=High [B-Side Remix].avi=1.000=0=0=0=StretchNoLoop====,
99999=-nosongbg-=1.000=0=0=0 // don't automatically add -songbackground-
;
#KEYSOUNDS:;
#ATTACKS:;

//---------------dance-single - FNF Hard----------------
#NOTES:
     dance-single:
     :
     Edit:
     17:
     0.810942,0.848499,0.000000,0.340411,1.131638,617.000000,617.000000,0.000000,37.000000,0.000000,0.000000,0.810942,0.848499,0.000000,0.340411,1.131638,617.000000,617.000000,0.000000,37.000000,0.000000,0.000000:
// measure 0
0000
0000
0000
0000
,  // measure 1
0000
0000
0000
0000
,  // measure 2
0000
0000
0000
0000
,  // measure 3
0010
0000
0010
0010
0010
0000
0001
0000
1000
0010
0100
0001
0000
0000
0010
0000
,  // measure 4
0010
0000
0010
0010
0010
0000
0001
0000
1000
0010
0100
0001
0000
0000
0010
0010
,  // measure 5
0010
0000
0010
0010
0010
0000
0001
0000
0100
1000
0000
0001
0100
0001
0010
0000
,  // measure 6
0001
0100
0001
1000
0100
0100
1000
0001
1000
1000
0001
0001
0010
0100
0010
0000
,  // measure 7
0100
0000
0100
0100
0100
0000
1000
0000
0001
0100
0010
1000
0000
0000
0100
0000
,  // measure 8
0100
0000
0100
0100
0100
0000
1000
0000
0001
0100
0010
1000
0000
0000
0100
0100
,  // measure 9
0100
0000
0100
0100
0100
0000
1000
0000
0010
0001
0000
1000
0010
1000
0100
0000
,  // measure 10
1000
0010
1000
0001
0010
0010
0001
1000
0001
0001
1000
1000
0100
0010
0100
0000
,  // measure 11
0100
0000
0001
1000
0100
1000
0100
0001
0010
0000
0010
0010
0000
0001
0000
0010
,  // measure 12
0000
0000
0001
1000
0100
1000
0100
0001
0100
0010
0010
0100
1000
0010
0001
0100
,  // measure 13
0000
0000
0001
1000
0100
1000
0100
0001
0010
0000
0010
0010
0000
0001
0000
0010
,  // measure 14
0100
0010
0100
0001
0010
0000
1000
0000
0010
1000
0001
0100
1000
0001
0100
0010
,  // measure 15
0010
0000
1000
0001
0010
0001
0010
1000
0100
0000
0100
0100
0000
1000
0000
0100
,  // measure 16
0000
0000
1000
0001
0010
0001
0010
1000
0010
0100
0100
0010
0001
0100
1000
0010
,  // measure 17
0000
0000
1000
0001
0010
0001
0010
1000
0100
0000
0100
0100
0000
1000
0000
0100
,  // measure 18
0010
0100
0010
1000
0100
0000
0001
0000
0100
0001
1000
0010
0001
1000
0010
0100
,  // measure 19
0010
1000
0100
0001
0010
0000
0100
0000
1000
0000
0100
0000
0002
0000
0003
1000
,  // measure 20
0000
0000
0010
0010
1000
0010
0100
0001
0010
0000
1000
1000
0001
1000
0100
0000
,  // measure 21
0100
0000
0100
0000
0001
0000
0001
0020
0000
0030
0010
1000
0001
0000
1000
0000
,  // measure 22
0010
0100
1000
0001
0100
1000
0001
0010
0001
0000
0100
0100
1000
0000
0010
0000
,  // measure 23
0100
0001
0010
1000
0100
0000
0010
0000
0001
0000
0010
0000
2000
0000
3000
0001
,  // measure 24
0000
0000
0100
0100
0001
0100
0010
1000
0100
0000
0001
0001
1000
0001
0010
0000
,  // measure 25
0010
0000
0010
0000
1000
0000
1000
0200
0000
0300
0100
0001
1000
0000
0001
0000
,  // measure 26
0100
0010
0001
1000
0010
0001
1000
0100
1000
0000
0010
0010
0001
0000
0100
0000
,  // measure 27
2000
0000
0000
0000
0000
0000
3100
1000
1000
0001
0000
1000
0010
0000
0000
0100
,  // measure 28
0010
0010
0010
0000
1000
0000
0100
1000
1000
0001
0000
1000
0010
0000
0000
0100
,  // measure 29
0100
0100
0100
0000
0001
0000
0100
1000
1000
0001
0000
1000
0010
0000
0000
1000
,  // measure 30
1000
1000
1000
0100
0001
0010
1000
0100
0001
1000
0001
0010
1000
0000
0100
0000
,  // measure 31
0200
0000
0000
0000
0000
0000
0310
0001
0001
1000
0000
0001
0100
0000
0000
0010
,  // measure 32
0100
0100
0100
0000
0001
0000
0010
0001
0001
1000
0000
0001
0100
0000
0000
0010
,  // measure 33
0010
0010
0010
0000
1000
0000
0010
0001
0001
1000
0000
0001
0100
0000
0000
0001
,  // measure 34
0001
0001
0001
0010
1000
0100
0001
0010
1000
0001
1000
0100
0001
0000
0010
0000
,  // measure 35
0010
1000
0100
0001
0010
0000
0100
0000
1000
0000
0100
0000
0002
0000
0003
1000
,  // measure 36
0000
0000
0010
0010
1000
0010
0100
0001
0010
0000
1000
1000
0001
1000
0100
0000
,  // measure 37
0100
0000
0100
0000
0001
0000
0001
0020
0000
0030
0010
1000
0001
0000
1000
0000
,  // measure 38
0010
0100
1000
0001
0100
1000
0001
0010
0001
0000
0100
0100
1000
0000
0010
0000
,  // measure 39
0100
0001
0010
1000
0100
0000
0010
0000
0001
0000
0010
0000
2000
0000
3000
0001
,  // measure 40
0000
0000
0100
0100
0001
0100
0010
1000
0100
0000
0001
0001
1000
0001
0010
0000
,  // measure 41
0010
0000
0010
0000
1000
0000
1000
0200
0000
0300
0100
0001
1000
0000
0001
0000
,  // measure 42
0100
0010
0001
1000
0010
0001
1000
0100
1000
0000
0010
0010
0001
0000
0100
0000
,  // measure 43
0020
0000
0000
0000
0000
0000
0000
0030
0000
0002
0000
0000
,  // measure 44
0203
0000
0300
2000
0000
3000
0020
0000
,  // measure 45
2030
0000
3100
1000
0010
1000
0001
1000
0010
1000
0001
1000
0010
1000
0100
1000
,  // measure 46
2000
0000
3100
1000
0010
1000
0001
1000
0010
1000
0001
1000
0010
1000
0100
1000
,  // measure 47
0002
0000
0000
0000
0000
0000
0000
0003
0000
0020
0000
0000
,  // measure 48
2030
0000
0000
0000
3000
0000
0200
0000
0000
0000
0300
0000
1000
0001
0200
0000
,  // measure 49
0302
0000
0013
0001
0100
0001
1000
0001
0100
0001
1000
0001
0100
0001
0010
0001
,  // measure 50
0002
0000
0013
0001
0100
0001
1000
0001
0100
0001
1000
0001
0010
1000
0001
0100
,  // measure 51
1000
0000
0000
0100
0000
0000
0001
0000
0000
0020
0000
0000
0000
0000
0030
0000
0000
0000
0200
0000
0000
0302
0000
0000
,  // measure 52
0013
0000
0001
0000
0010
0000
0100
0000
0000
0000
0100
0000
1000
0001
0010
1000
,  // measure 53
2000
0000
3100
1000
0010
1000
0001
1000
0010
1000
0001
1000
0010
1000
0100
1000
,  // measure 54
2000
0000
3100
1000
0010
1000
0001
1000
0010
1000
0001
1000
0010
1000
0100
1000
,  // measure 55
0002
0000
0000
0000
0000
0000
0000
0000
0000
0000
0000
0000
0000
0000
0003
0000
0000
0000
0010
0000
0000
0100
0000
0000
,  // measure 56
2000
0000
0000
0000
0000
0000
0000
0000
3000
0000
0000
0000
0020
0000
0000
0030
0020
0000
0000
0030
0000
0000
0000
0000
1000
0000
0001
0000
0200
0000
0000
0000
,  // measure 57
0302
0000
0013
0001
0100
0001
1000
0001
0100
0001
1000
0001
0100
0001
0010
0001
,  // measure 58
0002
0000
0013
0001
0100
0001
1000
0001
0100
0001
1000
0001
0100
0001
0010
0001
,  // measure 59
0200
0000
0300
0000
;

//---------------dance-single - ----------------
#NOTES:
     dance-single:
     :
     Beginner:
     2:
     0.119604,0.136855,0.000000,0.082803,0.000000,91.000000,91.000000,0.000000,9.000000,0.000000,0.000000,0.119604,0.136855,0.000000,0.082803,0.000000,91.000000,91.000000,0.000000,9.000000,0.000000,0.000000:
0000
0000
0000
0000
,
0000
0000
0000
0000
,
0000
0000
0000
0000
,
0001
0000
0000
0000
,
0001
0000
0000
0000
,
1000
0000
0000
0000
,
1000
0000
1000
0000
,
1000
0000
0000
0000
,
1000
0000
0000
0000
,
0001
0000
0000
0000
,
0001
0000
0001
0000
,
0001
0000
0000
0000
,
0001
0000
0001
0000
,
0010
0000
0000
0000
,
0100
0000
0100
0000
,
1000
0000
0000
0000
,
1000
0000
1000
0000
,
0010
0000
0000
0000
,
0100
0000
0100
0000
,
0002
0000
0000
0000
,
0003
0000
0001
0000
,
1000
0000
0001
0000
,
0001
0000
0010
0000
,
2000
0000
0000
0000
,
3000
0000
1000
0000
,
0001
0000
1000
0000
,
1000
0000
0100
0000
,
0001
0000
0000
0000
,
0001
0000
0001
0000
,
1000
0000
0001
0000
,
0100
0000
0010
0000
,
1000
0000
0000
0000
,
1000
0000
1000
0000
,
0001
0000
1000
0000
,
0100
0000
0010
0000
,
0001
0000
0000
0002
,
0003
0000
0001
0000
,
1000
0000
0001
0000
,
0001
0000
0100
0000
,
1000
0000
0000
2000
,
3000
0000
1000
0000
,
0001
0000
1000
0000
,
1000
0000
0010
0000
,
0002
0000
0003
0000
,
1000
0000
0001
0000
,
0010
0000
0100
0000
,
0010
0000
0100
0000
,
2000
0000
3000
0000
,
0001
0000
1000
0000
,
0010
0000
0100
0000
,
0010
0000
0100
0000
,
0020
0000
0030
0000
,
0010
0000
0010
0000
,
0001
0000
1000
0000
,
0001
0000
1000
0000
,
0200
0000
0300
0000
,
0100
0000
0100
0000
,
0001
0000
1000
0000
,
0001
0000
1000
0000
,
0020
0000
0030
0000
;

//---------------dance-single - ----------------
#NOTES:
     dance-single:
     :
     Easy:
     6:
     0.262866,0.273709,0.092003,0.248408,0.000000,200.000000,190.000000,10.000000,27.000000,0.000000,0.000000,0.262866,0.273709,0.092003,0.248408,0.000000,200.000000,190.000000,10.000000,27.000000,0.000000,0.000000:
0000
0000
0000
0000
,
0000
0000
0000
0000
,
0000
0000
0000
0000
,
0200
0300
0100
0100
,
0200
0300
0100
0100
,
0002
0003
0001
0001
,
0100
0100
1000
1000
,
0010
0000
0010
0010
,
0010
0000
0010
0010
,
1000
0000
1000
1000
,
0020
0230
0302
2003
,
3100
0110
0001
0001
,
0000
0100
0001
1001
,
0000
0010
1000
1000
,
0002
0023
0230
2300
,
3010
0110
1000
1000
,
0000
0010
1000
1001
,
0000
0100
0001
0001
,
1000
0100
0010
0001
,
2000
0000
0010
0010
,
3010
0000
1000
0001
,
0100
0100
0010
0110
,
0001
0010
1000
0010
,
0002
0000
0100
0100
,
0103
0000
0001
1000
,
0010
0010
0100
0110
,
1000
0100
0001
0100
,
2000
3000
1000
1100
,
0001
0100
0001
0001
,
0010
0100
0010
0010
,
0001
0100
0010
1000
,
0002
0003
0001
0011
,
1000
0010
1000
1000
,
0100
0010
0100
0100
,
1000
0010
0100
0001
,
1000
1000
1000
0020
,
0030
0000
1000
0001
,
0100
0100
0010
0110
,
0001
0010
1000
0010
,
0001
0001
0001
0200
,
0300
0000
0001
1000
,
0010
0010
0100
0110
,
1000
0100
0001
0100
,
2000
0000
3000
0000
,
0020
0030
0200
0300
,
0001
1000
0001
0001
,
1000
0001
1000
1000
,
0002
0000
0003
0000
,
0020
0030
0200
0300
,
1000
0001
1000
1000
,
0001
1000
0001
0001
,
1000
0200
0300
0100
,
0010
0001
0000
0001
,
0100
0010
0100
0100
,
0010
0100
0010
0010
,
0002
0000
0003
0010
,
0020
0030
1000
0001
,
0010
0100
0010
0010
,
0100
0010
0100
0100
,
0020
0000
0030
0000
;

//---------------dance-single - ----------------
#NOTES:
     dance-single:
     :
     Medium:
     9:
     0.385099,0.383193,0.110404,0.340411,0.000000,293.000000,281.000000,12.000000,37.000000,0.000000,0.000000,0.385099,0.383193,0.110404,0.340411,0.000000,293.000000,281.000000,12.000000,37.000000,0.000000,0.000000:
// measure 0
0000
0000
0000
0000
,  // measure 1
0000
0000
0000
0000
,  // measure 2
0000
0000
0000
0000
,  // measure 3
0100
0000
0100
0000
0100
1000
0010
0000
,  // measure 4
0100
0000
0100
0000
0100
0001
1000
0000
,  // measure 5
0010
0000
0010
0000
0100
0001
0010
0000
,  // measure 6
0100
0010
0100
0000
1000
0100
1000
0000
,  // measure 7
0010
0000
0010
0000
0010
1000
0100
0000
,  // measure 8
0010
0000
0010
0000
0010
0001
1000
0000
,  // measure 9
0100
0000
0100
0000
0010
0001
0100
0000
,  // measure 10
0020
2030
3200
0302
,  // measure 11
0103
0000
0110
0000
0001
1000
0100
0000
,  // measure 12
1000
1100
0010
0101
,  // measure 13
0001
0000
1000
0000
0100
0010
0001
0000
,  // measure 14
0020
0230
2300
3002
,  // measure 15
0013
0000
0110
0000
0001
1000
0010
0000
,  // measure 16
1000
1010
0100
0011
,  // measure 17
0001
0000
1000
0000
0010
0100
0001
0000
,  // measure 18
0100
0010
0100
0000
0010
1000
0001
0000
,  // measure 19
0010
0100
1000
0000
0010
0000
0200
0000
,  // measure 20
0300
0000
0100
0000
0001
0010
0100
0000
,  // measure 21
1000
0100
1000
0000
0100
0000
0011
0000
,  // measure 22
0001
0100
0010
0000
0002
0000
0023
0000
,  // measure 23
0130
0010
1000
0000
0100
0000
0020
0000
,  // measure 24
0030
0000
0010
0000
0001
0100
0010
0000
,  // measure 25
1000
0010
1000
0000
0010
0000
0101
0000
,  // measure 26
0001
0010
0100
0000
0001
0100
0010
0000
,  // measure 27
0002
0000
0003
0000
0001
0100
0010
0000
,  // measure 28
0100
0100
0100
0000
0010
1000
0100
0000
,  // measure 29
0001
0001
0001
0000
0100
1000
0010
0000
,  // measure 30
1000
0100
0010
0000
0001
0000
0110
0000
,  // measure 31
2000
0000
3000
0000
1000
0100
0010
0000
,  // measure 32
0100
0100
0100
0000
0010
0001
0100
0000
,  // measure 33
1000
1000
1000
0000
0100
0001
0010
0000
,  // measure 34
0001
0100
0010
0000
1000
0000
0110
0000
,  // measure 35
0100
0010
1000
0000
0100
0000
0020
0000
,  // measure 36
0030
0000
0010
0000
0001
0100
0010
0000
,  // measure 37
1000
0010
1000
0000
0010
0000
0101
0000
,  // measure 38
0001
0010
0100
0000
0002
0000
0203
0000
,  // measure 39
0310
0100
1000
0000
0010
0000
0200
0000
,  // measure 40
0300
0000
0100
0000
0001
0010
0100
0000
,  // measure 41
1000
0100
1000
0000
0100
0000
0011
0000
,  // measure 42
0001
0100
0010
0000
0002
0000
0023
0000
,  // measure 43
2030
0000
3000
0002
,  // measure 44
0023
0000
0130
2000
0000
3100
0020
0000
,  // measure 45
0130
1000
0010
0000
1000
0100
0001
0000
,  // measure 46
0100
1000
0010
0000
1000
0100
0001
0000
,  // measure 47
0200
0000
0300
0020
,  // measure 48
0032
0000
1003
0200
0000
1300
0002
0000
,  // measure 49
1003
0100
0001
0000
0100
1000
0010
0000
,  // measure 50
1000
0100
0001
0000
0100
1000
0010
0000
,  // measure 51
0100
0001
0100
0020
0000
0030
0010
0100
,  // measure 52
0001
0100
0010
2000
0000
3100
0020
0000
,  // measure 53
0130
1000
0010
0000
1000
0100
0001
0000
,  // measure 54
0100
1000
0010
0000
1000
0100
0001
0000
,  // measure 55
0200
0000
0000
0000
0300
0000
0010
0001
,  // measure 56
0100
0001
0100
0020
0000
1030
0002
0000
,  // measure 57
1003
0100
0001
0000
0100
1000
0010
0000
,  // measure 58
1000
0100
0001
0000
0100
1000
0010
0000
,  // measure 59
0200
0000
0300
0000
;

//---------------dance-single - ----------------
#NOTES:
     dance-single:
     :
     Hard:
     14:
     0.693966,0.711644,0.000000,0.662422,0.717624,528.000000,528.000000,0.000000,72.000000,0.000000,0.000000,0.693966,0.711644,0.000000,0.662422,0.717624,528.000000,528.000000,0.000000,72.000000,0.000000,0.000000:
// measure 0
0000
0000
0000
0000
,  // measure 1
0000
0000
0000
0000
,  // measure 2
0000
0000
0000
0000
,  // measure 3
0010
0000
0010
0100
0010
0000
0010
0000
1000
0100
0010
0002
0000
0000
0013
0000
,  // measure 4
0010
0000
0010
0100
0010
0000
0010
0000
0001
0100
0010
2000
0000
0000
3010
0100
,  // measure 5
0010
0000
0100
0010
0100
0000
0010
0000
1000
0100
0000
1000
0100
0010
0001
0000
,  // measure 6
0010
0100
0010
0100
1000
0000
0100
0010
0100
0000
1000
0001
0100
0010
1000
0000
,  // measure 7
0100
0000
0100
0010
0100
0000
0100
0000
1000
0010
0100
0002
0000
0000
0103
0000
,  // measure 8
0100
0000
0100
0010
0100
0000
0100
0000
0001
0010
0100
2000
0000
0000
3100
0010
,  // measure 9
0100
0000
0010
0100
0010
0000
0100
0000
1000
0010
0000
1000
0010
0100
0001
0000
,  // measure 10
0020
0230
2300
3002
,  // measure 11
1003
0000
0100
0010
0001
0000
0010
0100
1000
0000
0100
1000
0000
0100
0000
0010
,  // measure 12
0000
0000
0001
0100
0001
0000
0100
0000
0010
1000
0000
0010
1000
0100
0010
0100
,  // measure 13
0000
0000
1000
0100
1000
0000
0001
0100
0001
0000
0100
0001
0000
0001
0000
0100
,  // measure 14
0001
1000
0200
0000
2300
0000
3002
0000
0023
0000
0230
0000
2300
0000
3002
0000
,  // measure 15
1003
0000
0010
0100
0001
0000
0100
0010
1000
0000
0010
1000
0000
0010
0000
0100
,  // measure 16
0000
0000
0001
0010
0001
0000
0010
0000
0100
1000
0000
0100
1000
0010
0100
0010
,  // measure 17
0000
0000
1000
0010
1000
0000
0001
0010
0001
0000
0010
0001
0000
0001
0000
0010
,  // measure 18
0001
1000
0020
0000
2030
0000
3002
0000
0103
0010
1000
0000
0100
0010
0001
0000
,  // measure 19
0010
0100
0010
0100
0020
0000
0230
0000
2300
0000
3200
0000
0302
0000
0000
0103
,  // measure 20
0000
0000
0100
0000
1000
0100
1000
0000
0020
0000
1030
0100
1000
0000
0001
0000
,  // measure 21
0100
0000
0100
0000
0100
0000
0010
0100
0000
0010
0100
0000
0002
0000
0000
0000
,  // measure 22
1003
0100
0010
0000
0100
0010
0001
0000
0020
0000
0130
0010
0100
0000
1000
0000
,  // measure 23
0010
0100
0010
0100
0020
0000
0230
0000
0302
0000
0203
0000
2300
0000
0000
3100
,  // measure 24
0000
0000
0100
0000
0001
0100
0001
0000
0020
0000
0031
0100
0001
0000
1000
0000
,  // measure 25
0100
0000
0100
0000
0100
0000
0010
0100
0000
0010
0100
0000
2000
0000
0000
0000
,  // measure 26
3001
0100
0010
0000
0100
0010
1000
0000
0020
0000
0130
0010
0100
0000
0001
0000
,  // measure 27
2000
0000
0000
0000
3100
0000
1000
0000
0001
0100
0000
0100
0001
0000
0000
0100
,  // measure 28
0010
1000
0010
0000
1000
0000
0100
0010
0001
0010
0000
0010
0001
0000
0000
1000
,  // measure 29
0100
1000
0100
0000
1000
0000
0001
0100
0001
0100
0000
0010
0100
0000
0000
0100
,  // measure 30
0001
0000
1000
0100
1000
0000
0100
0000
0001
0100
0001
0000
0100
0000
1000
0000
,  // measure 31
0002
0000
0000
0000
0013
0000
0001
0000
1000
0010
0000
0010
1000
0000
0000
0010
,  // measure 32
0100
0001
0100
0000
0001
0000
0010
0100
1000
0100
0000
0100
1000
0000
0000
0001
,  // measure 33
0010
0001
0010
0000
0001
0000
1000
0010
1000
0010
0000
0100
0010
0000
0000
0010
,  // measure 34
1000
0000
0001
0010
0001
0000
0010
0000
1000
0010
1000
0000
0010
0000
0001
0000
,  // measure 35
0010
0100
0010
0100
0020
0000
0230
0000
2300
0000
3200
0000
0302
0000
0000
0103
,  // measure 36
0000
0000
0100
0000
1000
0100
1000
0000
0020
0000
1030
0100
1000
0000
0001
0000
,  // measure 37
0100
0000
0100
0000
0100
0000
0010
0100
0000
0010
0100
0000
0002
0000
0000
0000
,  // measure 38
1003
0100
0010
0000
0100
0010
0001
0000
0020
0000
0130
0010
0100
0000
1000
0000
,  // measure 39
0010
0100
0010
0100
0020
0000
0230
0000
0302
0000
0203
0000
2300
0000
0000
3100
,  // measure 40
0000
0000
0100
0000
0001
0100
0001
0000
0020
0000
0031
0100
0001
0000
1000
0000
,  // measure 41
0100
0000
0100
0000
0100
0000
0010
0100
0000
0010
0100
0000
2000
0000
0000
0000
,  // measure 42
3001
0100
0010
0000
0100
0010
1000
0000
0020
0000
0030
0010
0200
0000
0300
0100
,  // measure 43
0002
0010
0013
2000
,  // measure 44
3002
0000
0103
1000
0000
1000
0020
0000
,  // measure 45
1030
0000
0100
0000
0010
0100
0010
0000
0100
0001
0100
0000
1000
0100
1000
0000
,  // measure 46
0001
0000
0010
0000
0100
0010
0100
0000
0010
1000
0010
0000
0001
0010
0001
0000
,  // measure 47
2000
0100
3100
0002
,  // measure 48
2003
0000
3010
0001
0000
0001
0200
0000
,  // measure 49
0301
0000
0010
0000
0100
0010
0100
0000
0010
1000
0010
0000
0001
0010
0001
0000
,  // measure 50
1000
0000
0100
0000
0010
0100
0010
0000
0100
0001
0100
0000
1000
0100
1000
0000
,  // measure 51
0001
0100
0010
2000
0100
3000
0001
0100
,  // measure 52
0010
1000
0100
1000
0001
0100
0020
0000
,  // measure 53
1030
0000
0100
0000
0010
0100
0010
0000
0100
0001
0100
0000
1000
0100
1000
0000
,  // measure 54
0001
0000
0010
0000
0100
0010
0100
0000
0010
1000
0010
0000
0001
0010
0001
0000
,  // measure 55
2000
0000
0100
0000
3100
0000
0002
0203
,  // measure 56
2300
3200
0320
0032
0003
0001
0200
0000
,  // measure 57
0301
0000
0010
0000
0100
0010
0100
0000
0010
1000
0010
0000
0001
0010
0001
0000
,  // measure 58
1000
0000
0100
0000
0010
0100
0010
0000
0100
0001
0100
0000
1000
0100
1000
0000
,  // measure 59
0020
0000
0030
0000
;
