#TITLE:Hello Bitches;
#SUBTITLE:;
#ARTIST:CL;
#TITLETRANSLIT:;
#SUBTITLETRANSLIT:;
#ARTISTTRANSLIT:;
#GENRE:K-Pop;
#CREDIT:;
#BANNER:Hello Bitches.png;
#BACKGROUND:Hello Bitches-bg.png;
#LYRICSPATH:;
#CDTITLE:../cdtitle.png;
#MUSIC:Hello Bitches.ogg;
#OFFSET:3.030000;
#SAMPLESTART:13.513000;
#SAMPLELENGTH:15.000000;
#LASTBEATHINT:2.452917;
#SELECTABLE:YES;
#BPMS:0.000000=72.500000
;
#STOPS:
;
#BGCHANGES:3.875=Hello Bitches.avi=1.000=0=0=0=StretchNoLoop====,
99999=-nosongbg-=1.000=0=0=0 // don't automatically add -songbackground-
;
#KEYSOUNDS:;
#ATTACKS:;

//---------------dance-single - ----------------
#NOTES:
     dance-single:
     :
     Beginner:
     2:
     0.083413,0.105374,0.097315,0.000000,0.000000,48.000000,40.000000,8.000000,0.000000,0.000000,0.000000,0.083413,0.105374,0.097315,0.000000,0.000000,48.000000,40.000000,8.000000,0.000000,0.000000,0.000000:
0000
0000
0000
0000
,
0000
0000
0000
0000
,
0000
0000
0000
0000
,
1000
0000
1000
0000
,
0001
0000
1000
0000
,
1001
0000
0000
0000
,
1001
0000
0000
0000
,
0110
0000
0000
0000
,
0110
0000
0001
0001
,
0001
0000
1000
0000
,
0001
0000
1000
0000
,
0001
0000
0010
0000
,
0100
0000
1000
0000
,
0001
0000
1000
0000
,
0001
0000
1000
0000
,
0001
0000
0100
0000
,
0010
0000
1000
0000
,
0001
0000
0001
0000
,
1000
0000
1000
0000
,
0001
0000
0001
0000
,
1000
0000
0001
0000
,
1001
0000
0000
0000
,
1001
0000
0000
0000
,
0110
0000
0000
0000
,
0110
0000
1000
1000
;

//---------------dance-single - ----------------
#NOTES:
     dance-single:
     :
     Easy:
     4:
     0.166826,0.180642,0.024329,0.048658,0.000000,96.000000,94.000000,2.000000,4.000000,0.000000,0.000000,0.166826,0.180642,0.024329,0.048658,0.000000,96.000000,94.000000,2.000000,4.000000,0.000000,0.000000:
0000
0000
0000
0000
,
0000
0000
0000
0000
,
0000
0000
0000
0000
,
1000
0001
0010
0100
,
1000
0001
0200
0310
,
1001
0000
0001
0000
1000
0010
0001
0000
,
0001
0000
1000
0000
0001
0010
1000
0000
,
0001
0000
0010
0000
1000
0010
0001
0000
,
1000
0010
0001
0100
,
1000
0001
1000
0001
,
0010
0100
0010
0100
,
1000
1000
0010
0010
,
0100
0100
0001
0001
,
1000
0000
0100
0000
0010
0010
0010
0000
,
0001
0000
0100
0000
0010
0010
0010
0000
,
1000
1000
0001
0001
,
2000
3000
0002
0003
,
1000
1000
1000
1000
,
0001
0001
0001
0001
,
1000
0001
0010
0100
,
1000
0001
0200
0310
,
1001
0000
0001
0000
1000
0010
0001
0000
,
0001
0000
1000
0000
0001
0010
1000
0000
,
0001
0000
0010
0000
1000
0010
0001
0000
,
1000
0010
0001
0100
;

//---------------dance-single - ----------------
#NOTES:
     dance-single:
     :
     Medium:
     6:
     0.281519,0.272331,0.121644,0.048658,0.000000,162.000000,152.000000,10.000000,4.000000,0.000000,0.000000,0.281519,0.272331,0.121644,0.048658,0.000000,162.000000,152.000000,10.000000,4.000000,0.000000,0.000000:
0000
0000
0000
0000
,
0000
0000
0000
0000
,
0000
0000
0000
0000
,
1000
0100
0001
0100
1000
0010
0001
0010
,
1000
0100
0001
0100
2000
0000
3001
0000
,
1001
0001
0100
0010
1000
0001
0001
0000
,
0010
1000
0010
0001
0100
1000
1000
0000
,
0100
0001
0010
0100
1000
0010
0010
0000
,
0001
0010
1000
0100
0001
0100
1000
0010
,
0110
0001
1000
0000
0001
0010
0100
0000
,
0010
0001
1000
0000
0001
0100
0010
0000
,
1000
1000
1100
0000
0001
0001
0101
0000
,
0010
0010
0110
0000
1000
1000
1001
0000
,
0110
0001
0100
0010
0100
0001
0010
0000
,
0100
1000
0010
1000
0100
0010
0001
0000
,
1000
0010
1010
1000
0001
0010
0011
0000
,
0002
0000
0103
0000
2000
0100
3100
0000
,
0001
0100
1000
0100
0001
0010
1000
0010
,
0001
0100
1000
0100
0001
0010
0100
1000
,
1000
0010
0001
0010
1000
0100
0001
0100
,
1000
0010
0001
0010
2000
0000
3001
0000
,
1001
0001
0010
0100
1000
0001
0001
0000
,
0100
1000
0100
0001
0010
1000
1000
0000
,
0010
0001
0100
0010
1000
0100
0100
0000
,
0001
0100
1000
0010
0001
0010
1000
0100
;

//---------------dance-single - ----------------
#NOTES:
     dance-single:
     :
     Challenge:
     11:
     0.512643,0.499273,0.279782,0.085151,0.638632,295.000000,272.000000,23.000000,7.000000,0.000000,0.000000,0.512643,0.499273,0.279782,0.085151,0.638632,295.000000,272.000000,23.000000,7.000000,0.000000,0.000000:
// measure 0
0000
0000
0000
0000
,  // measure 1
0000
0000
0000
0000
,  // measure 2
0000
0000
0000
0000
,  // measure 3
1000
0100
0001
0100
1000
1000
1000
0000
0001
0010
1000
0010
0001
0001
0001
0000
,  // measure 4
1000
0000
0010
0000
0100
0100
0100
0000
0001
0000
0000
0000
0011
0000
0000
0000
,  // measure 5
0110
0000
1000
0010
0100
0010
1000
0100
0010
0000
1001
0000
0010
0010
0100
0000
,  // measure 6
0101
0000
0001
0010
0100
0010
0001
0100
0010
0000
1001
0000
0010
0100
0100
0000
,  // measure 7
0011
0000
0001
0100
0010
0100
0001
0010
0100
0000
1001
0000
0010
0010
0100
0000
,  // measure 8
0110
0000
0000
0000
0000
0000
0001
0000
0000
1000
0000
0000
0100
0000
0000
0010
0000
0000
0001
0000
0000
1000
0000
0000
0010
0000
0000
0000
0000
0000
0100
0000
0000
0000
0000
0000
0001
0000
0010
0000
0100
0000
1000
0000
0000
0000
0000
0000
,  // measure 9
1001
0000
0001
1000
0100
1000
0010
0000
0100
0001
0010
0001
0100
0010
1000
0000
,  // measure 10
0001
0010
0100
0010
0001
1000
0010
0000
0200
0000
0301
1000
0001
1000
0100
0000
,  // measure 11
1000
0100
0010
0100
1000
0002
0010
0000
1003
0010
0100
0010
1000
0002
0103
0001
,  // measure 12
1000
0100
1000
0001
0010
0100
0010
0001
1000
0010
1000
0001
0010
0200
1000
0300
,  // measure 13
0001
0010
1000
0010
0001
0000
0011
0000
1000
0000
1010
0010
0100
0002
1000
0003
,  // measure 14
0001
0000
0011
0000
0100
0010
0001
0100
0010
1000
0001
0010
0100
2000
0001
3000
,  // measure 15
1000
0000
0000
0010
0000
0000
0010
0000
0100
0000
0001
0000
0010
0000
0100
0000
1000
0000
0000
0010
0000
0000
0010
0000
0100
0000
0001
0000
0010
0000
0100
0000
,  // measure 16
2000
0000
0000
0000
0000
0000
0000
0000
0000
0000
0000
0000
0000
0000
0000
0000
0000
0000
0000
0000
0000
0000
0000
0000
0000
0000
0000
0000
0000
0000
0000
0000
0000
0000
0000
0000
0000
0000
0000
0000
0000
0000
0000
0000
0000
0000
0000
0000
0000
0000
0000
0000
0000
0000
0000
0000
0000
0000
0000
0000
0000
0000
0000
0000
0000
0000
0000
0000
0000
0000
0000
0000
0000
0000
0000
0000
0000
0000
0000
0000
0000
0000
0000
0000
0000
0000
0000
0000
0000
0000
0000
0000
0000
0000
0000
0000
3001
0000
0000
0000
0000
0000
0010
0000
0000
0000
0000
0000
0001
0000
0000
0000
0000
0000
0000
0000
0000
0000
0000
0000
0100
0000
0000
0000
0000
0000
0000
0000
0000
0000
0000
0000
0010
0000
0000
0000
0000
0000
0000
0000
0000
0000
0000
0000
1000
0000
0000
0000
0000
0000
0000
0000
0100
0000
0000
0000
0000
0000
0000
0000
1000
0000
0000
0000
0000
0000
0000
0000
0100
0000
0000
0000
0000
0000
0000
0000
0000
0000
0000
0000
0010
0000
0000
0000
0000
0000
0000
0000
0000
0000
0000
0000
,  // measure 17
0011
0000
0100
1000
0010
0010
0010
0000
0100
0001
0010
0100
1000
1000
1000
0001
,  // measure 18
1001
0000
0110
0000
0001
0001
0001
0000
1000
0100
0010
0001
0010
0100
1000
0000
,  // measure 19
0001
0100
1000
0100
0001
0001
0001
0000
1000
0010
0001
0010
1000
1000
1000
0000
,  // measure 20
0001
0000
0010
0000
0100
0100
0100
0000
1000
0000
0000
0000
1010
0000
0000
0000
,  // measure 21
0110
0000
0001
0010
0100
0010
0001
0100
0010
0000
1001
0000
0010
0010
0100
0000
,  // measure 22
1100
0000
1000
0010
0100
0010
1000
0100
0010
0000
1001
0000
0010
0100
0100
0000
,  // measure 23
1010
0000
1000
0100
0010
0100
1000
0010
0100
0000
1001
0000
0010
0010
0100
0000
,  // measure 24
0110
0000
0000
0000
0000
0000
1000
0000
0000
0001
0000
0000
0100
0000
0000
0010
0000
0000
1000
0000
0000
0001
0000
0000
0010
0000
0000
0000
0000
0000
0100
0000
0000
0000
0000
0000
1000
0000
0010
0000
0100
0000
0001
0000
0000
0000
0000
0000
;

//---------------dance-single - ----------------
#NOTES:
     dance-single:
     :
     Hard:
     8:
     0.352768,0.347978,0.145973,0.072986,0.164220,203.000000,191.000000,12.000000,6.000000,0.000000,0.000000,0.352768,0.347978,0.145973,0.072986,0.164220,203.000000,191.000000,12.000000,6.000000,0.000000,0.000000:
0000
0000
0000
0000
,
0000
0000
0000
0000
,
0000
0000
0000
0000
,
1000
0000
0100
0000
0001
0100
0001
0000
0100
0000
1000
0000
0010
0100
0010
0000
,
1000
0000
0001
0000
0010
1000
0010
0000
0001
0000
0000
0000
1001
0000
0000
0000
,
0110
0000
0001
0000
0010
0000
1000
0000
0010
0000
0001
0000
0100
1000
0100
0000
,
0001
0000
1000
0000
0100
0000
0001
0000
0100
0000
1000
0000
0010
0001
0010
0000
,
1000
0000
0001
0000
0010
0000
1000
0000
0010
0000
0001
0000
0100
1000
0100
0000
,
0001
1000
0100
0001
0100
1000
0020
0130
,
1001
0000
0001
0000
0010
0100
0010
0000
0001
0000
1000
0000
0010
0100
0010
0000
,
1000
0000
0001
0000
0010
0100
1000
0000
0001
0000
1000
0000
0010
0100
0001
0000
,
1000
0000
0100
0000
0001
0200
0000
0000
1300
0000
0010
0000
0001
0020
0000
0000
,
1030
0010
1000
0000
0001
0010
0001
0000
0100
0000
0010
0000
0110
0000
0000
0000
,
1001
0100
0001
0010
1000
0100
0110
0000
,
1001
0100
1000
0010
0001
0100
0110
0000
,
1000
0000
0100
0000
0001
0100
1000
0000
0001
0000
0010
0000
1001
0000
0000
0000
,
0002
0000
0000
0000
0203
0000
0000
0000
1300
0100
0001
1000
0010
0000
0100
0000
,
1001
0000
0001
0000
0010
1000
0010
0000
0001
0000
0100
0000
1000
0100
1000
0000
,
0100
0000
0001
0000
0010
0100
0010
0000
0001
0000
0100
0000
0010
0100
0010
0000
,
1000
0000
0100
0000
0001
0100
0001
0000
0100
0000
1000
0000
0010
0100
0010
0000
,
1000
0000
0001
0000
0010
1000
0010
0000
0001
0000
0000
0000
1001
0000
0000
0000
,
0110
0000
0001
0000
0010
0000
1000
0000
0010
0000
0001
0000
0100
1000
0100
0000
,
0001
0000
1000
0000
0100
0000
0001
0000
0100
0000
1000
0000
0010
0001
0010
0000
,
1000
0000
0001
0000
0010
0000
1000
0000
0010
0000
0001
0000
0100
1000
0100
0000
,
0001
1000
0100
0001
0100
1000
0020
0130
;
