#TITLE:Harmonia;
#SUBTITLE:;
#ARTIST:ATSUMI UEDA;
#TITLETRANSLIT:;
#SUBTITLETRANSLIT:;
#ARTISTTRANSLIT:;
#GENRE:BEMANI;
#CREDIT:;
#BANNER:Harmonia.png;
#BACKGROUND:Harmonia-bg.png;
#LYRICSPATH:;
#CDTITLE:../cdtitle.png;
#MUSIC:Harmonia.ogg;
#OFFSET:0.374000;
#SAMPLESTART:0.976000;
#SAMPLELENGTH:15.000000;
#SELECTABLE:YES;
#BPMS:0.000000=177.000000
;
#STOPS:
;
#BGCHANGES:-0.250=Harmonia.avi=1.000=0=0=0=StretchNoLoop====,
99999=-nosongbg-=1.000=0=0=0 // don't automatically add -songbackground-
;
#KEYSOUNDS:;
#ATTACKS:;

//---------------dance-double - ----------------
#NOTES:
     dance-double:
     :
     Hard:
     13:
     0.661541,0.667566,0.511056,0.333751,0.026074,444.000000,395.000000,49.000000,32.000000,0.000000,0.000000,0.661541,0.667566,0.511056,0.333751,0.026074,444.000000,395.000000,49.000000,32.000000,0.000000,0.000000:
00000000
00000000
00000000
00000000
,
00000000
00000000
00000000
00000000
,
00000000
00000000
00000000
00000000
,
00010000
00001000
00000100
00000010
00001000
00000100
00000010
00000001
,
00000000
00000101
00000000
00001010
00000000
00000001
00000010
00000100
,
00001000
00000000
00000001
00000100
00001000
00010000
00100000
02000000
,
00000000
03001000
00010000
01000000
10000000
00000000
10010000
00000000
,
10000000
01000000
00100000
00010000
01000000
00100000
00010000
00001000
,
00000000
00011000
00000000
00001100
00000000
00000010
00000001
00001000
,
00000010
00000000
00000100
00000101
00000000
00001100
00000000
00021000
,
00000000
00031000
00000100
00000002
00000000
00000103
00000010
00001000
,
00000002
00000000
00000000
00000000
00000013
00000000
00001000
00000000
00010000
00000000
00000000
00100000
00000000
00000000
10000000
00000000
,
02000000
00000000
03010000
01000000
20000000
00000000
30010000
00000000
,
20000000
00000000
00000000
00000000
30100000
00000000
00010000
00000000
00001000
00000000
00000000
00000010
00000000
00000000
00000001
00000000
,
00000200
00000000
00001300
00000100
00000002
00000000
00001003
00000000
,
00000001
00000100
00001000
00000100
00001000
00010000
00001000
00010000
,
01000000
00100000
01000000
10010000
00000000
00000000
00000000
00000000
,
00010000
00000000
10000000
00000000
10100000
00000000
01000000
00010000
,
00000000
00100000
00001000
00000000
00101000
00000000
00001000
00010000
,
00000010
00000000
00001000
00000000
00001010
00000000
00000001
00000010
,
00000000
00000100
00001000
00000100
00000000
00001001
00000000
00000000
,
00001000
00000000
00000001
00000000
00000011
00000000
00000100
00001000
,
00000000
00000010
00010000
00001000
00000000
00010000
00001000
00100000
,
02000000
00000000
13000000
00010000
00100000
00001000
00100000
00001000
,
00010000
00000010
00001000
00000100
00000010
00000001
00000000
00002001
,
00000000
00003001
00000100
00001000
00000000
00012000
00000000
00000000
,
00100000
00010000
01000000
00013000
,
01000000
00000000
01100000
00000000
10000000
00010000
00100000
01000000
,
20000000
00000000
30010000
10000000
00100000
10000000
01000000
00010000
,
00002000
00000000
00103000
00001000
00010000
00000010
00001000
00000001
,
00000020
00000000
00000130
00001000
00000002
00000000
00000013
00000000
,
00000001
00000100
00000010
00001010
00000000
00010000
00021000
00000000
,
00031000
00010000
00100000
20000000
00000000
31000000
00100000
00010000
,
10000000
00100000
00010000
00100000
00010000
00001000
00010000
00001000
,
00000010
00000100
00000010
00000001
00001001
00000000
00001001
00000000
,
00010000
00001000
00000010
00000100
00001000
00000010
00000100
00000001
,
00000000
00000011
00000000
00001100
00000000
00000001
00000100
00000010
,
00001000
00000000
00000001
00000010
00001000
00010000
01000000
00200000
,
00000000
00301000
00010000
00100000
10000000
00000000
10010000
00000000
,
10000000
00100000
01000000
00010000
00100000
01000000
00010000
00001000
,
00000000
00011000
00000000
00001010
00000000
00000100
00000001
00001000
,
00000100
00000000
00000010
00000011
00000000
00001100
00000000
00021000
,
00000000
00030100
00001000
00000010
00010000
00000000
00011000
00000000
,
00001000
00010000
01000000
00100000
00010000
01000000
00100000
10000000
,
00000000
11000000
00000000
00110000
00000000
10000000
00100000
01000000
,
00100000
00000000
10000000
01000000
00010000
00001000
00000010
00000002
,
00000000
00000013
00000001
00000200
00000000
00000310
00001000
00000001
,
00000010
00000100
00001000
00000010
00000100
00001000
00010000
00001000
,
00000000
00110000
00000000
11000000
00000000
01010000
01000000
10000000
,
00100000
00000000
01000000
10100000
00000000
01010000
00000000
00012000
,
00000000
00103000
00001000
00200000
00000000
00310000
00001000
00000100
,
00000010
00000000
00000001
00000000
00000010
00000000
00000000
00000000
00001100
00000000
00000000
00001001
00000000
00000000
00000101
00000000
,
00000010
00001000
00000100
00001000
00000010
00010000
00000100
00001000
,
00000010
00010000
00001000
00100000
00010000
00100000
00001000
01000000
,
00010000
00100000
00010000
10000000
01000000
10000000
00100000
01000000
,
00010000
00100000
10000000
00100000
00010000
00100000
01000000
10000000
,
00010000
00010000
10000000
10000000
00100000
00100000
01000000
01000000
,
00001000
00001000
00010000
00010000
00000010
00000010
00010000
00001000
,
00000010
00000001
00001000
00000100
00000000
00011000
00000000
00001020
,
00000000
00000130
00001000
00010000
02000000
00000000
13000000
00000000
,
20000000
00000000
00000000
00000000
30100000
00000000
00010000
00000000
00001000
00000000
00000000
00000010
00000000
00000000
00000001
00000000
,
00000200
00000000
00001300
00000100
00000002
00000000
00001003
00000000
,
00000002
00000000
00000000
00000000
00000013
00000000
00001000
00000000
00010000
00000000
00000000
00100000
00000000
00000000
10000000
00000000
,
02000000
00000000
03010000
01000000
20000000
00000000
30010000
00000000
,
00110000
00000000
00001000
00011000
00000000
01000000
01010000
00000000
,
00100000
01100000
00000000
01100000
00000000
00100000
10000000
00010000
,
10000000
01000000
00010000
01000000
00010000
00001000
00010000
00001000
,
00000100
00000010
00000100
00001001
00000000
00000000
00000000
00000000
;

//---------------dance-double - ----------------
#NOTES:
     dance-double:
     :
     Easy:
     7:
     0.318851,0.421621,0.177305,0.302461,0.000000,214.000000,197.000000,17.000000,29.000000,0.000000,0.000000,0.318851,0.421621,0.177305,0.302461,0.000000,214.000000,197.000000,17.000000,29.000000,0.000000,0.000000:
00000000
00000000
00000000
00000000
,
00000000
00000000
00000000
00000000
,
00000000
00000000
00000000
00000000
,
00000001
00000010
00000100
00000010
,
00000001
00000100
00001000
00010000
,
00001000
00000000
00100000
00100000
,
02000000
03000000
00100000
00010000
,
10000000
00100000
01000000
00100000
,
10000000
01000000
00010000
00001000
,
00010000
00000000
00000000
00000010
00000000
00000010
00000000
00000200
,
00000000
00000300
00000010
00001000
,
00000002
00000003
00000010
00001000
,
00020000
00030000
00002000
00003000
,
00020000
00030000
00100000
10000000
,
00020000
00030000
20000000
30000000
,
11000000
00000000
00000000
00110000
00000000
00000000
00011000
00000000
,
00000000
00001010
00000000
00000101
00000000
00000000
00000000
00000000
,
00000001
00000000
00000010
00000000
,
00001000
00000010
00000001
00000000
,
00000100
00000000
00001000
00000000
,
00010000
00000000
01000000
00000000
,
10000000
00000000
00100000
00000000
,
00010000
00000000
00100000
00000000
,
10000000
01000000
00010000
00001000
,
00010000
00001000
00000100
00000001
,
00002002
00003003
00000220
00000000
,
00000000
00000000
00000000
00000330
,
00000001
00000010
00000001
00000010
,
00000002
00000003
00000200
00000300
,
00001000
00010000
00001000
00010000
,
00002000
00003000
00020000
00030000
,
01000000
10000000
01000000
20000000
,
30000000
00010000
01000000
00100000
,
10100000
00000000
00000000
01010000
00000000
00000000
00011000
00000000
,
00000000
00001100
00000000
00000000
00000010
00000000
00000010
00000000
,
00000001
00000100
00000010
00000100
,
00000001
00000010
00001000
00010000
,
00001000
00000000
01000000
01000000
,
00200000
00300000
01000000
00010000
,
10000000
01000000
00100000
01000000
,
10000000
00100000
00010000
00001000
,
00010000
00000000
00000000
00000100
00000000
00000100
00000000
00000020
,
00000000
00000030
00000100
00001000
,
00000001
00000010
00000100
00000010
,
00000001
00000100
00001000
00010000
,
00001000
00000000
00000000
00000000
00100000
00000000
00000000
01000000
,
00000000
01000000
00000000
00200000
00000000
00000000
00310000
00000000
,
10000000
00100000
01000000
00100000
,
10000000
01000000
00010000
00001000
,
00000100
00000000
00000000
00000010
00000000
00000100
00000000
00000020
,
00000000
00000030
00001000
00000001
,
00001000
00000000
00001100
00000000
,
00001000
00000100
00000001
00000100
,
00001000
00000010
00000001
00000000
,
00001000
00000100
00000001
00000100
,
00001000
00010000
00001000
00000000
,
00100000
00010000
00100000
00010000
,
10000000
00100000
10000000
00100000
,
00010000
00000000
00000000
00001000
00000000
00010000
00000000
00002000
,
00000000
00003000
00000200
00000300
,
00000002
00000003
00000010
00001000
,
00020000
00030000
00002000
00003000
,
00020000
00030000
00100000
10000000
,
00020000
00030000
20000000
30000000
,
01000000
00000000
00000000
01000000
00000000
00000000
00010000
00000000
,
00000000
00001000
00000000
00001000
00000000
00000000
00000100
00000000
,
00000101
00000000
00000000
00001010
00000000
00000000
00011000
00000000
,
00000000
00110000
00000000
11000000
00000000
00000000
00000000
00000000
;

//---------------dance-single - ----------------
#NOTES:
     dance-single:
     :
     Hard:
     13:
     0.667501,0.667566,0.542345,0.312891,0.026074,448.000000,396.000000,52.000000,30.000000,0.000000,0.000000,0.667501,0.667566,0.542345,0.312891,0.026074,448.000000,396.000000,52.000000,30.000000,0.000000,0.000000:
// measure 0
0000
0000
0000
0000
,  // measure 1
0000
0000
0000
0000
,  // measure 2
0000
0000
0000
0000
,  // measure 3
1000
0100
0010
0001
0010
0100
1000
0010
,  // measure 4
0000
0110
0000
0101
0000
0001
1000
0100
,  // measure 5
0010
0000
0100
1000
0010
0001
0010
2000
,  // measure 6
0000
3001
0010
0100
1000
0000
1001
0000
,  // measure 7
0001
0100
1000
0100
0010
0100
0001
0010
,  // measure 8
0000
0110
0000
1100
0000
1010
0100
0001
,  // measure 9
1000
0000
0100
0110
0000
1001
0000
0120
,  // measure 10
0000
0130
0001
2000
0000
3100
0010
0001
,  // measure 11
0200
0000
0000
0000
0310
0000
0100
0000
0001
0000
0000
0010
0000
0000
0100
0000
,  // measure 12
2000
0000
3100
0010
0002
0000
0103
0000
,  // measure 13
0020
0000
0000
0000
0130
0000
0010
0000
1000
0000
0000
0100
0000
0000
0010
0000
,  // measure 14
0002
0000
0013
0100
2000
0000
3010
0000
,  // measure 15
1000
0100
0010
0100
0010
0001
1000
0010
,  // measure 16
0100
0001
1000
0110
0000
0000
0000
0000
,  // measure 17
0010
0000
0100
0000
0110
0000
1000
0001
,  // measure 18
0000
1000
0010
0000
0101
0000
0001
1000
,  // measure 19
0100
0000
0010
0000
0110
0000
0001
1000
,  // measure 20
0000
0001
0100
0010
0000
1010
0000
0000
,  // measure 21
0001
0000
1000
0000
1001
0000
0100
0010
,  // measure 22
0000
0100
1000
0001
0000
0100
0010
1000
,  // measure 23
0002
0000
1003
0100
0001
0100
0001
0100
,  // measure 24
1000
0001
0010
0100
1000
0001
0000
0021
,  // measure 25
0000
0130
1000
0010
0000
0210
0000
0000
,  // measure 26
0001
0010
1000
0310
,  // measure 27
1000
0000
1001
0000
1000
0100
0010
0002
,  // measure 28
1000
0000
0013
0100
1000
0001
1000
0010
,  // measure 29
0100
0000
0001
0100
0010
1000
0001
0010
,  // measure 30
0100
0000
1000
0100
0020
0000
0031
0000
,  // measure 31
1000
0010
0100
0110
0000
0001
2001
0000
,  // measure 32
3100
1000
0010
0200
0000
0301
0100
0010
,  // measure 33
1000
0100
0010
0100
0010
0001
1000
0010
,  // measure 34
0100
0001
1000
0100
0110
0000
0110
0000
,  // measure 35
1000
0100
0010
0001
0010
0100
1000
0010
,  // measure 36
0000
0110
0000
0101
0000
0001
1000
0100
,  // measure 37
0010
0000
0100
1000
0010
0001
0010
2000
,  // measure 38
0000
3001
0010
0100
1000
0000
1001
0000
,  // measure 39
0001
0100
1000
0100
0010
0100
0001
0010
,  // measure 40
0000
0110
0000
1100
0000
1010
0100
0001
,  // measure 41
1000
0000
0100
0110
0000
1001
0000
0210
,  // measure 42
0000
0301
1000
0100
0010
0000
1001
0000
,  // measure 43
1000
0010
0100
0001
0100
0010
1000
0100
,  // measure 44
0000
0110
0000
0011
0000
0001
1000
0010
,  // measure 45
0100
0000
0010
1000
0100
0001
0100
2000
,  // measure 46
0000
3001
0100
0020
0000
1030
0001
1000
,  // measure 47
0001
0010
1000
0010
0100
0010
0001
0100
,  // measure 48
0000
0110
0000
1010
0000
1100
0010
0001
,  // measure 49
1000
0000
0010
0110
0000
1001
0000
0120
,  // measure 50
0000
0031
1000
0020
0000
0130
0001
0010
,  // measure 51
0100
0000
1000
0000
1000
0000
0000
0000
1010
0000
0000
0110
0000
0000
0101
0000
,  // measure 52
1000
0100
0010
0100
1000
0100
0010
0001
,  // measure 53
0100
0010
0100
0001
0100
0010
1000
0100
,  // measure 54
0010
0001
0100
0001
0010
0001
0100
0010
,  // measure 55
1000
0100
0010
0001
0010
0100
1000
0001
,  // measure 56
1000
0010
0001
0010
1000
0010
0001
0010
,  // measure 57
1000
0100
0001
0100
1000
0100
0001
0100
,  // measure 58
1000
0001
0100
0110
0000
1010
0000
1200
,  // measure 59
0000
0310
0001
0200
0000
0310
1000
0001
,  // measure 60
0020
0000
0000
0000
0130
0000
0010
0000
0001
0000
0000
0100
0000
0000
0010
0000
,  // measure 61
2000
0000
3010
0100
0002
0000
0013
0000
,  // measure 62
0200
0000
0000
0000
0310
0000
0100
0000
1000
0000
0000
0010
0000
0000
0100
0000
,  // measure 63
0002
0000
0103
0010
2000
0000
3100
0000
,  // measure 64
0110
0000
0010
0011
0000
0001
0101
0000
,  // measure 65
0010
0110
0000
1010
0000
1000
0001
1000
,  // measure 66
0001
0010
0100
0010
0100
1000
0001
0100
,  // measure 67
0010
1000
0001
0110
0000
0000
0000
0000
;

//---------------dance-single - ----------------
#NOTES:
     dance-single:
     :
     Beginner:
     2:
     0.117707,0.206508,0.093867,0.000000,0.000000,79.000000,70.000000,9.000000,0.000000,0.000000,0.000000,0.117707,0.206508,0.093867,0.000000,0.000000,79.000000,70.000000,9.000000,0.000000,0.000000,0.000000:
0000
0000
0000
0000
,
0000
0000
0000
0000
,
0000
0000
0000
0000
,
0001
0000
0000
0000
,
1000
0000
0000
0000
,
0010
0000
0010
0000
,
0010
0000
0000
0000
,
0100
0000
0000
0000
,
0001
0000
0000
0000
,
1000
0000
1000
0000
,
1000
0000
0000
0000
,
0001
0000
0000
0000
,
0001
0000
0000
0000
,
1000
0000
0000
0000
,
1000
0000
0000
0000
,
1001
0000
0000
0000
,
0000
0000
0000
0000
,
0100
0000
0000
0000
,
0010
0000
0000
0000
,
0100
0000
0000
0000
,
0010
0000
0000
0000
,
1000
0000
0000
0000
,
0001
0000
0000
0000
,
1000
0000
1000
0000
,
1000
0000
1000
0000
,
1001
0000
0000
0000
,
0000
0000
0000
0000
,
1000
0000
0000
0000
,
0001
0000
0000
0000
,
0100
0000
0000
0000
,
0010
0000
0000
0000
,
0110
0000
0000
0000
,
0000
0000
0000
0000
,
1001
0000
0000
0000
,
0000
0000
0000
0000
,
1000
0000
0000
0000
,
0001
0000
0000
0000
,
0010
0000
0010
0000
,
0010
0000
0000
0000
,
0100
0000
0000
0000
,
1000
0000
0000
0000
,
0001
0000
0001
0000
,
0001
0000
0000
0000
,
0001
0000
0000
0000
,
1000
0000
0000
0000
,
0010
0000
0010
0000
,
0010
0000
0000
0000
,
0100
0000
0000
0000
,
0001
0000
0000
0000
,
1000
0000
1000
0000
,
1000
0000
0000
0000
,
1001
0000
0000
0000
,
0001
0000
0000
0000
,
0100
0000
0000
0000
,
0010
0000
0010
0000
,
0010
0000
0000
0000
,
1000
0000
1000
0000
,
0001
0000
0001
0000
,
1001
0000
0000
0000
,
0110
0000
0000
0000
,
0001
0000
0000
0000
,
0001
0000
0000
0000
,
1000
0000
0000
0000
,
1000
0000
0000
0000
,
1001
0000
0000
0000
,
0000
0000
0000
0000
,
1001
0000
0000
0000
;

//---------------dance-single - ----------------
#NOTES:
     dance-single:
     :
     Easy:
     7:
     0.329281,0.456756,0.229453,0.312891,0.000000,221.000000,199.000000,22.000000,30.000000,0.000000,0.000000,0.329281,0.456756,0.229453,0.312891,0.000000,221.000000,199.000000,22.000000,30.000000,0.000000,0.000000:
0000
0000
0000
0000
,
0000
0000
0000
0000
,
0000
0000
0000
0000
,
1000
0010
0001
0010
,
1000
1000
0001
0001
,
1000
0000
0100
0100
,
0020
0000
0100
0130
,
1000
0100
0001
0100
,
1000
1000
0001
0001
,
1000
0000
0000
0010
0000
0010
0000
0200
,
0000
0300
0010
0010
,
2000
3000
0010
0100
,
0002
0003
2000
3000
,
0002
0003
0010
0100
,
2000
3000
0002
0003
,
1001
0000
0000
1001
0000
0000
0110
0000
,
0000
0110
0000
1001
0000
0000
0000
0000
,
0002
0000
0013
0000
,
2000
0000
3100
0000
,
0002
0000
0103
0000
,
2000
0000
0000
3010
0000
0010
0000
0000
,
0002
0000
0013
0000
,
2000
0000
3100
0000
,
0001
0001
1000
1000
,
0010
0010
0100
0000
,
1001
0000
0020
0000
,
0100
0100
0100
0130
,
1000
0010
0100
0001
,
2000
3000
0001
0001
,
1000
0100
0010
0001
,
2000
3000
0001
0001
,
0200
0000
0310
0000
,
0020
0000
0130
0000
,
1001
0000
0000
1001
0000
0000
0110
0000
,
0000
0110
0000
0000
1001
0000
0000
0000
,
0001
0010
1000
0010
,
0001
0001
1000
1000
,
0001
0000
0100
0100
,
0020
0000
0100
0130
,
0001
0100
1000
0100
,
0001
0001
1000
1000
,
0001
0000
0000
0100
0000
0010
0000
0020
,
0000
0030
0100
0100
,
0001
0010
1000
0010
,
0001
0001
1000
1000
,
0001
0000
0010
0000
0100
0000
0000
1000
,
0000
0001
0000
0002
0000
0000
0003
0000
,
1000
0010
0001
0010
,
1000
1000
0001
0001
,
1000
0000
0000
0100
0000
0100
0000
0020
,
0000
0030
0100
0100
,
1000
0000
1001
0000
,
0001
0100
0010
1000
,
0001
0010
0100
0000
,
1000
0100
0010
0001
,
1000
0010
0100
0000
,
0001
0001
1000
1000
,
0010
0010
0100
0100
,
0001
0000
0000
0010
0000
0010
0000
0200
,
0000
0300
0010
0010
,
0002
0003
0010
0100
,
2000
3000
0002
0003
,
2000
3000
0010
0100
,
0002
0003
2000
3000
,
1001
0000
0000
0101
0000
0000
0101
0000
,
0000
1100
0000
1100
0000
0000
0001
0000
,
1001
0000
0000
1001
0000
0000
0110
0000
,
0000
0110
0000
1001
0000
0000
0000
0000
;

//---------------dance-single - ----------------
#NOTES:
     dance-single:
     :
     Medium:
     10:
     0.446987,0.456756,0.187735,0.500626,0.000000,300.000000,282.000000,18.000000,48.000000,0.000000,0.000000,0.446987,0.456756,0.187735,0.500626,0.000000,300.000000,282.000000,18.000000,48.000000,0.000000,0.000000:
0000
0000
0000
0000
,
0000
0000
0000
0000
,
0000
0000
0000
0000
,
0010
0100
0010
0100
0000
0010
0000
0001
,
0000
1000
0000
0010
0000
0100
0001
0000
,
0010
0000
0100
0000
1000
0001
0000
2000
,
0000
0000
3000
0001
1000
0000
1001
0000
,
0100
0010
0100
0010
0000
1000
0000
0001
,
0000
0010
0000
0100
0000
1000
0001
0000
,
0110
0000
0100
0001
0000
1000
0000
2000
,
0000
3000
0001
0020
0000
0130
2000
0000
,
3002
0100
2003
0010
,
3002
0023
0230
2300
,
3002
0010
2003
0100
,
3002
0203
0320
2030
,
3001
0000
0010
0100
0000
1000
0001
0000
,
0100
0010
0000
0110
0000
0000
0000
0000
,
0100
0000
0100
0000
0010
0000
0000
0100
,
0000
0001
1000
0000
1001
0000
0001
0000
,
0010
0000
0010
0000
0100
0000
0000
0010
,
0000
0001
1000
0001
0000
1001
0000
0000
,
0100
0000
0100
0000
0010
0000
0000
0100
,
0000
1000
0001
0000
1000
0001
1000
0000
,
0100
0100
0010
0010
,
0001
0000
0001
0000
1000
0001
0000
1001
,
0000
0100
0010
0100
0000
0020
0000
0000
,
1000
0001
1000
0031
,
0100
0000
1001
0000
1000
0100
0010
0000
,
0002
0103
2000
3100
,
0010
0000
1001
0000
0001
0010
0100
0000
,
2000
3010
0002
0013
,
1000
0000
0100
0010
0000
0001
0200
0000
,
0010
0000
0310
0000
0100
0001
1000
0000
,
0001
0000
0010
0100
0000
1000
0001
0000
,
0100
0010
0000
1000
0001
0000
1001
0000
,
0010
0100
0010
0100
0000
0010
0000
0001
,
0000
1000
0000
0010
0000
0100
0001
0000
,
0010
0000
0100
0000
1000
0001
0000
2000
,
0000
0000
3000
0001
1000
0000
1001
0000
,
0100
0010
0100
0010
0000
1000
0000
0001
,
0000
0010
0000
0100
0000
1000
0001
0000
,
0110
0000
0100
0001
0000
1000
0000
2000
,
0000
3000
0000
0001
0020
0000
0230
0000
,
1300
0001
1000
0001
0000
1000
0000
0010
,
0000
0100
0000
0001
0000
0010
0100
0000
,
1000
0000
0001
0000
1000
0010
0000
0200
,
0000
0302
0000
2003
0000
0000
3010
0000
,
0100
0010
0100
0010
0000
1000
0000
0001
,
0000
0010
0000
0100
0000
1000
0001
0000
,
0110
0000
0100
0001
0000
1000
0000
2000
,
0000
3000
0001
0020
0000
0130
2000
0000
,
3001
0010
0001
0000
2002
0000
3003
0000
,
1010
0100
0001
0010
,
0100
0010
0001
0100
,
0010
1000
0100
0001
,
0100
1000
0010
0100
,
0001
0001
1000
1000
,
0001
0010
0100
1000
,
1001
0000
0000
0010
0000
0100
0000
0220
,
0000
0330
1000
0001
,
2000
0010
3002
0100
,
2003
3200
0320
0032
,
2003
0100
3002
0010
,
2003
3020
0230
0302
,
1003
0000
0100
0010
0000
0001
1000
0000
,
0010
0100
0000
0110
0000
0001
1000
0000
,
0001
0000
0010
0100
0000
1000
0001
0000
,
0100
0010
0000
0110
0000
0000
0000
0000
;

//---------------dance-double - ----------------
#NOTES:
     dance-double:
     :
     Medium:
     10:
     0.444007,0.456756,0.187735,0.385899,0.000000,298.000000,280.000000,18.000000,37.000000,0.000000,0.000000,0.444007,0.456756,0.187735,0.385899,0.000000,298.000000,280.000000,18.000000,37.000000,0.000000,0.000000:
00000000
00000000
00000000
00000000
,
00000000
00000000
00000000
00000000
,
00000000
00000000
00000000
00000000
,
00100000
00010000
00100000
00000000
01000000
00000000
00010000
00000000
,
00001000
00000000
00000100
00000000
00000010
00001000
00000010
00000000
,
00000100
00000000
00000000
00000000
00000001
00000010
00000000
00000200
,
00000000
00000000
00000300
00000010
00000001
00000000
00001001
00000000
,
00000001
00000100
00000001
00000000
00000100
00000000
00000010
00000000
,
00010000
00000000
00001000
00000000
00100000
01000000
10000000
00000000
,
00010000
00000000
01000000
00100000
00000000
00100000
00000000
20020000
,
00000000
30030000
01000000
00200000
00000000
01300000
00100000
00000000
,
20000000
01000000
30020000
00100000
,
20030000
30100000
00020000
00031000
,
00000020
00000100
00000032
00000100
,
00002003
00003100
00000020
00000031
,
00000100
00000000
00001000
00010000
00000000
01000000
00010000
00000000
,
00001000
00010000
00000000
00011000
00000000
00000000
00000000
00000000
,
00001000
00000000
00100000
00000000
00001000
00000000
00000000
00010000
,
00000000
00010000
00100000
00000000
10100000
00000000
00010000
00000000
,
00100000
00000000
00100000
00000000
01000000
00000000
00000000
10000000
,
00000000
00100000
01000000
00100000
00000000
10010000
00000000
00000000
,
01000000
00000000
00100000
00000000
01000000
00000000
00000000
00010000
,
00000000
00010000
00001000
00000000
00000100
00000001
00000100
00000000
,
00000010
00000010
00001000
00001000
,
00000100
00000000
00000100
00000000
00010000
00001000
00000000
00011000
,
00000000
00100000
00010000
01000000
00000000
00200000
00000000
00000000
,
00010000
00010000
01000000
10300000
,
01000000
00000000
00110000
00000000
10000000
01000000
10000000
00000000
,
00200000
00310000
00002000
00013000
,
00100000
00000000
01010000
00000000
10000000
00100000
10000000
00000000
,
02000000
03010000
00002000
00013000
,
00000010
00000000
00001000
00000100
00000000
00000010
00000002
00000000
,
00000100
00000000
00000103
00000000
00000010
00001000
00000001
00000000
,
00000010
00000000
00001000
00010000
00000000
00100000
00010000
00000000
,
00001000
00010000
00000000
01000000
00010000
00000000
00011000
00000000
,
00000010
00001000
00000010
00000000
00000100
00000000
00001000
00000000
,
00010000
00000000
01000000
00000000
00100000
00010000
00100000
00000000
,
01000000
00000000
00000000
00000000
10000000
00100000
00000000
02000000
,
00000000
00000000
03000000
00100000
10000000
00000000
10010000
00000000
,
10000000
01000000
10000000
00000000
01000000
00000000
00100000
00000000
,
00001000
00000000
00010000
00000000
00000010
00000100
00000001
00000000
,
00001000
00000000
00000100
00000010
00000000
00000100
00000000
00002002
,
00000000
00000000
00003003
00000100
00000010
00000000
00001001
00000000
,
00000010
00001000
00000010
00000000
00000100
00000000
00001000
00000000
,
00010000
00000000
01000000
00000000
00100000
00010000
00100000
00010000
,
10000000
00000000
00100000
00000000
00010000
00001000
00000000
00000200
,
00000000
00000302
00000000
00000023
00000000
00000000
00000031
00000000
,
00000001
00000100
00000001
00000000
00000100
00000000
00000010
00000000
,
00010000
00000000
00001000
00000000
00100000
01000000
10000000
00000000
,
00010000
00000000
01000000
00100000
00000000
01000000
00000000
20020000
,
00000000
00000000
30030000
00100000
00000000
01000000
00100000
00000000
,
10000000
01000000
00100000
00000000
20020000
00000000
30030000
00000000
,
01100000
00010000
10000000
01000000
,
00010000
00001000
00000100
00000001
,
00001000
00000010
00000100
00000010
,
00001000
00000100
00000010
00000001
,
00001000
00001000
00000010
00000010
,
00010000
00001000
00100000
00010000
,
11000000
00000000
00000000
00010000
00000000
00100000
00000000
00020000
,
00000000
00030000
01000000
00100000
,
20000000
01000000
30020000
00100000
,
20030000
30100000
00020000
00031000
,
00000020
00000100
00000032
00000100
,
00002003
00003100
00000020
00000031
,
00001000
00000000
00000010
00000100
00000000
00001000
00010000
00000000
,
00100000
01000000
00000000
01100000
00000000
00010000
10000000
00000000
,
01000000
00000000
00010000
00001000
00000000
00000100
00001000
00000000
,
00010000
00001000
00000000
00011000
00000000
00000000
00000000
00000000
;
