#TITLE:HOLD IT DOWN;
#SUBTITLE:(Kotoka Solo Version);
#ARTIST:XSOLEIL;
#TITLETRANSLIT:;
#SUBTITLETRANSLIT:;
#ARTISTTRANSLIT:;
#GENRE:にじさんじ;
#CREDIT:;
#BANNER:HOLD IT DOWN (Kotoka Solo Version).png;
#BACKGROUND:../bg.png;
#LYRICSPATH:;
#CDTITLE:../cdtitle.png;
#MUSIC:HOLD IT DOWN (Kotoka Solo Version).ogg;
#OFFSET:1.410000;
#SAMPLESTART:15.298000;
#SAMPLELENGTH:15.000000;
#LASTBEATHINT:1.079667;
#SELECTABLE:YES;
#BPMS:0.000000=158.000000
;
#STOPS:
;
#BGCHANGES:4.000=HOLD IT DOWN (Kotoka Solo Version).avi=1.000=0=0=0=StretchNoLoop====,
99999=-nosongbg-=1.000=0=0=0 // don't automatically add -songbackground-
;
#KEYSOUNDS:;
#ATTACKS:;

//---------------dance-single - ----------------
#NOTES:
     dance-single:
     :
     Beginner:
     2:
     0.069800,0.157386,0.037585,0.028189,0.000000,52.000000,48.000000,4.000000,3.000000,0.000000,0.000000,0.069800,0.157386,0.037585,0.028189,0.000000,52.000000,48.000000,4.000000,3.000000,0.000000,0.000000:
0000
0000
0000
0000
,
0000
0000
0000
0000
,
0000
0000
0000
0000
,
0000
0000
0000
0000
,
0000
0000
0000
0000
,
0000
0000
0000
0000
,
0000
0000
0000
0000
,
0000
0000
0000
0000
,
0000
0000
0000
0000
,
0000
0000
0000
0000
,
0000
0000
0000
0000
,
0001
0000
0000
0000
,
0000
0000
0000
0000
,
0001
0000
0000
0000
,
0000
0000
0000
0000
,
1000
0000
0000
0000
,
0000
0000
0000
0000
,
1000
0000
0000
0000
,
0000
0000
0000
0000
,
0010
0000
0000
0000
,
0000
0000
0000
0000
,
0010
0000
0000
0000
,
0000
0000
0000
0000
,
0100
0000
0000
0000
,
0000
0000
0000
0000
,
0100
0000
0000
0000
,
0000
0000
0000
0000
,
0002
0000
0000
0000
,
0000
0000
0000
0000
,
0003
0000
0000
0000
,
0000
0000
0000
0000
,
2000
0000
0000
0000
,
0000
0000
0000
0000
,
3000
0000
0000
0000
,
0000
0000
0000
0000
,
0100
0000
0000
0000
,
0100
0000
0000
0000
,
1000
0000
0000
0000
,
1000
0000
0000
0000
,
0010
0000
0010
0000
,
0010
0000
0000
0000
,
0001
0000
0002
0000
,
0003
0000
0000
0000
,
1001
0000
0000
0000
,
0100
0000
0000
0000
,
1001
0000
0000
0000
,
0010
0000
0000
0000
,
1000
0000
0001
0000
,
1000
0000
0000
0000
,
0001
0000
1000
0000
,
0001
0000
0000
0000
,
0100
0000
0100
0000
,
0100
0000
0000
0000
,
1000
0000
1000
0000
,
0001
0000
0000
0000
,
0010
0000
0010
0000
,
0010
0000
0000
0000
,
1000
0000
1000
0000
,
0001
0000
0000
0000
,
1001
0000
0000
0000
,
0000
0000
0000
0000
,
0100
0000
0000
0000
,
0000
0000
0000
0000
,
0010
0000
0000
0000
,
0100
0000
0000
0000
,
0001
0000
0000
0000
,
1000
0000
0000
0000
,
1001
0000
0000
0000
;

//---------------dance-single - ----------------
#NOTES:
     dance-single:
     :
     Easy:
     5:
     0.234905,0.322113,0.122151,0.084566,0.000000,175.000000,162.000000,13.000000,9.000000,0.000000,0.000000,0.234905,0.322113,0.122151,0.084566,0.000000,175.000000,162.000000,13.000000,9.000000,0.000000,0.000000:
0000
0000
0000
0000
,
0000
0000
0000
0000
,
0000
0000
0000
0000
,
0000
0000
0000
0000
,
0000
0000
0000
0000
,
0000
0000
0000
0000
,
0000
0000
0000
0000
,
1001
0000
0100
0100
,
0001
0000
0010
0010
,
0110
0000
0100
0100
,
1000
0000
0000
0000
,
0011
0000
1000
1000
,
0100
0000
0010
0010
,
0100
0000
1000
1000
,
1000
0000
0001
0001
,
0001
0000
0010
1000
,
0100
1000
0010
0011
,
0000
1000
0000
0001
,
0100
0100
0100
0000
,
1001
0010
0100
0100
,
0000
1000
0001
0001
,
0000
0010
1000
0010
,
0001
0100
0010
0010
,
1000
1100
0000
1000
,
0010
0000
1000
0100
,
0010
0011
0000
1000
,
0001
0001
1000
0000
,
0020
0000
0000
0000
,
0000
0000
0030
0000
,
0200
0000
0000
0000
,
0000
0000
0300
0000
,
0002
0000
0000
0000
,
0000
0000
0003
0000
,
2000
0000
0000
0000
,
0000
0000
3000
0000
,
0001
0000
0001
0000
,
0100
0000
0100
0000
,
0010
0000
0010
0000
,
1000
0000
1000
0000
,
0001
0100
0001
0100
,
0010
1000
0010
1000
,
0100
0001
0100
1000
,
0000
0000
0000
0000
,
0110
0100
0100
0000
,
1000
0100
0001
0000
,
0110
0010
0010
0000
,
0001
0010
1000
0000
,
0010
1000
0100
1000
,
0010
0100
0001
1001
,
0000
1000
0100
0010
,
0000
0001
0100
0010
,
1000
1000
0001
0001
,
0100
0010
0100
0010
,
1000
1000
0001
0001
,
0010
1000
0010
0001
,
1000
1000
0100
0100
,
0001
0100
1000
0001
,
1000
1000
0001
0100
,
0020
0000
0000
0030
,
2001
0000
0100
0000
,
0000
0000
0100
3000
,
0002
0000
0013
0000
,
1000
1000
1100
0000
,
0001
1000
0010
0000
,
0100
0001
0010
0000
,
0100
0100
0001
0000
,
0100
0100
2000
0000
,
3001
0000
0110
0000
,
2000
0000
0000
0000
0000
0000
0000
0000
0000
3000
0000
0000
0000
0000
0000
0000
;

//---------------dance-single - ----------------
#NOTES:
     dance-single:
     :
     Medium:
     8:
     0.326182,0.450959,0.178528,0.197320,0.004698,243.000000,224.000000,19.000000,21.000000,0.000000,0.000000,0.326182,0.450959,0.178528,0.197320,0.004698,243.000000,224.000000,19.000000,21.000000,0.000000,0.000000:
0000
0000
0000
0000
,
0000
0000
0000
0000
,
0000
0000
0000
0000
,
0000
0000
0000
0000
,
0000
0000
0000
0000
,
0000
0000
0000
0000
,
0000
0000
0000
0000
,
1100
0000
0000
0000
0001
0001
0010
0000
,
0100
0000
1000
1000
0010
0000
0100
0000
,
0110
0000
0000
0000
0010
0010
0100
0000
,
0001
0000
0000
0000
,
1100
0000
0000
0000
0001
0000
1000
0100
,
0001
0000
0000
0000
1000
0000
0001
0100
,
1000
0000
0000
0000
0001
0000
0001
0100
,
1000
0000
0000
0000
0001
0000
0001
0010
,
1000
0000
0000
0001
0010
0100
0010
0000
,
0001
0010
0001
0000
1000
0000
0100
0000
,
0000
0010
0001
0000
0000
0001
1000
0000
,
0100
1000
0020
0000
0030
0000
0000
0000
,
1010
0000
1000
0100
0001
0000
0001
0000
,
0000
0000
0100
0000
1000
0100
0001
0000
,
0000
0000
0100
0000
1000
0010
1000
0000
,
0001
0001
0100
0100
,
0001
0000
1100
0000
0000
0000
0001
0100
,
0001
0010
0100
0100
,
1000
0000
1001
0000
0000
0000
0001
1000
,
0100
0010
0002
1003
,
2001
0000
0100
0000
,
0000
0000
0100
0000
,
3002
0000
0010
0000
,
0000
0000
0010
0000
,
0203
0000
1000
0000
,
0000
0000
1000
0000
,
0320
0000
1000
0000
,
0000
0000
1000
0000
,
0130
0000
0101
0000
,
0010
0001
0011
0000
,
0100
0000
1100
0000
,
0010
1000
1010
0000
,
0001
0000
0001
0010
0001
0000
1000
0100
,
1000
1000
0010
1000
,
0001
0100
0001
0000
1000
0100
1000
0100
,
0000
0000
0000
0000
,
1001
0100
0200
0300
,
0010
0100
0001
0000
0100
0000
1000
0000
,
0110
0001
0002
0003
,
1000
0001
0010
0000
0001
0000
0100
0000
,
0010
1000
0010
0000
0100
0000
0001
0000
,
1000
1100
0010
0022
,
0033
1000
0100
2000
,
3000
0000
0001
0100
0001
0000
1000
0000
,
0000
0001
0010
0000
0000
0010
0100
0000
,
0000
1000
0001
0000
1000
0000
0100
0000
,
0000
1000
0010
0000
0100
0000
0100
0000
,
0001
0010
0001
0000
0010
0000
0200
0000
,
0300
1000
0100
0000
0000
0100
0010
0000
,
0000
0001
1000
0000
0001
0000
0010
0000
,
0100
1000
0100
0000
0010
0001
1000
0000
,
0010
0000
0010
0000
0100
0001
1000
0000
,
2100
0000
0001
0000
,
3000
1000
0010
0000
0110
0000
1000
0000
,
0002
0000
0010
0003
,
0000
0001
0100
0000
0110
0000
0001
0000
,
2000
0100
3002
0010
,
2003
3200
0320
0032
,
1003
0100
1000
0000
0001
0010
0001
0000
,
1000
0010
0100
0001
1000
0100
0010
0000
,
0001
0000
1100
0000
,
0020
0000
0000
0000
0000
0000
0000
0000
0000
0130
0000
0000
0000
0000
0000
0000
;

//---------------dance-single - ----------------
#NOTES:
     dance-single:
     :
     Hard:
     12:
     0.476522,0.547593,0.178528,0.338263,0.065773,355.000000,336.000000,19.000000,36.000000,0.000000,0.000000,0.476522,0.547593,0.178528,0.338263,0.065773,355.000000,336.000000,19.000000,36.000000,0.000000,0.000000:
0000
0000
0000
0000
,
0000
0000
0000
0000
,
0000
0000
0000
0000
,
0000
0000
0000
0000
,
0000
0000
0000
0000
,
0000
0000
0000
0000
,
0000
0000
0000
0000
,
1100
0000
0000
0000
0000
0000
1000
0000
1000
0100
0000
0100
,
0010
0000
0000
0001
0000
0100
0010
0000
1000
0001
0000
0000
,
0101
0000
0000
0000
0000
0000
0001
0000
0001
0010
0000
0010
,
0100
0000
0000
0000
,
0110
0000
0000
0000
0000
0000
0000
0000
0010
0000
0000
0010
0000
0000
0001
0000
,
0100
0000
0000
0000
0000
0000
0000
0000
1000
0000
0000
1000
0000
0000
0010
0000
,
1010
0000
0000
0000
0000
0000
0001
0000
0100
0000
0000
0100
0000
0000
0010
0000
,
1000
0000
0000
0000
0000
0000
0001
0000
0010
0000
0000
0010
0000
0000
0100
0000
,
1100
0000
0000
0001
1000
0100
1000
0100
,
0010
0001
1000
0100
0010
0000
0011
0000
,
0000
1000
0100
1000
0000
0001
0100
0001
,
1000
0010
0020
0000
0030
0000
0000
0000
,
1100
0000
0001
1000
0100
1000
0001
0000
,
0000
0000
1000
0100
0001
0100
1000
0000
,
0000
0000
0001
1000
0001
0001
0100
0100
,
0010
1000
0001
0001
0100
0001
1000
0000
,
0100
0000
0110
0000
0000
0010
0001
1000
,
0100
0000
1000
0001
0100
0010
1000
0001
,
0100
0000
0110
0000
0000
0010
0100
0001
,
1000
0100
1000
0001
0010
0100
1000
0000
,
0002
0203
2300
3200
,
0302
0000
2003
0000
3010
0000
0100
0002
,
0000
2000
0000
0000
,
3003
0000
0001
0001
,
2000
3200
0302
0203
,
2300
0000
3002
0000
0013
0000
0100
2000
,
0000
0000
0002
0000
3003
1000
0100
0000
,
2000
0000
0020
3030
,
0100
0001
0100
0000
0010
1000
0010
0000
,
1000
0100
1000
0100
0020
0000
0030
0000
,
0100
1000
0100
0000
0010
0001
0010
0000
,
0001
0100
0001
0100
0020
0000
1030
0001
,
0100
0010
0100
0000
0001
0010
0001
0000
,
1000
0100
1000
0000
0001
0100
0001
0000
,
0100
0010
0100
0010
1000
0001
1000
0001
,
0010
0000
0000
0000
,
1200
0000
0301
0000
0201
0000
1300
0001
,
0100
0010
0100
0010
0001
0010
0100
0001
,
0201
0000
1300
0000
1200
0000
0301
1000
,
0100
0010
0100
0010
1000
0010
0100
1000
,
0001
0001
0010
0100
0010
0000
0001
0100
,
1000
1100
0001
0101
,
1000
0000
0001
1000
0100
1000
0002
0000
,
0013
0000
1000
0010
0001
0001
0010
0100
,
1000
0010
0100
0010
1000
0100
0010
0100
,
1000
0010
1000
0010
0001
0010
2000
0000
,
3001
0100
0010
0100
0001
0010
0100
0010
,
0001
1000
0001
1000
0100
0010
0002
0000
,
1003
0100
0010
0100
1000
0010
0100
0010
,
1000
0100
1000
0100
0001
0100
2000
0000
,
3010
0010
0010
0010
0100
0100
1000
0100
,
0010
0010
1000
1000
0001
0001
0100
0000
,
2001
0100
0100
0002
,
3003
1000
0100
0000
0011
0000
1000
0000
,
0002
0100
1003
0200
,
1300
0010
0010
0000
1010
0000
0001
0000
,
0100
0001
0020
0000
0230
0000
0320
0000
,
0031
1000
0001
0000
1000
0100
1000
0000
,
0001
0100
0001
0100
0010
1000
0010
1000
,
0001
0010
0100
1000
0100
0010
0001
0000
,
1000
0000
0000
1100
0000
0000
0000
0000
0010
0000
0001
0100
0000
0000
0000
0000
,
0001
0000
0000
0000
0000
0000
0000
0000
0000
1000
0000
0000
0000
0000
0000
0000
0000
0000
0100
0000
0000
0000
0000
0000
0000
0000
0000
0000
0000
0000
0000
0000
;

//---------------dance-single - ----------------
#NOTES:
     dance-single:
     :
     Challenge:
     14:
     0.563772,0.676438,0.187924,0.394640,0.324169,420.000000,400.000000,20.000000,42.000000,96.000000,0.000000,0.563772,0.676438,0.187924,0.394640,0.324169,420.000000,400.000000,20.000000,42.000000,96.000000,0.000000:
0000
0000
0000
0000
,
0000
0000
0000
0000
,
0000
0000
0000
0000
,
0000
0000
0000
0000
,
0000
0000
0000
0000
,
0000
0000
0000
0000
,
0000
0000
0000
0000
,
0011
0000
0000
0000
0000
0000
1000
0100
1000
0100
0001
0100
,
1000
0000
0000
0001
0100
0010
0100
0010
1000
0001
0000
0000
,
0101
0000
0000
0000
0000
0000
0001
0010
0001
0010
0100
1000
,
MMMM
0000
MMMM
MMMM
,
0220
0000
0330
0000
MMMM
0000
0000
0000
1000
0000
0000
0100
0000
0010
0001
0000
,
1000
0000
0100
0000
0100
0000
0000
0000
0101
0100
0000
0100
0000
0010
0001
0000
,
1000
0000
0100
0000
MMMM
0000
0100
0000
1000
0000
0001
0100
0000
0100
0010
0000
,
0011
0000
0000
0000
MMMM
0000
0001
0000
0100
0000
0010
1000
0000
1000
0001
0000
,
1001
0000
0000
0000
MMMM
0000
0001
0010
0100
0000
1000
0000
0100
0000
1000
0000
,
0001
0000
0010
0000
0100
1000
0100
0000
1000
0000
0000
0000
1010
0000
0000
0000
,
MMMM
0001
0100
0001
MMMM
0100
1000
0100
,
1000
0010
0020
0030
MMMM
0000
0000
0000
,
0110
0000
0000
0000
0100
0000
0001
0000
0001
0000
0001
0000
0010
0000
0000
0100
0000
0000
1000
0000
0000
0000
0000
0000
,
MMMM
0000
0000
0000
1000
0100
0000
0010
0000
0001
0100
0000
0010
0000
0000
0000
,
0110
0000
0000
1000
0010
1000
0001
0010
0001
1000
0100
0010
,
0002
0000
0000
0003
1000
0000
0100
0000
1000
0000
0001
0000
0100
0000
0010
0000
1000
0000
0002
0000
0000
0000
0000
0000
,
0013
0000
0000
0000
0010
0000
0100
0000
0000
0000
0000
0000
MMMM
0000
0000
0100
0000
0000
1000
0000
0100
0000
0010
0000
,
0001
0000
0000
0010
0000
0010
0001
0000
0001
1000
0000
1000
,
0010
0000
0110
0000
MMMM
0001
1000
0100
,
0010
0001
0010
0100
0010
0001
1000
0000
,
0002
2003
3200
2300
,
3020
0000
0032
0000
0203
0000
1300
0100
,
0000
0010
0002
0000
1000
0000
0003
0000
,
MMMM
0000
0000
0000
0002
0003
0002
0003
,
2000
3002
0023
0032
,
0203
0000
2300
0000
3020
0000
0031
0010
,
0000
0100
2000
0000
3000
0001
0100
0000
,
0020
0000
2000
3030
,
0100
1000
0100
1000
0010
1000
0010
1000
,
0100
0010
0100
1000
0002
0000
0103
0000
,
0010
0000
0001
0010
0001
0000
0010
0000
0100
0000
0001
0000
0100
0000
0001
0000
,
0010
0100
0010
0100
2000
0000
3001
0010
,
1000
1000
0100
1000
0010
0010
0001
1000
,
0010
0010
0001
0001
0010
0001
0010
1000
,
0100
0100
0100
0100
0010
0010
0010
0010
,
MMMM
0000
0000
0000
0000
0000
1000
0001
,
1002
0000
0103
0000
2001
0000
3100
1000
,
0010
0000
0100
0000
0010
0000
0100
0000
0001
0000
0010
0000
0100
1000
0001
0000
,
2001
0000
3100
0000
1002
0000
0103
0001
,
0010
0000
0100
0000
0010
0000
0100
0000
1000
0010
0100
0000
0001
0000
1000
0000
,
0001
0000
0000
0000
0100
0000
0000
0000
0010
0000
0000
0000
1000
0000
0000
0000
0000
0000
0001
0000
0000
0010
0000
0000
0001
0000
0000
0000
0000
0000
0000
0000
0000
0000
0000
0000
1000
0000
0000
0000
0000
0000
0100
0000
0000
0000
0000
0000
,
0020
0000
0130
0000
0002
0000
0103
0000
0020
0000
0130
0000
1000
0001
1000
0000
,
0001
0000
0100
0010
1000
0001
0200
0000
,
0301
0000
0000
0000
0010
0100
0010
0000
0100
0000
1000
0000
0001
0000
0010
0000
,
MMMM
0000
1000
0010
0100
0000
0001
0000
MMMM
0000
0001
0100
0010
0000
1000
0000
,
MMMM
0010
0100
0010
0100
0010
0002
0003
,
MMMM
0001
1000
0100
1000
0001
0010
0001
,
0100
0000
0010
0000
1000
0000
1000
0000
0001
0000
0100
0000
0010
1000
0010
0000
,
MMMM
0000
0001
0010
0100
0000
1000
0000
MMMM
0000
1000
0100
0010
0000
0001
0000
,
MMMM
0010
0100
0010
0100
0010
2000
0000
,
3100
0000
0100
0000
0100
0000
0100
0000
0010
0100
0010
0000
0100
0000
0010
0000
,
0001
0001
0100
0100
0001
0010
0100
1000
,
2001
0100
0001
3020
,
0130
0010
0010
0000
1010
0000
0001
0010
,
0012
1000
0013
1100
,
1000
0000
0001
0000
0011
0000
0000
0000
0001
0000
1000
0000
0100
0010
0100
0000
,
MMMM
0000
0001
0010
0001
0100
0010
1000
,
0100
0100
0010
0010
0100
1000
0002
0000
,
0103
0001
0100
0001
0010
0100
0010
0100
,
1000
0000
1000
0000
0100
0000
0010
0000
0001
0100
0001
0100
0010
1000
0010
1000
,
0001
0000
0000
0011
0000
0000
0000
0000
0100
0000
1000
0001
0000
0000
0000
0000
,
0200
0000
0000
0000
0000
0000
0000
0000
0000
0310
0000
0000
0000
0000
0000
0000
0000
0000
MMMM
0000
0000
0000
0000
0000
0000
0000
0000
0000
0000
0000
0000
0000
;

//---------------dance-double - ----------------
#NOTES:
     dance-double:
     :
     Easy:
     5:
     0.229536,0.322113,0.140943,0.122151,0.000000,171.000000,156.000000,15.000000,13.000000,0.000000,0.000000,0.229536,0.322113,0.140943,0.122151,0.000000,171.000000,156.000000,15.000000,13.000000,0.000000,0.000000:
// measure 0
00000000
00000000
00000000
00000000
,  // measure 1
00000000
00000000
00000000
00000000
,  // measure 2
00000000
00000000
00000000
00000000
,  // measure 3
00000000
00000000
00000000
00000000
,  // measure 4
00000000
00000000
00000000
00000000
,  // measure 5
00000000
00000000
00000000
00000000
,  // measure 6
00000000
00000000
00000000
00000000
,  // measure 7
11000000
00000000
01000000
01000000
,  // measure 8
00010000
00000000
00001000
00001000
,  // measure 9
00001100
00000000
00001000
00001000
,  // measure 10
00000010
00000000
00000000
00000000
,  // measure 11
00000110
00000000
00001000
00000100
,  // measure 12
00001000
00000000
00000010
00000100
,  // measure 13
00000100
00000000
00001000
00001000
,  // measure 14
00010000
00000000
01000000
01000000
,  // measure 15
10000000
00000000
00010000
01000000
,  // measure 16
00100000
10000000
00010000
01010000
,  // measure 17
00000000
00100000
00000000
00010000
,  // measure 18
00001000
00020000
00030000
00000000
,  // measure 19
00011000
00000100
00010000
00010000
,  // measure 20
00000000
01000000
00001000
00001000
,  // measure 21
00000000
00010000
00001000
00001000
,  // measure 22
00010000
00000100
00000010
00000010
,  // measure 23
00000001
00001001
00000000
00000001
,  // measure 24
00000100
00000000
00000010
00001000
,  // measure 25
00000100
00011000
00000000
00001000
,  // measure 26
01000000
00001000
00010000
00000000
,  // measure 27
00002000
00000000
00000000
00000000
,  // measure 28
00000000
00000000
00003000
00000000
,  // measure 29
00200000
00000000
00000000
00000000
,  // measure 30
00000000
00000000
00300000
00000000
,  // measure 31
02000000
00000000
00000000
00000000
,  // measure 32
00000000
00000000
03000000
00000000
,  // measure 33
20000000
00000000
00000000
00000000
,  // measure 34
00000000
00000000
30000000
00000000
,  // measure 35
00010000
00000000
00010000
00000000
,  // measure 36
00100000
00000000
00100000
00000000
,  // measure 37
00001000
00000000
00001000
00000000
,  // measure 38
00000100
00000000
00000100
00000000
,  // measure 39
00000001
00000010
00000001
00000010
,  // measure 40
00001000
00010000
00001000
00010000
,  // measure 41
01000000
01000000
10000000
10000000
,  // measure 42
00000000
00000000
00000000
00000000
,  // measure 43
10010000
01000000
01000000
00000000
,  // measure 44
00010000
00001000
00000100
00000000
,  // measure 45
00001001
00000010
00000010
00000000
,  // measure 46
00001000
00010000
00100000
00000000
,  // measure 47
10000000
10000000
01000000
00000000
,  // measure 48
00100000
00010000
00100000
00002000
,  // measure 49
00003000
00001000
01000000
00002000
,  // measure 50
00003000
00010000
00000100
00010000
,  // measure 51
00000010
00000010
00001000
00001000
,  // measure 52
00000100
00000010
00000001
00001001
,  // measure 53
00000000
00000010
00001000
00001000
,  // measure 54
00000100
00010000
00001000
00011000
,  // measure 55
00000000
00001000
00010000
00010000
,  // measure 56
01000000
10000000
00010000
10010000
,  // measure 57
01000000
01000000
00010000
00001000
,  // measure 58
00020000
00000000
00000000
00030000
,  // measure 59
00021000
00000000
00000100
00000000
,  // measure 60
00000000
00000000
00000100
00030000
,  // measure 61
00000020
00000000
00000100
00000000
,  // measure 62
00000030
00000000
00000110
00000000
,  // measure 63
00000002
00000000
00000013
00000000
,  // measure 64
00000100
00000100
00000010
00000000
,  // measure 65
00001000
00001000
00010000
00010000
,  // measure 66
00001000
01000000
00200000
00000000
,  // measure 67
10300000
00000000
00110000
00000000
,  // measure 68
00002000
00000000
00000000
00000000
00000000
00000000
00000000
00000000
00000000
00003000
00000000
00000000
00000000
00000000
00000000
00000000
;

//---------------dance-double - ----------------
#NOTES:
     dance-double:
     :
     Medium:
     8:
     0.327525,0.450959,0.197320,0.178528,0.004698,244.000000,223.000000,21.000000,19.000000,0.000000,0.000000,0.327525,0.450959,0.197320,0.178528,0.004698,244.000000,223.000000,21.000000,19.000000,0.000000,0.000000:
// measure 0
00000000
00000000
00000000
00000000
,  // measure 1
00000000
00000000
00000000
00000000
,  // measure 2
00000000
00000000
00000000
00000000
,  // measure 3
00000000
00000000
00000000
00000000
,  // measure 4
00000000
00000000
00000000
00000000
,  // measure 5
00000000
00000000
00000000
00000000
,  // measure 6
00000000
00000000
00000000
00000000
,  // measure 7
10010000
00000000
00000000
00000000
10000000
00100000
00010000
00000000
,  // measure 8
00001000
00000000
00010000
00001000
00000100
00000000
00000001
00000000
,  // measure 9
00001001
00000000
00000000
00000000
00000001
00000010
00001000
00000000
,  // measure 10
00010000
00000000
00000000
00000000
,  // measure 11
10010000
00000000
00000000
00000000
00010000
00000000
01000000
00100000
,  // measure 12
10000000
00000000
00000000
00000000
01000000
00000000
00100000
00001000
,  // measure 13
00010000
00000000
00000000
00000000
00000100
00000000
00000010
00000001
,  // measure 14
00001000
00000000
00000000
00000000
00000100
00000000
00010000
00001000
,  // measure 15
00010000
00000000
00000000
00000100
00001000
00000100
00001000
00000000
,  // measure 16
00000001
00000010
00000001
00000000
00001000
00000000
00000010
00000000
,  // measure 17
00000000
00000100
00000010
00000000
00000000
00001000
00000001
00000000
,  // measure 18
00000000
00000010
00002000
00000000
00003000
00000000
00000000
00000000
,  // measure 19
00011000
00000000
00001000
00000000
00100000
00010000
10000000
00000000
,  // measure 20
00000000
00000000
10000000
00000000
01000000
00100000
00010000
00000000
,  // measure 21
00000000
00000000
00100000
00000000
00100000
01000000
00100000
00000000
,  // measure 22
00002000
00003000
00010000
00010000
,  // measure 23
00000100
00000000
00000110
00000000
00000000
00000000
00000001
00001000
,  // measure 24
00000001
00000010
00001000
00000100
,  // measure 25
00000001
00001001
00000000
00000001
,  // measure 26
00000100
00001000
00000100
00000000
00000001
00000000
00001000
00000000
,  // measure 27
00001020
00000000
00000100
00000000
,  // measure 28
00000000
00000000
00000100
00000000
,  // measure 29
00020030
00000000
00000100
00000000
,  // measure 30
00000000
00000000
00000100
00000000
,  // measure 31
00032000
00000000
01000000
00000000
,  // measure 32
00000000
00000000
01000000
00000000
,  // measure 33
00203000
00000000
01000000
00000000
,  // measure 34
00000000
00000000
01000000
00000000
,  // measure 35
00310000
00000000
01010000
00000000
,  // measure 36
00001000
00010000
00010010
00000000
,  // measure 37
00001000
00000000
00001100
00000000
,  // measure 38
00010000
00001000
00101000
00000000
,  // measure 39
00010000
00000000
00010000
00100000
00010000
00000000
10000000
01000000
,  // measure 40
10000000
00100000
01000000
00010000
,  // measure 41
01000000
00100000
01000000
00000000
00001000
00010000
00001000
00010000
,  // measure 42
00000000
00000000
00000000
00000000
,  // measure 43
00011000
00000100
00000200
00000300
,  // measure 44
00001000
00000001
00000100
00000000
00001000
00000000
00001000
00000000
,  // measure 45
00011000
01000000
02000000
03000000
,  // measure 46
00010000
10000000
01000000
00000000
00010000
00000000
01100000
00000000
,  // measure 47
00010000
00100000
00010000
00000000
10000000
00000000
00100000
00000000
,  // measure 48
01000000
01010000
00001000
00022000
,  // measure 49
00033000
00100000
00010000
00200000
,  // measure 50
00300000
00000000
00001000
00010000
00001000
00000000
00010000
00000000
,  // measure 51
00000000
00000100
00001000
00000000
00000000
00001000
00000001
00000000
,  // measure 52
00000000
00000100
00000010
00000000
00001000
00000000
00000001
00000000
,  // measure 53
00000000
00001000
00000010
00000000
00000100
00000000
00000100
00000000
,  // measure 54
00001000
00010000
00001000
00000000
00010000
00000000
00002000
00000000
,  // measure 55
00003000
01000000
00010000
00000000
00000000
00010000
10000000
00000000
,  // measure 56
00000000
01000000
00100000
00000000
00010000
00000000
10000000
00000000
,  // measure 57
01000000
00100000
01000000
00000000
00010000
00001000
00010000
00000000
,  // measure 58
00001000
00000000
00001000
00000000
00000010
00000100
00000010
00000000
,  // measure 59
00002001
00000000
00000010
00000000
,  // measure 60
00003100
00010000
00001000
00000000
00011000
00000000
00010000
00000000
,  // measure 61
10020000
00000000
00100000
00030000
,  // measure 62
00000000
01000000
00001000
00000000
00011000
00000000
00001000
00000000
,  // measure 63
00020000
00032000
00003020
00000032
,  // measure 64
00001003
00001000
00000001
00000001
,  // measure 65
00001000
00000100
00001000
00000000
00000010
00000100
00000010
00000000
,  // measure 66
00001000
00000100
00000010
00000001
00000010
00000100
00001000
00000000
,  // measure 67
00010000
00000000
01100000
00000000
,  // measure 68
20000000
00000000
00000000
00000000
00000000
00000000
00000000
00000000
00000000
30010000
00000000
00000000
00000000
00000000
00000000
00000000
;

//---------------dance-double - ----------------
#NOTES:
     dance-double:
     :
     Hard:
     12:
     0.477864,0.547593,0.197320,0.347659,0.065773,356.000000,335.000000,21.000000,37.000000,0.000000,0.000000,0.477864,0.547593,0.197320,0.347659,0.065773,356.000000,335.000000,21.000000,37.000000,0.000000,0.000000:
00000000
00000000
00000000
00000000
,
00000000
00000000
00000000
00000000
,
00000000
00000000
00000000
00000000
,
00000000
00000000
00000000
00000000
,
00000000
00000000
00000000
00000000
,
00000000
00000000
00000000
00000000
,
00000000
00000000
00000000
00000000
,
00011000
00000000
00000000
00000000
00000000
00000000
00000100
00000000
00000100
00001000
00000000
00001000
,
00000001
00000000
00000000
00000100
00000000
00000100
00000010
00000000
00000010
00010000
00000000
00000000
,
00011000
00000000
00000000
00000000
00000000
00000000
01000000
00000000
01000000
10000000
00000000
10000000
,
00010000
00000000
00000000
00000000
,
01100000
00000000
00000000
00000000
00000000
00000000
00000000
00000000
10000000
00000000
00000000
10000000
00000000
00000000
01000000
00000000
,
00010000
00000000
00000000
00000000
00000000
00000000
00000000
00000000
00001000
00000000
00000000
00001000
00000000
00000000
00010000
00000000
,
00011000
00000000
00000000
00000000
00000000
00000000
00001000
00000000
00010000
00000000
00000000
00010000
00000000
00000000
00000100
00000000
,
00000010
00000000
00000000
00000000
00000000
00000000
00000001
00000000
00001000
00000000
00000000
00001000
00000000
00000000
00000010
00000000
,
00000110
00000000
00000000
00000001
00001000
00000100
00001000
00000100
,
00010000
00001000
00100000
00010000
01000000
00000000
10100000
00000000
,
00000000
00010000
01000000
00010000
00000000
10000000
01000000
10000000
,
01000000
00100000
00020000
00000000
00030000
00000000
00000000
00000000
,
10010000
00000000
00010000
10000000
01000000
00010000
00001000
00000000
,
00000000
00000000
00010000
00001000
00000100
00000001
00001000
00000000
,
00000000
00000000
00000001
00000100
00000001
00000001
00001000
00001000
,
00000100
00010000
00001000
00001000
00010000
00000010
00001000
00000000
,
00000001
00000000
00000101
00000000
00000000
00000100
00000010
00001000
,
00000010
00000000
00010000
00001000
01000000
00010000
00100000
00001000
,
00010000
00000000
01010000
00000000
00000000
10000000
01000000
00100000
,
01000000
10000000
01000000
10000000
00010000
00100000
00001000
00000000
,
00020000
02030000
23000000
32000000
,
03020000
00000000
00032000
00000000
00003100
00000000
00000010
00002000
,
00000000
00000002
00000000
00000000
,
00003003
00000000
00000010
00000010
,
00002000
00003020
00000032
00000023
,
00002030
00000000
00023000
00000000
00130000
00000000
01000000
00020000
,
00000000
00000000
20000000
00000000
30030000
00010000
00100000
00000000
,
02000000
00000000
20000000
33000000
,
01000000
00010000
01000000
00000000
00100000
00010000
00100000
00000000
,
00001000
00010000
00001000
00010000
00000020
00000000
00000030
00000000
,
00000100
00001000
00000100
00000000
00000010
00001000
00000010
00000000
,
00010000
00001000
00010000
00001000
00200000
00000000
01300000
00100000
,
00010000
10000000
00010000
00000000
10000000
01000000
10000000
00000000
,
00100000
01000000
00100000
00000000
00010000
00001000
00010000
00000000
,
00000010
00001000
00000010
00001000
00000100
00000010
00000100
00000010
,
00000001
00000000
00000000
00000000
,
00001002
00000000
00000103
00000000
00002001
00000000
00003100
00010000
,
00001000
00010000
00001000
01000000
00001000
00010000
01000000
10000000
,
20010000
00000000
31000000
00000000
10020000
00000000
01030000
00001000
,
00010000
00001000
00010000
00000100
00010000
00001000
00000100
00000001
,
00000100
00000100
00000010
00000010
00001000
00000000
00000100
00010000
,
00001000
00011000
00000010
00001010
,
00010000
00000000
00001000
00100000
00010000
00100000
00002000
00000000
,
00013000
00000000
00000010
00001000
00000010
00000010
00010000
00001000
,
01000000
00001000
00010000
00001000
00100000
01000000
00100000
00010000
,
10000000
00100000
10000000
00100000
01000000
00001000
00020000
00000000
,
00031000
01000000
00010000
01000000
00001000
00010000
00000100
00001000
,
00000010
00001000
00000010
00000100
00000001
00000000
00002001
00000000
,
00003100
00010000
00001000
00010000
00000010
00000100
00000010
00001000
,
00000001
00000010
00000001
00000010
00000100
00010000
00002000
00000000
,
00013000
00010000
00010000
00010000
00001000
00001000
00010000
00001000
,
00010000
00010000
00001000
00001000
01000000
01000000
00100000
00000000
,
20010000
01000000
30020000
00230000
,
00301000
00010000
00010000
00000000
00011000
00000000
00000010
00000000
,
00001002
00000100
00000103
00000020
,
00010030
00001000
00001000
00000000
00011000
00000000
00001000
00000000
,
00100000
00020000
20030000
32000000
,
03100000
00010000
00100000
00000000
00001000
00010000
00001000
00000000
,
01000000
00010000
01000000
00010000
00100000
00001000
00100000
00001000
,
00010000
00000100
00000010
00000001
00000100
00001000
00010000
00000000
,
01000000
00000000
00000000
11000000
00000000
00000000
00000000
00000000
10000000
00000000
00100000
00010000
00000000
00000000
00000000
00000000
,
00001000
00000000
00000000
00000000
00000000
00000000
00000000
00000000
00000000
00000100
00000000
00000000
00000000
00000000
00000000
00000000
00000000
00000000
00000001
00000000
00000000
00000000
00000000
00000000
00000000
00000000
00000000
00000000
00000000
00000000
00000000
00000000
;

//---------------dance-double - ----------------
#NOTES:
     dance-double:
     :
     Challenge:
     14:
     0.557060,0.676438,0.178528,0.404037,0.295980,415.000000,396.000000,19.000000,43.000000,164.000000,0.000000,0.557060,0.676438,0.178528,0.404037,0.295980,415.000000,396.000000,19.000000,43.000000,164.000000,0.000000:
00000000
00000000
00000000
00000000
,
00000000
00000000
00000000
00000000
,
00000000
00000000
00000000
00000000
,
00000000
00000000
00000000
00000000
,
00000000
00000000
00000000
00000000
,
00000000
00000000
00000000
00000000
,
00000000
00000000
00000000
00000000
,
00110000
00000000
00000000
00000000
00000000
00000000
00010000
10000000
01000000
00100000
00010000
00100000
,
00001000
00000000
00000000
00010000
00000100
00001000
00000010
00001000
00000001
00000100
00000000
00000000
,
00000110
00000000
00000000
00000000
00000000
00000000
00001000
00000100
00001000
00000100
00010000
00001000
,
MMMMMMMM
00000000
MMMMMMMM
MMMMMMMM
,
02200000
00000000
03300000
00000000
MMMMMMMM
00000000
00000000
00000000
10000000
00000000
00000000
01000000
00000000
00100000
00010000
00000000
,
10000000
00000000
00000000
00000000
MMMMMMMM
00000000
00000000
00000000
01000000
01000000
00000000
01000000
00000000
00001000
00010000
00000000
,
00000010
00000000
00001000
00000000
MMMMMMMM
00000000
00010000
00000000
00001000
00000000
00100000
00010000
00000000
00010000
00100000
00000000
,
01100000
00000000
00000000
00000000
MMMMMMMM
00000000
00010000
00000000
10000000
00000000
00100000
01000000
00000000
01000000
00100000
00000000
,
01100000
00000000
00000000
00000000
MMMMMMMM
00000000
00010000
01000000
00010000
00000000
10000000
00000000
01000000
00000000
00100000
00000000
,
01000000
00000000
00100000
00000000
00001000
00010000
00001000
00000000
00000010
00000000
00000000
00000000
00000011
00000000
00000000
00000000
,
MMMMMMMM
00000100
00000010
00000100
MMMMMMMM
00000001
00000100
00000010
,
00000100
00001000
00002000
00003000
MMMMMMMM
00000000
00000000
00000000
,
10010000
00000000
00000000
00000000
10000000
00000000
01000000
00000000
00100000
00000000
01000000
00000000
00100000
00000000
00000000
00010000
00000000
00000000
10000000
00000000
00000000
00000000
00000000
00000000
,
MMMMMMMM
00000000
00000000
00000000
01000000
00100000
00000000
00010000
00000000
00001000
00010000
00000000
00001000
00000000
00000000
00000000
,
00011000
00000000
00000000
00010000
00001000
00010000
00000100
00010000
00001000
01000000
00010000
10000000
,
02000000
00000000
00000000
03000000
10000000
00000000
00100000
00000000
10000000
00000000
00010000
00000000
01000000
00000000
00001000
00000000
00010000
00000000
00002000
00000000
00000000
00000000
00000000
00000000
,
00103000
00000000
00000000
00000000
00100000
00000000
01000000
00000000
00000000
00000000
00000000
00000000
MMMMMMMM
00000000
00000000
00010000
00000000
00000000
00100000
00000000
00010000
00000000
10000000
00000000
,
00010000
00000000
00000000
00001000
00000000
00001000
00000100
00000000
00000100
00001000
00000000
00001000
,
00000010
00000000
00000110
00000000
MMMMMMMM
00000001
00001000
00000001
,
00001000
00000010
00000100
00000010
00001000
00000100
00010000
00000000
,
00002000
00203000
02300000
03020000
,
02030000
00000000
23000000
00000000
30100000
00000000
00010000
00001000
,
00000000
00001000
00020000
00000000
00001000
00000000
00000000
00000000
,
0003MMMM
00000000
00000000
00000000
00002000
00003000
00002000
00003000
,
00020000
00030200
00000320
00002030
,
00003020
00000000
00000032
00000000
00000103
00000000
00000100
00001000
,
00000000
00010000
00002000
00000000
00003000
00010000
00001000
00000000
,
00200000
00000000
00020000
00330000
,
10000000
01000000
10000000
01000000
10000000
00100000
10000000
00100000
,
01000000
00010000
00100000
00001000
00020000
00000000
00031000
00000000
,
00010000
00000000
00000100
00001000
00000100
00000000
00010000
00000000
00000010
00000000
00001000
00000000
00000010
00000000
00001000
00000000
,
00000001
00000100
00000010
00001000
00000020
00000000
00000130
00000001
,
00000010
00000100
00000010
00000100
00001000
00000100
00001000
00000100
,
00010000
00001000
00010000
00001000
01000000
00010000
01000000
00010000
,
00100000
00100000
00100000
00100000
01000000
01000000
01000000
01000000
,
MMMMMMMM
00000000
00000000
00000000
00000000
00000000
10000000
00010000
,
10020000
00000000
01030000
00000000
20010000
00000000
31000000
00100000
,
00010000
00000000
00100000
00000000
00001000
00000000
00100000
00000000
00010000
00000000
01000000
00000000
00001000
00010000
00001000
00000000
,
00021000
00000000
00030100
00000000
00001020
00000000
00000130
00000001
,
00001000
00000000
00000100
00000000
00000010
00000000
00000100
00000000
00001000
00000001
00001000
00000000
00000001
00000000
00000100
00000000
,
00000010
00000000
00000000
00000000
00010000
00000000
00000000
00000000
00000010
00000000
00000000
00000000
00001000
00000000
00000000
00000000
00000000
00000000
00000100
00000000
00000000
00001000
00000000
00000000
00000100
00000000
00000000
00000000
00000000
00000000
00000000
00000000
00000000
00000000
00000000
00000000
00010000
00000000
00000000
00000000
00000000
00000000
00001000
00000000
00000000
00000000
00000000
00000000
,
00200000
00000000
00310000
00000000
20000000
00000000
30100000
00000000
02000000
00000000
03010000
00000000
10000000
01000000
10000000
00000000
,
00010000
00000000
10000000
00100000
01000000
00010000
20000000
00000000
,
30100000
00000000
00000000
00000000
01000000
00100000
01000000
00000000
00010000
00000000
00100000
00000000
01000000
00000000
00100000
00000000
,
MMMM1000
00010000
01000000
00010000
MMMM1000
00010000
00100000
00010000
,
MMMM1000
01000000
00001000
00010000
00001000
00010000
00000200
00000300
,
0001MMMM
00001000
00010000
00000010
00010000
00000100
00001000
00000001
,
00001000
00000010
00010000
00010000
00001000
00000010
00000200
00000300
,
0001MMMM
00001000
00000010
00001000
0001MMMM
00001000
00000100
00001000
,
0001MMMM
00000010
00010000
00001000
00010000
00001000
00200000
00000000
,
01300000
00000000
01000000
00000000
01000000
00000000
01000000
00000000
10000000
00010000
10000000
00000000
00010000
00000000
01000000
00000000
,
00100000
00100000
00010000
00010000
00001000
00001000
00000010
00000000
,
00000012
00001000
00001000
00000203
,
00000310
00010000
00010000
00000000
00011000
00000000
01000000
01000000
,
20010000
01000000
31000000
01100000
,
10000000
00000000
00010000
00000000
01010000
00000000
00000000
00000000
00010000
00000000
00100000
00000000
00001000
00010000
00001000
00000000
,
0001MMMM
00000000
01000000
00100000
02000000
00000000
23000000
00000000
,
30010000
10000000
01000000
00010000
00001000
00000100
00000002
00000000
,
00001003
00000100
00001000
00000100
00000010
00000001
00001000
00000010
,
00010000
00000000
00010000
00000000
00001000
00000000
00001000
00000000
01000000
00010000
10000000
00010000
10000000
01000000
00100000
00000000
,
00010000
00000000
00000000
00110000
00000000
00000000
00000000
00000000
00001000
00000000
00010000
00000010
00000000
00000000
00000000
00000000
,
00000200
00000000
00000000
00000000
00000000
00000000
00000000
00000000
00000000
00000301
00000000
00000000
00000000
00000000
00000000
00000000
00000000
00000000
MMMMMMMM
00000000
00000000
00000000
00000000
00000000
00000000
00000000
00000000
00000000
00000000
00000000
00000000
00000000
;
