#TITLE:Guns;
#SUBTITLE:;
#ARTIST:Kawai Sprite;
#TITLETRANSLIT:;
#SUBTITLETRANSLIT:;
#ARTISTTRANSLIT:;
#GENRE:Friday Night Funkin';
#CREDIT:;
#BANNER:Guns.png;
#BACKGROUND:../bg.png;
#LYRICSPATH:;
#CDTITLE:../cdtitle.png;
#MUSIC:Guns.ogg;
#OFFSET:0.647000;
#SAMPLESTART:11.027000;
#SAMPLELENGTH:15.000000;
#SELECTABLE:YES;
#BPMS:0.000000=185.000000
;
#STOPS:
;
#BGCHANGES: -1.000=Guns.avi=1.000=0=0=0=StretchNoLoop====,
99999=-nosongbg-=1.000=0=0=0 // don't automatically add -songbackground-
;
#KEYSOUNDS:;
#ATTACKS:;

//---------------dance-single - FNF Hard----------------
#NOTES:
     dance-single:
     :
     Edit:
     17:
     0.882987,0.857357,0.000000,0.113672,0.454688,870.000000,870.000000,0.000000,16.000000,0.000000,0.000000,0.882987,0.857357,0.000000,0.113672,0.454688,870.000000,870.000000,0.000000,16.000000,0.000000,0.000000:
0000
0000
0000
0000
,
0000
0000
0000
0000
,
0000
0000
0000
0000
,
0000
0000
0000
0000
,
0000
0000
0000
0000
,
0000
0000
0000
0000
,
0000
0000
0000
0000
,
0000
0000
0000
0000
,
0000
0000
0000
0000
,
0100
1000
0002
0003
0010
0001
1000
0001
,
0100
0000
0000
0000
1000
0000
0000
0000
0100
0000
0000
0000
1000
0000
0000
0000
0020
0030
0000
0000
0000
0000
0000
0000
0200
0300
0000
0000
0000
0000
0000
0000
,
0100
0000
0000
0000
0010
0000
0000
0000
1000
1000
1000
0000
0100
0000
0000
0000
,
0010
0001
0100
0001
1000
0001
0100
0001
,
0100
1000
0002
0003
0010
0001
1000
0001
,
0100
0000
0000
0000
1000
0000
0000
0000
0100
0000
0000
0000
1000
0000
0000
0000
0020
0030
0000
0000
0000
0000
0000
0000
0200
0300
0000
0000
0000
0000
0000
0000
,
0100
0000
0000
0000
0010
0000
0000
0000
1000
1000
1000
0000
0100
0000
0000
0000
,
0010
0001
0100
0001
1000
0001
0100
0001
,
2000
3000
0100
0001
2000
3000
0100
0010
,
0001
0100
0001
0010
1000
0100
0001
0010
,
0100
0000
0100
0100
1000
0000
0100
0000
0001
0000
0001
0000
0010
0000
1000
0000
,
0010
0000
0001
0000
1000
0000
0001
0000
0010
0001
1000
0000
0100
1000
0001
0000
,
2000
3000
0100
0001
2000
3000
0100
0010
,
0001
0100
0001
0010
1000
0100
0001
0010
,
0100
0000
0100
0100
1000
0000
0010
0000
0001
0000
0001
0000
0010
0000
1000
0000
,
0010
0000
0001
0000
1000
0000
0001
0000
0010
0001
1000
0000
0100
1000
0001
0000
,
0010
0000
1000
0000
0001
0000
0100
0100
0010
0000
1000
0000
0001
0000
0001
0000
,
0010
0000
1000
0000
0001
0000
0100
0100
0010
0000
1000
0000
0001
0000
0001
0000
,
0010
0001
0010
0000
0001
0000
1000
1000
0010
0000
0100
0000
1000
0000
0001
0000
,
0010
0001
0000
0000
0001
0000
1000
1000
0010
0001
0001
0100
1000
0000
0001
0000
,
0010
0010
1000
0000
0001
0000
0100
0100
0010
0000
1000
0000
0001
0000
0001
0000
,
0010
0010
1000
0000
0001
0000
0100
0100
0010
0000
1000
0000
0001
0000
0001
0000
,
0010
0001
0010
0000
0001
0000
1000
1000
0010
0000
0100
0000
1000
0000
0001
0000
,
0010
0001
0000
0000
0001
0000
1000
1000
0010
0001
0001
0100
1000
0000
0001
0000
,
0100
1000
0001
0000
0010
0000
0001
0010
1000
0000
0001
0000
1000
0010
1000
0000
,
0100
1000
0010
1000
0100
1000
0010
1000
,
0100
1000
0001
0000
0010
0000
0001
0010
1000
0000
0001
0000
1000
0010
1000
0000
,
0100
1000
0010
1000
0001
1000
0010
1000
,
0100
1000
0001
0000
0010
0000
0001
0010
1000
0000
0001
0000
1000
0010
1000
0000
,
0100
1000
0010
1000
0100
1000
0010
1000
,
0100
1000
0001
0000
0010
0000
0001
0010
1000
0000
0001
0000
1000
0010
1000
0000
,
0100
1000
0010
1000
0001
1000
0010
1000
,
0010
0000
0001
0000
1000
0100
1000
0000
0010
0000
1000
0000
0100
1000
0002
0000
,
0003
0000
0010
0100
1000
0000
0010
0000
1000
0000
0001
0000
0100
0000
1000
0000
,
0010
0100
1000
0000
0001
0000
1000
0000
0010
0100
1000
0000
1000
0000
0001
0000
,
0100
0001
1000
0010
0001
0100
1000
0010
,
0010
0000
0001
0000
1000
0100
1000
0000
0010
0000
1000
0000
0100
1000
0002
0000
,
0003
0000
0010
0100
1000
0000
0010
0000
1000
0000
0001
0000
0100
0000
1000
0000
,
0010
0100
1000
0000
0001
0000
1000
0000
0010
0100
1000
0000
1000
0000
0001
0000
,
0100
0010
1000
0010
0001
0100
1000
0010
,
0100
0001
0010
0001
0100
1000
0010
0001
,
0100
0001
0010
0001
0100
1000
0010
0001
,
0010
1000
0100
0000
0010
1000
0100
0000
0001
1000
0010
0000
0001
1000
0010
0000
,
0010
0001
0010
0001
0100
1000
0001
1000
,
0100
0001
0010
0001
0100
1000
0010
0001
,
0100
0001
0010
0001
0100
1000
0010
0001
,
0010
1000
0100
0000
0010
1000
0100
0000
0001
1000
0010
0000
0001
1000
0010
0000
,
0010
0001
0010
0001
0100
1000
0001
1000
,
0010
0000
1000
0000
0100
0000
1000
0000
0002
0000
0003
0000
0010
1000
0001
0000
,
0100
1000
0001
0000
0010
0000
0001
0000
0100
1000
0001
0000
0010
0000
0001
0000
,
0010
0000
0010
0001
0010
0000
0010
1000
0100
0000
1000
0000
0010
0000
0000
0000
,
0001
0000
0100
1000
0100
0000
0010
0001
0100
0000
0001
0000
1000
0000
0100
0000
,
0001
0000
0010
0000
0100
0000
1000
0100
0001
0000
0100
0000
0100
0000
1000
0001
,
0100
0000
0001
0000
0010
0000
0001
0000
0010
0000
1000
0000
0100
0000
1000
0100
,
0001
0000
0010
0000
0100
0000
1000
0100
0001
0000
0100
0000
0100
0000
1000
0001
,
0100
0000
0001
0000
0010
0000
0001
0000
0010
0000
1000
0000
0100
0000
1000
0100
,
0010
0000
1000
0000
0100
0000
1000
0000
0002
0000
0003
0000
0010
1000
0001
0000
,
0100
1000
0001
0000
0010
0000
0001
0000
0100
1000
0001
0000
0010
0000
0001
0000
,
0010
0000
0010
0001
0010
0000
0010
1000
0100
0000
1000
0000
0010
0000
0000
0000
,
0001
0000
0100
1000
0100
0000
0010
0001
0100
0000
0001
0000
1000
0000
0100
0000
,
0001
0000
0010
0000
0100
0000
1000
0100
0001
0000
0100
0000
0100
0000
1000
0001
,
0100
0000
0001
0000
0010
0000
0001
0000
0010
0000
1000
0000
0100
0000
1000
0100
,
0001
0000
0010
0000
0100
0000
1000
0100
0001
0000
0100
0000
0100
0000
1000
0001
,
0100
0000
0001
0000
0010
0000
0001
0000
0010
0000
1000
0000
0100
0000
1000
0100
,
0010
0000
0100
0000
1000
0000
0100
0000
0010
0000
0010
0000
0001
0010
0001
0000
,
0010
1000
0001
0100
0010
1000
0001
0100
,
0010
0000
0001
0000
0010
0000
1000
0001
0100
0000
0001
0000
0100
0000
1000
0000
,
0010
0001
0010
1000
0100
1000
0100
0002
,
0003
0000
0100
0000
0001
0000
0010
1000
0001
0000
1000
0000
0100
0000
0010
0001
,
0100
0000
0001
0000
0010
0000
0001
0000
0010
0000
1000
0000
0001
0000
0010
1000
,
0001
0000
1000
0000
0100
0000
0010
1000
0001
0000
1000
0000
0100
0000
0010
0001
,
0100
0000
0001
0000
0010
0000
0001
0000
0010
0000
1000
0000
0001
0000
0010
1000
,
0010
0000
0100
0000
1000
0000
0100
0000
0010
0000
0010
0000
0001
0010
0001
0000
,
0010
1000
0001
0100
0010
1000
0001
0100
,
0010
0000
0001
0000
0010
0000
1000
0001
0100
0000
0001
0000
0100
0000
1000
0000
,
0010
0001
0010
1000
0100
1000
0100
0002
,
0003
0000
0100
0000
0001
0000
0010
1000
0001
0000
1000
0000
0100
0000
0010
0001
,
0100
0000
0001
0000
0010
0000
0001
0000
0010
0000
1000
0000
0001
0000
0010
1000
,
0001
0000
1000
0000
0100
0000
0010
1000
0001
0000
1000
0000
0100
0000
0010
0001
,
0100
0000
0001
0000
0010
0000
0001
0000
0010
0000
1000
0000
0001
0000
0010
1000
,
0001
0000
0100
0000
1000
0100
0001
0000
0010
0000
0001
0000
1000
0100
0001
0000
,
0100
1000
0010
0000
0001
0000
0100
0000
0100
1000
0010
0000
0001
0000
0100
0000
,
0010
0000
0100
0001
0100
0000
0001
0100
1000
0000
0100
0000
1000
0000
0010
1000
,
0010
0000
0100
0001
0100
0000
0001
0100
1000
0000
0100
0000
1000
0000
0010
0000
,
0001
0000
0100
0000
0001
0000
0010
1000
0001
0000
1000
0000
0100
0000
0010
0001
,
0100
0000
0001
0000
0010
0000
0001
0000
0010
0000
1000
0000
0001
0000
0010
1000
,
0001
0000
1000
0000
0100
0000
0010
1000
0001
0000
1000
0000
0100
0000
0010
0001
,
0100
0000
0001
0000
0010
0000
0001
0000
0010
0000
1000
0000
0001
0000
0010
1000
,
0001
0000
0100
0000
1000
0100
0001
0000
0010
0000
0001
0000
1000
0100
0001
0000
,
0100
1000
0010
0000
0001
0000
0100
0000
0100
1000
0010
0000
0001
0000
0100
0000
,
0010
0000
0100
0001
0100
0000
0001
0100
1000
0000
0100
0000
1000
0000
0010
1000
,
0010
0000
0100
0001
0100
0000
0001
0100
1000
0000
0100
0000
1000
0000
0010
0000
,
0001
0000
0100
0000
0001
0000
0010
1000
0001
0000
1000
0000
0100
0000
0010
0001
,
0100
0000
0001
0000
0010
0000
0001
0000
0010
0000
1000
0000
0001
0000
0010
1000
,
0001
0000
1000
0000
0100
0000
0010
1000
0001
0000
1000
0000
0100
0000
0010
0001
,
0100
0000
0001
0000
0010
0000
0001
0000
0010
0000
1000
0000
0001
0000
0010
1000
;

//---------------dance-single - ----------------
#NOTES:
     dance-single:
     :
     Hard:
     16:
     0.783524,0.820081,0.113672,0.198926,0.305493,772.000000,756.000000,16.000000,28.000000,0.000000,0.000000,0.783524,0.820081,0.113672,0.198926,0.305493,772.000000,756.000000,16.000000,28.000000,0.000000,0.000000:
// measure 0
0000
0000
0000
0000
,  // measure 1
0000
0000
0000
0000
,  // measure 2
0000
0000
0000
0000
,  // measure 3
0000
0000
0000
0000
,  // measure 4
0000
0000
0000
0000
,  // measure 5
0000
0000
0000
0000
,  // measure 6
0000
0000
0000
0000
,  // measure 7
0000
0000
0000
0000
,  // measure 8
0000
0000
0000
0000
,  // measure 9
1100
0100
0020
0000
0031
0100
0010
0100
,  // measure 10
0001
1000
0100
0010
0001
0000
1000
0000
,  // measure 11
0001
0000
0000
0000
0110
0000
0000
0000
1000
0100
1000
0000
0100
0000
0000
0000
,  // measure 12
1000
0001
0100
0001
1000
0010
0100
0001
,  // measure 13
0010
0010
0200
0000
1300
0010
0100
0010
,  // measure 14
1000
0001
0010
0100
2000
0000
3002
0000
,  // measure 15
1003
0000
0000
0000
0110
0000
0000
0000
0001
0010
0001
0000
0010
0000
0000
0000
,  // measure 16
0001
1000
0010
1000
0001
0100
0010
1000
,  // measure 17
0200
0000
0310
0100
2000
0000
3100
0010
,  // measure 18
0100
1000
0100
1000
0010
0100
0001
1000
,  // measure 19
0001
0000
0001
0100
0001
0000
0100
0000
0010
0000
1000
0000
0100
0000
1000
0000
,  // measure 20
0001
0000
0010
0000
0100
0000
1000
0000
0001
0100
0001
0000
0100
0010
0100
0000
,  // measure 21
0020
0000
0130
0010
2000
0000
3010
0100
,  // measure 22
0010
1000
0010
1000
0100
0010
0001
1000
,  // measure 23
0001
0000
0001
0010
0001
0000
0010
0000
0100
0000
1000
0000
0010
0000
1000
0000
,  // measure 24
0001
0000
0100
0000
0010
0000
1000
0000
0001
0010
0001
0000
0010
0000
0100
0000
,  // measure 25
1000
0100
1000
0000
0001
0000
1000
0100
0010
0000
0001
0000
0100
0000
0001
0000
,  // measure 26
1000
0100
1000
0000
0001
0000
1000
0100
0010
0000
0001
0000
0100
0000
0001
0000
,  // measure 27
0001
0100
0001
0000
1000
0000
0100
0010
0100
0000
1000
0000
0100
0000
0010
0000
,  // measure 28
0001
0100
0001
0000
1000
0000
0001
0100
0010
0000
1000
0000
0100
0000
1000
0000
,  // measure 29
0001
0010
0001
0000
1000
0000
0001
0010
0100
0000
1000
0000
0010
0000
1000
0000
,  // measure 30
0001
0010
0001
0000
1000
0000
0001
0010
0100
0000
1000
0000
0010
0000
1000
0000
,  // measure 31
1000
0010
1000
0000
0001
0000
0010
0100
0010
0000
0001
0000
0010
0000
0100
0000
,  // measure 32
1000
0010
1000
0000
0001
0000
1000
0010
0100
0000
0001
0000
0010
0000
0001
0000
,  // measure 33
0010
0100
1000
0000
0001
0000
1000
0000
0100
0000
1000
0000
0001
0000
0010
0000
,  // measure 34
0100
0100
1000
0001
1000
0100
0010
0001
,  // measure 35
0100
0010
0100
0000
0010
0000
1000
0000
0001
0000
0010
0000
0100
0000
1000
0000
,  // measure 36
0001
0001
1000
0010
0100
0100
0002
0000
,  // measure 37
0103
0010
1000
0000
0001
0000
1000
0000
0010
0000
1000
0000
0001
0000
0100
0000
,  // measure 38
0010
0010
1000
0001
1000
0010
0100
0001
,  // measure 39
0010
0100
0010
0000
0100
0000
1000
0000
0001
0000
0100
0000
0010
0000
1000
0000
,  // measure 40
0001
1000
1100
0000
0100
0010
0002
0000
,  // measure 41
1003
0000
0100
0000
0001
0000
0100
0000
1000
0000
0100
0000
0001
0100
0002
0000
,  // measure 42
0000
0000
0103
0010
0100
0000
1000
0000
0001
0000
0010
0000
0100
0000
1000
0000
,  // measure 43
0001
0100
0001
0000
0100
0000
0010
0000
1000
0010
1000
0000
0010
0000
0100
0000
,  // measure 44
0001
0010
1000
0001
0100
0010
0100
1000
,  // measure 45
0001
0000
0010
0000
1000
0000
0010
0000
0001
0000
0010
0000
1000
0010
2000
0000
,  // measure 46
0000
0000
3010
0100
0010
0000
0001
0000
1000
0000
0100
0000
0010
0000
0001
0000
,  // measure 47
1000
0010
1000
0000
0010
0000
0100
0000
0001
0100
0001
0000
0100
0000
0010
0000
,  // measure 48
1000
0100
0001
1000
0010
0100
0010
0001
,  // measure 49
1000
0100
0010
0010
1000
0100
0010
0010
,  // measure 50
1000
0100
0010
0010
1000
0100
0010
0010
,  // measure 51
1000
0001
1000
0000
0100
0010
0100
0000
1000
0100
1000
0000
0001
0100
0001
0000
,  // measure 52
1000
0001
0100
0010
1000
0001
0010
0100
,  // measure 53
1000
0100
0001
0001
0010
0001
1000
1000
,  // measure 54
0001
0100
1000
1000
0010
1000
0001
0001
,  // measure 55
0010
0100
0010
0000
0100
1000
0100
0000
1000
0010
1000
0000
0001
0010
0001
0000
,  // measure 56
0100
0001
1000
0001
0010
0100
0010
0001
,  // measure 57
2000
0000
3000
0000
,  // measure 58
0002
0000
0103
0000
,  // measure 59
0010
0000
0010
0000
0010
0100
0010
0000
,  // measure 60
1000
0000
1000
0000
1000
0100
1000
0001
,  // measure 61
1000
0010
0100
0000
0100
0010
0100
0000
,  // measure 62
0010
1000
0001
0000
0010
0000
0010
0000
,  // measure 63
0001
0010
0100
0000
0010
0100
0010
0000
,  // measure 64
0100
1000
0001
0000
0010
0100
0010
0100
,  // measure 65
1000
0000
0001
0000
0100
0000
0010
0000
2000
0000
0000
0000
3001
0100
0001
0000
,  // measure 66
1000
0100
1000
0000
0001
0000
0010
0000
0100
0010
0100
0000
1000
0000
0001
0000
,  // measure 67
1000
0000
0100
0010
0001
0000
0010
0100
1000
0000
0001
0000
2000
0000
0000
0000
,  // measure 68
3100
0000
1000
0001
0100
0000
0001
1000
0010
0000
0100
0000
0001
0000
1000
0000
,  // measure 69
0001
0000
0010
0000
0100
0000
1000
0100
1000
0000
0010
0000
0100
0000
0001
1000
,  // measure 70
0001
0000
0100
0000
0010
0000
1000
0000
0001
0000
0100
0000
0010
0000
1000
0010
,  // measure 71
1000
0000
0001
0000
0010
0000
0001
0010
0001
0000
1000
0000
0100
0000
0010
0100
,  // measure 72
0020
0100
0000
0130
,  // measure 73
1001
0000
0001
0000
0100
0000
0010
0000
1000
0000
0001
0000
0010
0100
0010
0000
,  // measure 74
1000
0001
0100
0010
0100
0010
0001
1000
,  // measure 75
0010
0000
0100
0000
1000
0000
0100
0010
0100
0000
0010
0000
1000
0000
0001
0000
,  // measure 76
0100
0001
1000
0100
0001
0100
1000
2000
,  // measure 77
0000
0000
3100
0000
0010
0000
0001
0100
0001
0000
0100
0000
0010
0000
1000
0100
,  // measure 78
1000
0000
0100
0000
0001
0000
0100
0000
0010
0000
0100
0000
1000
0001
0010
0100
,  // measure 79
0010
0000
1000
0000
0010
0000
0100
0010
0001
0000
1000
0000
0001
0000
0100
0001
,  // measure 80
0100
0010
1000
0001
0100
0010
1000
0001
,  // measure 81
1000
0000
0100
0000
0010
0000
0100
0000
2000
0000
0000
0000
3010
0100
0010
0000
,  // measure 82
0001
1000
0100
0010
0100
0010
1000
0001
,  // measure 83
0010
0000
0100
0000
0001
0000
0100
0010
0100
0000
0010
0000
0001
0000
1000
0000
,  // measure 84
0100
1000
0001
0100
1000
0100
0001
0002
,  // measure 85
0000
0000
0103
0000
0010
0000
1000
0100
1000
0000
0100
0000
0010
0000
0001
0100
,  // measure 86
0001
0000
0100
0000
1000
0000
0100
0000
0010
0000
0100
0000
0001
1000
0010
0100
,  // measure 87
0010
0000
0001
0000
0010
0000
0100
0010
1000
0000
0001
0000
1000
0000
0100
1000
,  // measure 88
0100
0000
0010
0000
0001
0000
1000
0000
0100
0010
0100
0000
1000
0001
1000
0000
,  // measure 89
0002
0000
0103
2001
,  // measure 90
0000
3100
1001
0000
,  // measure 91
0102
0000
1003
0201
,  // measure 92
0000
1300
0110
1000
,  // measure 93
2100
0000
3010
1002
,  // measure 94
0000
0013
1001
0100
,  // measure 95
2010
0000
3001
1020
,  // measure 96
0000
0031
0110
0001
,  // measure 97
0001
0000
0100
0000
0010
1000
0010
0000
0100
0000
0001
0000
1000
0100
1000
0000
,  // measure 98
0100
0010
0100
0000
1000
0000
0001
0000
0010
0100
0010
0000
0001
0000
1000
0000
,  // measure 99
0001
0000
0010
0100
1000
0000
0100
0010
0001
0000
0010
0000
0100
0000
1000
0000
,  // measure 100
0001
0000
1000
0100
0010
0000
0001
0010
0100
0000
1000
0000
0001
0000
0100
0000
,  // measure 101
0010
0000
1000
0000
0010
0000
0100
0001
0100
0000
0001
0000
0100
0000
0010
1000
,  // measure 102
0001
0000
0010
0000
1000
0000
0010
0000
0001
0000
0010
0000
0100
0000
1000
0100
,  // measure 103
1000
0000
0100
0000
1000
0000
0001
0100
0001
0000
0100
0000
0010
0000
1000
0000
,  // measure 104
0100
0000
0001
0000
1000
0000
0010
0000
0001
0000
0010
0000
0100
0000
1000
0001
;

//---------------dance-single - ----------------
#NOTES:
     dance-single:
     :
     Medium:
     13:
     0.588658,0.633321,0.099463,0.227344,0.000000,580.000000,566.000000,14.000000,32.000000,0.000000,0.000000,0.588658,0.633321,0.099463,0.227344,0.000000,580.000000,566.000000,14.000000,32.000000,0.000000,0.000000:
// measure 0
0000
0000
0000
0000
,  // measure 1
0000
0000
0000
0000
,  // measure 2
0000
0000
0000
0000
,  // measure 3
0000
0000
0000
0000
,  // measure 4
0000
0000
0000
0000
,  // measure 5
0000
0000
0000
0000
,  // measure 6
0000
0000
0000
0000
,  // measure 7
0000
0000
0000
0000
,  // measure 8
0000
0000
0000
0000
,  // measure 9
1000
0100
0002
0000
0103
1000
0100
1000
,  // measure 10
0001
0010
1000
0010
0001
0000
1000
0000
,  // measure 11
0100
0000
1001
0000
0010
0010
0010
0000
,  // measure 12
1000
0001
0100
0010
1000
0100
0010
0000
,  // measure 13
0001
0010
2000
0000
3010
0001
0010
0001
,  // measure 14
1000
0100
0001
0100
2000
0000
3002
0000
,  // measure 15
0013
0000
1001
0000
0100
0100
0100
0000
,  // measure 16
0001
1000
0010
0100
0001
0010
0100
0000
,  // measure 17
0020
0000
0130
1000
0020
0000
0130
0001
,  // measure 18
0010
0100
0010
0000
0001
1000
0010
0000
,  // measure 19
1000
1000
1000
0000
0010
0010
0010
0000
,  // measure 20
0100
0001
1000
0010
0100
0001
0010
0000
,  // measure 21
0200
0000
0310
0001
0200
0000
0310
1000
,  // measure 22
0100
0010
0100
0000
1000
0001
0100
0000
,  // measure 23
0001
0001
0001
0000
0100
0100
0100
0000
,  // measure 24
0010
1000
0001
0100
0010
1000
0100
0000
,  // measure 25
0001
0100
0001
0100
1000
0100
1000
0000
,  // measure 26
0001
0100
0001
0100
1000
0100
1000
0000
,  // measure 27
0001
0010
0001
0010
1000
0010
1000
0000
,  // measure 28
0001
0010
0001
0010
0100
1000
0010
0000
,  // measure 29
0001
0010
0001
0010
1000
0010
1000
0000
,  // measure 30
0001
0010
0001
0010
1000
0010
1000
0000
,  // measure 31
0001
0100
0001
0100
1000
0100
1000
0000
,  // measure 32
0001
0100
0001
0100
0010
1000
0100
0000
,  // measure 33
1000
0001
0100
0001
1000
0010
0100
0000
,  // measure 34
0001
0001
1000
1000
0100
1000
0001
0000
,  // measure 35
0010
0100
1000
0100
0010
0001
1000
0010
,  // measure 36
0200
0302
2003
3020
,  // measure 37
1030
0001
0010
0001
1000
0100
0010
0000
,  // measure 38
0001
0001
1000
1000
0010
1000
0001
0000
,  // measure 39
0100
0010
1000
0010
0100
0001
1000
0100
,  // measure 40
0010
0010
0100
0000
0010
0000
1001
0000
,  // measure 41
0001
0100
0010
0000
1000
0100
0001
0200
,  // measure 42
0000
1300
0100
0000
1000
0010
1000
0000
,  // measure 43
0001
0001
0010
0000
1000
1000
0010
0000
,  // measure 44
0001
0010
0100
0010
0001
0010
0100
1000
,  // measure 45
0001
0010
0100
0000
1000
0010
0001
0020
,  // measure 46
0000
1030
0010
0000
1000
0100
1000
0000
,  // measure 47
0001
0001
0100
0000
1000
1000
0100
0000
,  // measure 48
0001
0100
0010
0100
0001
0100
0010
1000
,  // measure 49
0001
0100
0001
0000
0100
1000
0100
0000
,  // measure 50
0001
0100
0001
0000
1000
0100
1000
0000
,  // measure 51
0001
0110
0001
0110
,  // measure 52
0001
0001
0001
0000
0100
0010
1000
0000
,  // measure 53
0001
0010
0001
0000
0010
1000
0010
0000
,  // measure 54
0100
0001
0100
0000
1000
0100
1000
0000
,  // measure 55
0100
1001
0010
1001
,  // measure 56
0001
0001
0001
0000
0010
0100
1000
0001
,  // measure 57
2000
0000
3000
0000
,  // measure 58
0002
0000
0103
0000
,  // measure 59
0020
1000
1030
0000
,  // measure 60
2000
0100
3100
1000
,  // measure 61
0001
0001
0100
0001
,  // measure 62
1000
0010
0100
0010
,  // measure 63
2000
3100
0002
0103
,  // measure 64
2000
0010
0010
3010
,  // measure 65
1000
0100
0010
0000
0002
0000
1003
0000
,  // measure 66
0001
0010
0100
0000
0100
1000
0001
0000
,  // measure 67
1000
0010
0100
0010
1000
0010
0100
0000
,  // measure 68
0001
1000
0100
1000
0001
1000
0100
1000
,  // measure 69
0001
0100
0001
0000
0010
1000
0010
0000
,  // measure 70
0001
0100
0001
0010
1000
0010
0001
0000
,  // measure 71
1000
0100
1000
0000
0010
0001
0010
0000
,  // measure 72
0200
0000
0000
0300
,  // measure 73
1001
0001
0100
0000
0010
0010
1000
0000
,  // measure 74
0100
0001
0100
1000
0100
0001
0100
0000
,  // measure 75
1000
1000
0010
0000
0001
0001
0010
0000
,  // measure 76
1000
0100
1000
0010
1000
0100
1000
0002
,  // measure 77
0000
0103
0001
0100
0010
1000
0010
0100
,  // measure 78
0001
1000
0100
1000
0001
0010
0100
0010
,  // measure 79
0001
0100
0001
0000
0001
0010
0001
0000
,  // measure 80
1000
0100
0010
0001
0100
0010
1000
0000
,  // measure 81
0001
1000
0010
0100
0002
0000
0103
0001
,  // measure 82
1000
0100
0010
0100
1000
0100
0001
0100
,  // measure 83
1000
1000
0001
0000
0010
0010
0100
0000
,  // measure 84
0001
0100
1000
0100
0001
0100
1000
0020
,  // measure 85
0000
1030
0001
0010
0100
1000
0100
0010
,  // measure 86
0001
1000
0100
1000
0001
0010
0100
1000
,  // measure 87
2100
3010
1002
0013
,  // measure 88
0001
0010
0100
1000
0010
0100
0001
1000
,  // measure 89
0002
0000
0103
0000
,  // measure 90
1000
1000
0110
0000
,  // measure 91
0200
0000
0310
0000
,  // measure 92
0001
0001
0110
0001
,  // measure 93
2000
0000
3010
0000
,  // measure 94
0001
0001
0110
0000
,  // measure 95
0020
0000
0130
0000
,  // measure 96
1000
1000
0110
1000
,  // measure 97
0001
0100
0010
0000
1000
0100
0010
0000
,  // measure 98
0100
1000
0010
1000
0100
0001
0100
0000
,  // measure 99
1000
0010
1000
0010
0001
0010
1000
0000
,  // measure 100
0001
0010
0001
0010
1000
0010
0001
0000
,  // measure 101
1000
0100
1000
0000
0001
0100
0001
0000
,  // measure 102
0010
0100
0010
0001
0100
0010
1000
0001
,  // measure 103
1000
0010
1000
0000
0001
0010
0001
0000
,  // measure 104
0100
0010
0100
0001
0010
0100
1000
0001
;

//---------------dance-single - ----------------
#NOTES:
     dance-single:
     :
     Easy:
     8:
     0.342031,0.409308,0.142090,0.142090,0.000000,337.000000,317.000000,20.000000,20.000000,0.000000,0.000000,0.342031,0.409308,0.142090,0.142090,0.000000,337.000000,317.000000,20.000000,20.000000,0.000000,0.000000:
// measure 0
0000
0000
0000
0000
,  // measure 1
0000
0000
0000
0000
,  // measure 2
0000
0000
0000
0000
,  // measure 3
0000
0000
0000
0000
,  // measure 4
0000
0000
0000
0000
,  // measure 5
0000
0000
0000
0000
,  // measure 6
0000
0000
0000
0000
,  // measure 7
0000
0000
0000
0000
,  // measure 8
0000
0000
0000
0000
,  // measure 9
0020
0000
0130
0000
,  // measure 10
1000
1000
0011
0000
,  // measure 11
0100
0000
0110
0000
,  // measure 12
0010
0010
1000
0001
,  // measure 13
0200
0000
0310
0000
,  // measure 14
0001
0001
1100
0000
,  // measure 15
0010
0000
0110
0000
,  // measure 16
0100
0100
0001
1000
,  // measure 17
0020
0000
0130
0000
,  // measure 18
1000
1000
0100
0000
,  // measure 19
0001
0001
0001
0000
,  // measure 20
0010
0100
0010
0100
,  // measure 21
0200
0000
0310
0000
,  // measure 22
1000
1000
0010
0000
,  // measure 23
0001
0001
0001
0000
,  // measure 24
0100
0010
0100
0010
,  // measure 25
1000
0100
0001
0000
,  // measure 26
1000
0100
0001
0000
,  // measure 27
0001
0010
1000
0000
,  // measure 28
0001
0010
1000
0000
,  // measure 29
1000
0010
0001
0000
,  // measure 30
1000
0010
0001
0000
,  // measure 31
0001
0100
1000
0000
,  // measure 32
0001
0100
1000
0000
,  // measure 33
1000
1000
0100
0100
,  // measure 34
0001
0100
1000
0010
,  // measure 35
0100
0100
0010
0010
,  // measure 36
2000
3002
0203
0320
,  // measure 37
1030
1000
0010
0010
,  // measure 38
0001
0010
1000
0100
,  // measure 39
0010
0010
0100
0100
,  // measure 40
0010
1100
0010
0101
,  // measure 41
0020
0000
0130
0000
,  // measure 42
0001
1000
1100
0000
,  // measure 43
0010
0010
0100
0100
,  // measure 44
0001
0100
1000
0010
,  // measure 45
0200
0000
0310
0000
,  // measure 46
1000
0001
0011
0000
,  // measure 47
0100
0100
0010
0010
,  // measure 48
1000
0010
0001
0100
,  // measure 49
0010
0010
1000
1000
,  // measure 50
0001
0001
0010
0010
,  // measure 51
0100
0110
0010
0110
,  // measure 52
1000
0100
1000
0010
,  // measure 53
0100
0100
0001
0001
,  // measure 54
1000
1000
0100
0100
,  // measure 55
0010
0110
0100
0110
,  // measure 56
0001
0010
0001
0100
,  // measure 57
0020
0000
0030
0000
,  // measure 58
2000
0000
3000
0000
,  // measure 59
0100
0100
0100
0000
,  // measure 60
0010
0100
0010
0000
,  // measure 61
0200
0000
0310
0000
,  // measure 62
0002
0000
0103
0000
,  // measure 63
0010
0000
0010
0000
,  // measure 64
2000
0100
3100
0000
,  // measure 65
1000
1000
0001
0000
,  // measure 66
0100
0100
0001
0001
,  // measure 67
0010
1000
0001
0000
,  // measure 68
0100
1000
0001
0000
,  // measure 69
1000
1000
0001
0001
,  // measure 70
0010
0001
0100
1000
,  // measure 71
0001
0001
0010
0010
,  // measure 72
2000
0000
0000
3000
,  // measure 73
1001
0100
1000
0010
,  // measure 74
1000
0100
0001
0100
,  // measure 75
1000
1000
0010
0010
,  // measure 76
0001
0010
1000
0002
,  // measure 77
0003
0010
0100
0010
,  // measure 78
1000
0010
0001
0100
,  // measure 79
0010
0010
1000
1000
,  // measure 80
0001
0100
0010
0100
,  // measure 81
1001
0010
0001
0100
,  // measure 82
0001
0010
1000
0010
,  // measure 83
0001
0001
0100
0100
,  // measure 84
1000
0100
0001
2000
,  // measure 85
3000
0100
0010
0100
,  // measure 86
0001
0100
1000
0010
,  // measure 87
0100
0100
0001
0001
,  // measure 88
1000
0010
0100
0010
,  // measure 89
2000
0000
3100
0000
,  // measure 90
0002
0000
0103
0000
,  // measure 91
1000
1000
0010
0000
,  // measure 92
0001
0001
0010
0000
,  // measure 93
1000
0000
0110
0000
,  // measure 94
0001
0010
1010
0000
,  // measure 95
0001
0000
0110
0000
,  // measure 96
1000
0010
0011
0000
,  // measure 97
1000
1000
0001
0001
,  // measure 98
0010
0100
0010
0100
,  // measure 99
1000
0010
0010
1100
,  // measure 100
0001
0100
0100
0011
,  // measure 101
0010
0010
0100
0100
,  // measure 102
1000
0010
0001
0010
,  // measure 103
0100
0100
0010
0010
,  // measure 104
1000
0100
0001
0100
;

//---------------dance-single - ----------------
#NOTES:
     dance-single:
     :
     Beginner:
     4:
     0.153254,0.260468,0.000000,0.063940,0.000000,151.000000,151.000000,0.000000,9.000000,0.000000,0.000000,0.153254,0.260468,0.000000,0.063940,0.000000,151.000000,151.000000,0.000000,9.000000,0.000000,0.000000:
// measure 0
0000
0000
0000
0000
,  // measure 1
0000
0000
0000
0000
,  // measure 2
0000
0000
0000
0000
,  // measure 3
0000
0000
0000
0000
,  // measure 4
0000
0000
0000
0000
,  // measure 5
0000
0000
0000
0000
,  // measure 6
0000
0000
0000
0000
,  // measure 7
0000
0000
0000
0000
,  // measure 8
0000
0000
0000
0000
,  // measure 9
1000
0000
0000
0000
,  // measure 10
1000
0000
0000
0000
,  // measure 11
0001
0000
0000
0000
,  // measure 12
0001
0000
0000
0000
,  // measure 13
0100
0000
0000
0000
,  // measure 14
0100
0000
0000
0000
,  // measure 15
0010
0000
0000
0000
,  // measure 16
0010
0000
0000
0000
,  // measure 17
1000
0000
0100
0000
,  // measure 18
1000
0000
0000
0000
,  // measure 19
0001
0000
0100
0000
,  // measure 20
0001
0000
0000
0000
,  // measure 21
0010
0000
1000
0000
,  // measure 22
0010
0000
0000
0000
,  // measure 23
0010
0000
0001
0000
,  // measure 24
0010
0000
0000
0000
,  // measure 25
1000
0000
0000
0000
,  // measure 26
1000
0000
0000
0000
,  // measure 27
0010
0000
0000
0000
,  // measure 28
0010
0000
0000
0000
,  // measure 29
0001
0000
0000
0000
,  // measure 30
0001
0000
0000
0000
,  // measure 31
0100
0000
0000
0000
,  // measure 32
0100
0000
0000
0000
,  // measure 33
1000
0000
0000
0000
,  // measure 34
0010
0000
0000
0000
,  // measure 35
1000
0000
0000
0000
,  // measure 36
0100
0000
0100
0000
,  // measure 37
0001
0000
0000
0000
,  // measure 38
0010
0000
0000
0000
,  // measure 39
0001
0000
0000
0000
,  // measure 40
0100
0000
0100
0000
,  // measure 41
2000
0000
3000
0000
,  // measure 42
0002
0000
0003
0000
,  // measure 43
0010
0000
0100
0000
,  // measure 44
0010
0000
0000
0000
,  // measure 45
0002
0000
0003
0000
,  // measure 46
2000
0000
3000
0000
,  // measure 47
0100
0000
0010
0000
,  // measure 48
0100
0000
0000
0000
,  // measure 49
1000
0000
0001
0000
,  // measure 50
1000
0000
1000
0000
,  // measure 51
0100
0000
0010
0000
,  // measure 52
0100
0100
0100
0000
,  // measure 53
0001
0000
1000
0000
,  // measure 54
0001
0000
0001
0000
,  // measure 55
0010
0000
0100
0000
,  // measure 56
0010
0010
0010
0000
,  // measure 57
2000
0000
3000
0000
,  // measure 58
0000
0000
0000
0000
,  // measure 59
0000
0000
0000
0000
,  // measure 60
0000
0000
0000
0000
,  // measure 61
0000
0000
0000
0000
,  // measure 62
0000
0000
0000
0000
,  // measure 63
0000
0000
0000
0000
,  // measure 64
0000
0000
0000
0000
,  // measure 65
1000
0000
0100
0000
,  // measure 66
1000
0000
0000
0000
,  // measure 67
0001
0000
0010
0000
,  // measure 68
0001
0000
0000
0000
,  // measure 69
1000
0000
1000
0000
,  // measure 70
0010
0000
0010
0000
,  // measure 71
0001
0000
0001
0000
,  // measure 72
0100
0000
0000
0000
,  // measure 73
0100
0100
0100
0000
,  // measure 74
0001
0001
0001
0000
,  // measure 75
0010
0000
1000
0000
,  // measure 76
0010
0000
0001
0001
,  // measure 77
0000
1000
1000
0000
,  // measure 78
0001
0000
0010
0000
,  // measure 79
0100
0000
0010
0000
,  // measure 80
0100
0100
0100
0000
,  // measure 81
0010
0010
0010
0000
,  // measure 82
0001
0001
0001
0000
,  // measure 83
0100
0000
1000
0000
,  // measure 84
0100
0000
0001
0001
,  // measure 85
0000
1000
1000
0000
,  // measure 86
0001
0000
0100
0000
,  // measure 87
0010
0000
0100
0000
,  // measure 88
0010
0010
0010
0000
,  // measure 89
0020
0000
0030
0000
,  // measure 90
2000
0000
3000
0000
,  // measure 91
0001
0000
0010
0000
,  // measure 92
0001
0000
0000
0000
,  // measure 93
0200
0000
0300
0000
,  // measure 94
0002
0000
0003
0000
,  // measure 95
1000
0000
0100
0000
,  // measure 96
1000
0000
0000
0000
,  // measure 97
1000
1000
1000
0000
,  // measure 98
0001
0001
0001
0000
,  // measure 99
0010
0000
1000
0000
,  // measure 100
0010
0000
0001
0000
,  // measure 101
1000
0000
0100
0000
,  // measure 102
0001
0001
0001
0000
,  // measure 103
0010
0000
1000
0000
,  // measure 104
0001
0001
0001
0001
;
