#TITLE:Good Guy;
#SUBTITLE:;
#ARTIST:SF9;
#TITLETRANSLIT:;
#SUBTITLETRANSLIT:;
#ARTISTTRANSLIT:;
#GENRE:K-Pop;
#CREDIT:;
#BANNER:Good Guy.png;
#BACKGROUND:Good Guy-bg.png;
#LYRICSPATH:;
#CDTITLE:../cdtitle.png;
#MUSIC:Good Guy.ogg;
#OFFSET:1.834000;
#SAMPLESTART:46.546001;
#SAMPLELENGTH:15.000000;
#LASTBEATHINT:1.723600;
#SELECTABLE:YES;
#BPMS:0.000000=124.000000
,196.000000=62.000000
,198.000000=124.000000
;
#STOPS:
;
#BGCHANGES:3.750=Good Guy.avi=1.000=0=0=0=StretchNoLoop====,
99999=-nosongbg-=1.000=0=0=0 // don't automatically add -songbackground-
;
#KEYSOUNDS:;
#ATTACKS:;

//---------------dance-single - ----------------
#NOTES:
     dance-single:
     :
     Challenge:
     10:
     0.319432,0.479923,0.128420,0.377706,0.169968,296.000000,279.000000,17.000000,50.000000,104.000000,0.000000,0.319432,0.479923,0.128420,0.377706,0.169968,296.000000,279.000000,17.000000,50.000000,104.000000,0.000000:
0000
0000
0000
0000
,
0000
0000
0000
0000
,
0000
0000
0000
0000
,
0000
0000
0000
0000
,
0000
0000
0000
0000
,
0000
0000
0000
0000
,
0000
0000
0000
0000
,
0000
0000
0000
0000
,
0000
0000
0000
0000
0000
0100
1000
0000
,
0002
0000
0100
0000
0003
0000
0100
0020
,
0000
0130
0001
1000
0100
0001
0100
1000
,
0020
0000
0100
0000
0030
0100
0010
1000
,
0002
0000
0010
0000
0003
0010
0200
0000
,
2300
0000
0100
0000
3000
0000
0001
0200
,
0000
0310
0001
0010
0100
0001
0010
0100
,
0020
0000
0001
0000
0030
0000
0100
0010
,
2000
0000
0001
3000
0001
0100
0010
1000
,
0001
0000
0000
0020
0000
0000
0030
0000
0000
0000
0000
0000
0100
0000
2000
0000
,
0002
0000
3003
0000
1000
0010
0100
0001
,
0010
0000
1100
0000
0010
0001
0100
0020
,
0000
0000
2030
0000
0200
0000
0000
0000
3300
0000
0010
0000
0100
1000
0000
0000
,
0011
0000
0000
0000
0100
1000
0000
0000
0101
0000
0000
0000
0010
1000
0000
0000
,
1001
0000
0000
0000
0010
0100
0000
0000
1000
0000
0000
0000
1100
0000
0000
0000
,
MMMM
0010
0001
0001
MMMM
0010
1000
1000
,
MMMM
0100
0001
0001
MMMM
0100
0020
0000
,
0031
MMMM
0010
MMMM
,
0100
0000
0000
MMMM
0000
0000
1000
0000
0000
0001
0100
0010
,
1000
0102
1000
0013
,
0100
0000
2100
0000
3001
0100
0010
1000
,
0001
MMMM
0010
MMMM
,
0100
MMMM
1000
MMMM
,
0001
0000
0000
0000
0000
0000
0000
0000
0001
0000
0000
0000
0010
0000
0000
0000
1000
0000
0000
0000
0010
0000
0000
0000
0002
0000
0000
0000
0000
0000
0000
0000
0000
0103
0000
0000
0000
0000
0000
0000
0000
0000
0010
0000
0000
0000
0000
0000
,
2000
0000
3000
0000
0100
0010
0100
1000
,
0001
0000
0000
0000
0101
0000
0000
0000
0010
0000
0000
0000
1100
0000
0000
0001
,
0000
2000
3010
0000
0100
0010
1000
0100
,
0010
0000
0000
0000
1100
0000
0000
0000
0001
0000
0000
0000
1010
0000
0000
0100
,
0000
0002
1003
0000
0100
0010
0002
0000
,
1003
MMMM
0010
MMMM
,
0100
MMMM
0001
MMMM
,
1000
0000
0000
0000
0100
0000
0000
0000
0001
0000
0000
0000
0100
0000
0000
0000
1000
0000
0000
0000
0001
0000
0000
0000
0020
0000
0000
0000
0000
0000
0000
0000
0000
0130
0000
0000
0000
0000
0000
0000
0000
0000
0100
0000
0000
0000
0000
0000
,
0010
0000
0001
0000
0010
0000
0100
0000
1000
0000
0001
0000
0200
0000
0000
0000
0000
0000
0310
0000
0000
1000
0000
0000
,
0002
0010
0000
0010
,
2003
0100
0000
0100
,
3020
0100
0000
0100
,
2030
0100
3002
0203
,
0320
1030
2000
3100
,
0200
0301
0002
0013
,
0020
0000
1000
0000
0030
0000
1000
0100
,
0020
0000
0100
0030
0000
2000
0002
0000
,
3003
0000
0000
0000
0000
0000
1000
0010
1000
0001
0100
0001
,
1000
0100
0010
0002
0000
0000
1003
0000
0000
MMMM
0000
0000
,
0010
MMMM
0100
MMMM
,
0001
0000
0000
1000
0100
0010
0001
0000
0000
2100
0000
0000
,
0001
3010
0100
0102
,
1003
0100
0010
0001
1000
0000
MMMM
0000
,
0010
MMMM
0100
MMMM
,
0001
0000
0000
MMMM
0000
0000
1000
0000
1000
0010
0001
0010
,
2000
0000
0000
3100
0000
0000
0010
0000
0002
0000
0000
0000
0003
0000
0000
0000
,
0100
0010
0100
0001
1000
0000
1100
0000
,
0010
0000
0000
0000
0101
0000
0000
1000
0000
0000
0002
0000
0013
0000
0000
0000
,
0100
0010
0001
0100
0010
0000
0101
0000
,
1000
0000
0000
0000
0011
0000
0000
0100
0000
0000
2000
0000
3001
0000
0000
0000
,
0100
0010
2000
0000
3001
0000
MMMM
0000
,
0010
MMMM
0100
MMMM
,
1000
0000
0000
MMMM
0000
0000
0001
0100
1000
0100
0001
1000
,
0020
0000
0000
0000
0000
0000
0000
0000
0000
0130
0000
0000
0000
0000
0000
0000
0000
0000
0100
0000
0000
0000
0000
0000
0010
0000
0000
0000
1000
0000
0000
0000
0010
0000
0000
0000
0100
0000
0000
0000
0001
0000
0000
0000
1000
0000
0000
0000
,
0200
0000
0310
0001
2000
0000
0000
3000
;

//---------------dance-single - ----------------
#NOTES:
     dance-single:
     :
     Hard:
     10:
     0.377706,0.505182,0.309719,0.355044,0.181299,350.000000,309.000000,41.000000,47.000000,0.000000,0.000000,0.377706,0.505182,0.309719,0.355044,0.181299,350.000000,309.000000,41.000000,47.000000,0.000000,0.000000:
// measure 0
0000
0000
0000
0000
,  // measure 1
0000
0000
0000
0000
,  // measure 2
0000
0000
0000
0000
,  // measure 3
0000
0000
0000
0000
,  // measure 4
0000
0000
0000
0000
,  // measure 5
0000
0000
0000
0000
,  // measure 6
0000
0000
0000
0000
,  // measure 7
0000
0000
0000
0000
,  // measure 8
0000
0000
0000
0000
0000
1000
0001
0000
,  // measure 9
2000
0000
0100
0000
3000
0000
1000
0002
,  // measure 10
0000
0103
0001
1000
0010
0100
0001
0010
,  // measure 11
0200
0000
0010
0000
0300
0100
1000
0001
,  // measure 12
2000
0000
0100
0000
3000
1000
0002
0000
,  // measure 13
0203
0000
1000
0000
0300
0000
0100
0020
,  // measure 14
0000
1030
0100
1000
0001
0010
0100
1000
,  // measure 15
0200
0000
0010
0000
0300
0000
0100
1000
,  // measure 16
0020
0000
0100
0030
0010
1000
0100
1000
,  // measure 17
0001
0000
0000
0020
0000
0000
0030
0000
0000
0000
0000
0000
0100
0000
2000
0000
,  // measure 18
0002
0000
3003
0000
0100
0010
1000
0100
,  // measure 19
0010
0000
1001
0000
0001
0100
0010
2000
,  // measure 20
0000
0000
3200
0000
0020
0000
0000
0000
0330
0000
0100
0000
1000
0001
0000
0000
,  // measure 21
0101
0000
0000
0000
0010
1000
0000
0000
1100
0000
0000
0000
0010
0001
0000
0000
,  // measure 22
1001
0000
0000
0000
0100
0010
0000
0000
1000
0000
0000
0000
1100
0000
0000
0000
,  // measure 23
0001
0000
1000
0100
1000
0000
0001
0000
0010
0000
0001
0100
0001
0000
1000
0000
,  // measure 24
0010
0000
0100
0001
0100
0000
0010
0000
1000
0000
0100
0000
0020
0000
0030
0000
,  // measure 25
1001
0100
1001
0010
,  // measure 26
0110
0000
0000
0001
0000
0000
0110
0000
0000
1000
0100
0010
,  // measure 27
0001
1200
0001
1300
,  // measure 28
0010
0000
0021
0000
1030
0001
0010
0100
,  // measure 29
0110
0001
1010
0001
,  // measure 30
0110
0001
1100
0001
,  // measure 31
0010
0000
0000
0000
0000
0000
0000
0000
0100
0000
0000
0000
1000
0000
0000
0000
0001
0000
0000
0000
0100
0000
0000
0000
0020
0000
0000
0000
0000
0000
0000
0000
0000
1030
0000
0000
0000
0000
0000
0000
0000
0000
0100
0000
0000
0000
0000
0000
,  // measure 32
0020
0000
0030
0000
0100
1000
0010
0100
,  // measure 33
0001
0000
0000
0000
1010
0000
0000
0000
0100
0000
0000
0000
0011
0000
0000
0100
,  // measure 34
0000
2000
3001
0000
0010
0001
0100
0010
,  // measure 35
1000
0000
0000
0000
0101
0000
0000
0000
0010
0000
0000
0000
1100
0000
0000
0010
,  // measure 36
0000
0002
1003
0000
0001
0100
0020
0030
,  // measure 37
1001
0010
1001
0100
,  // measure 38
0110
1000
0110
0001
,  // measure 39
1000
0000
0000
0000
0100
0000
0000
0000
0010
0000
0000
0000
0001
0000
0000
0000
0010
0000
0000
0000
0100
0000
0000
0000
2000
0000
0000
0000
0000
0000
0000
0000
0000
3010
0000
0000
0000
0000
0000
0000
0000
0000
0100
0000
0000
0000
0000
0000
,  // measure 40
0001
0000
0010
0000
0100
0000
1000
0000
0100
0000
0010
0000
0002
0000
0000
0000
0000
0000
0103
0000
0000
0010
0000
0000
,  // measure 41
2000
0100
0000
0100
,  // measure 42
3002
0100
0000
0100
,  // measure 43
2003
3100
0002
0013
,  // measure 44
2000
3010
0002
0103
,  // measure 45
1000
1000
0010
0010
,  // measure 46
0001
0001
0100
0100
,  // measure 47
2000
0000
0100
0000
3000
0000
0001
0100
,  // measure 48
0020
0000
2000
0000
0030
3200
0020
0000
,  // measure 49
0330
0000
0000
0000
0000
0000
0001
0010
0100
1000
0100
0010
,  // measure 50
0001
0000
0100
0000
0010
0000
2000
0000
0000
3000
0000
0000
1001
0000
0000
0000
0000
0000
0100
0000
0000
0000
0000
0000
,  // measure 51
1001
0010
0110
1000
,  // measure 52
0110
0000
0000
0001
0100
0010
1000
0000
0000
0201
0000
0000
,  // measure 53
1000
0301
0010
1020
,  // measure 54
0031
1000
0010
0100
0110
0000
1000
0000
,  // measure 55
0011
1000
0110
1000
,  // measure 56
0101
0000
0000
1000
0000
0000
0010
0000
0100
0001
1000
0100
,  // measure 57
0020
0000
0000
0031
0000
0000
0100
0000
0020
0000
0000
0000
0030
0000
0000
0000
,  // measure 58
0100
0001
0010
0100
1000
0000
0011
0000
,  // measure 59
0100
0000
0000
0000
1010
0000
0000
0100
0000
0000
0002
0000
1003
0000
0000
0000
,  // measure 60
0010
1000
0100
0010
0001
0000
1100
0000
,  // measure 61
0010
0000
0000
0000
0101
0000
0000
0010
0000
0000
2000
0000
3001
0000
0000
0000
,  // measure 62
1000
0100
0020
0030
1001
0000
0010
0000
,  // measure 63
1001
0100
0110
0001
,  // measure 64
0110
0000
0000
1000
0000
0000
0001
0100
0010
1000
0010
0100
,  // measure 65
0002
0000
0000
0000
0000
0000
0000
0000
0000
0013
0000
0000
0000
0000
0000
0000
0000
0000
0100
0000
0000
0000
0000
0000
1000
0000
0000
0000
0010
0000
0000
0000
0100
0000
0000
0000
0001
0000
0000
0000
0100
0000
0000
0000
0010
0000
0000
0000
,  // measure 66
2000
0000
3100
0010
0002
0000
0000
0003
;

//---------------dance-single - ----------------
#NOTES:
     dance-single:
     :
     Medium:
     8:
     0.297848,0.353627,0.294611,0.400369,0.000000,276.000000,237.000000,39.000000,53.000000,0.000000,0.000000,0.297848,0.353627,0.294611,0.400369,0.000000,276.000000,237.000000,39.000000,53.000000,0.000000,0.000000:
0000
0000
0000
0000
,
0000
0000
0000
0000
,
0000
0000
0000
0000
,
0000
0000
0000
0000
,
0000
0000
0000
0000
,
0000
0000
0000
0000
,
0000
0000
0000
0000
,
0000
0000
0000
0000
,
0000
0000
0000
0000
,
2000
0100
0000
0100
,
3002
0000
0100
0000
1003
0100
0010
0000
,
0002
0000
0010
0000
0000
0000
0013
0100
,
2000
0001
3000
0002
,
0203
1000
0000
1000
,
0320
0000
0001
0000
0130
0001
1000
0000
,
0002
0000
0010
0000
0003
0000
0010
0100
,
0020
0000
0030
0000
0001
0100
0010
0000
,
2000
0000
3100
0000
0000
0000
1000
0001
,
2000
0000
3000
0000
0001
0100
0010
0000
,
1000
0000
1100
0000
1000
0100
0010
0000
,
0002
0200
0303
0001
,
1100
0001
1100
0001
,
0011
1000
0001
0110
,
1000
0100
0010
0001
0000
1000
0100
1000
,
0000
0010
0100
0010
0000
1000
0002
0000
,
0013
1100
0001
1100
,
0010
0101
1000
0101
,
0010
2000
0100
3010
,
1000
0000
0002
0000
0103
0010
1000
0000
,
0100
0011
1000
0011
,
0100
1010
0001
1010
,
0100
0000
1000
0100
0020
0000
0031
0000
,
2002
0000
3003
0000
0001
0100
0010
0000
,
1000
1100
0001
0101
,
0010
0000
0010
0000
1000
0100
0010
0000
,
0001
0011
1000
1010
,
0100
0000
0100
0000
0001
0010
0100
0000
,
0010
1100
0001
1100
,
0010
0101
1000
0101
,
0010
1000
2000
3100
,
0001
0100
2000
3002
,
2003
0100
0000
0100
,
3002
0100
0000
0100
,
2003
3020
0230
0302
,
0003
0001
1000
1000
,
0002
0023
2030
3200
,
0302
0203
2300
3020
,
0032
0000
0103
0000
0000
0000
0010
1000
,
0002
0000
0100
0000
0003
0020
0200
0000
,
0330
0000
0020
0032
,
2003
3200
0310
1100
,
0001
1100
0010
0101
,
1000
0101
0010
2000
,
0100
3010
1000
0002
,
0103
0010
1000
0000
0100
0000
0011
0000
,
1000
0011
0100
1010
,
0001
0000
1010
0000
0100
0000
1000
0100
,
0020
0031
2002
3003
,
0001
0100
0010
0000
1000
0000
1100
0000
,
0001
0101
0010
0010
,
1000
0100
0010
0000
0001
0000
0011
0000
,
1000
1010
0100
0100
,
0001
0010
0100
0000
0010
0000
1100
0000
,
0001
1100
0010
0101
,
1000
0101
0010
1000
,
2000
3100
0001
0100
,
2000
0000
3002
0000
2003
0000
0000
3000
;

//---------------dance-single - ----------------
#NOTES:
     dance-single:
     :
     Easy:
     5:
     0.227703,0.328368,0.151083,0.392814,0.000000,211.000000,191.000000,20.000000,52.000000,0.000000,0.000000,0.227703,0.328368,0.151083,0.392814,0.000000,211.000000,191.000000,20.000000,52.000000,0.000000,0.000000:
0000
0000
0000
0000
,
0000
0000
0000
0000
,
0000
0000
0000
0000
,
0000
0000
0000
0000
,
0000
0000
0000
0000
,
0000
0000
0000
0000
,
0000
0000
0000
0000
,
0000
0000
0000
0000
,
0000
0000
0000
0000
,
0002
0100
0000
0100
,
2003
0100
3001
0100
,
0020
0001
0000
2030
,
3002
0100
0000
0023
,
0230
0001
0000
0001
,
2300
0100
3001
0100
,
0020
1000
0000
1000
,
2030
3100
1000
1000
,
1001
0010
0000
0200
,
0002
0303
0010
0010
,
0001
1100
0010
0100
,
2000
0020
3030
0001
,
1010
1000
0011
0001
,
1100
1000
0101
0010
,
0000
1000
0100
0000
0000
0010
0001
0000
,
0000
0100
0010
0000
0000
1000
0002
0000
,
0013
0010
1000
1000
,
0100
0100
0001
0002
,
0013
2100
0000
3010
,
0100
0102
0000
1003
,
0100
0100
0001
0001
,
0010
0010
1000
1000
,
0001
0010
0002
0003
,
2200
3300
0010
0001
,
1000
0010
0100
0001
,
2000
3000
0100
1000
,
0001
0100
0010
1000
,
0002
0003
0010
0001
,
0020
0030
2000
3000
,
0200
0300
0002
0003
,
0010
0100
2000
3000
,
0010
0100
0001
1000
,
0002
0000
0100
0003
,
2000
0000
0100
3000
,
0002
0000
2003
0000
,
3020
0000
0130
0001
,
1000
1000
0100
0100
,
0001
1000
0010
0001
,
2000
0000
0100
3000
,
0020
0000
0130
0002
,
0013
0000
0020
0230
,
0320
0130
0020
0030
,
2000
3000
0200
0300
,
0001
0002
0013
2100
,
0000
3010
0100
0102
,
0000
1003
0100
0101
,
0001
0011
0010
1010
,
1000
1001
0001
0010
,
0002
0003
2200
3300
,
0010
0001
1000
0010
,
0100
0001
2000
3000
,
0100
1000
0001
0100
,
0010
1000
0002
0003
,
0010
0001
0010
1010
,
1000
1100
0100
0101
,
0001
0011
0010
0100
,
2000
3000
0010
0100
,
0001
0000
1000
0000
0002
0000
0000
0003
;

//---------------dance-single - ----------------
#NOTES:
     dance-single:
     :
     Beginner:
     2:
     0.098204,0.126296,0.000000,0.166191,0.000000,91.000000,91.000000,0.000000,22.000000,0.000000,0.000000,0.098204,0.126296,0.000000,0.166191,0.000000,91.000000,91.000000,0.000000,22.000000,0.000000,0.000000:
0000
0000
0000
0000
,
0000
0000
0000
0000
,
0000
0000
0000
0000
,
0000
0000
0000
0000
,
0000
0000
0000
0000
,
0000
0000
0000
0000
,
0000
0000
0000
0000
,
0000
0000
0000
0000
,
0000
0000
0000
0000
,
2000
0000
3000
0000
,
0002
0000
0003
0000
,
0200
0000
0300
0000
,
0020
0000
0030
0000
,
2000
0000
3000
0000
,
0200
0000
0300
0000
,
0020
0000
0030
0000
,
0002
0000
0003
0000
,
1000
0000
0000
0000
,
0002
0000
0003
0000
,
0001
0000
1000
0000
,
0200
0000
0300
0000
,
1000
0000
1000
0000
,
0001
0000
0001
0000
,
0100
0000
0010
0000
,
0100
0000
0010
0000
,
1000
0000
1000
0000
,
0001
0000
0001
0000
,
0010
0020
0000
0030
,
0100
0200
0000
0300
,
0010
0000
0010
0000
,
0100
0000
0100
0000
,
1000
0000
0001
0000
,
1000
0000
0000
0000
,
0001
0000
0001
0000
,
0001
0000
0000
0000
,
1000
0000
1000
0000
,
1000
0000
0000
0000
,
0001
0000
0001
0000
,
1000
0000
1000
0000
,
0010
0000
0001
0000
,
0100
0000
1000
0000
,
0002
0000
0003
0000
,
2000
0000
3000
0000
,
0020
0000
0030
0000
,
0200
0000
0300
0000
,
0001
0000
0010
0000
,
0100
0000
1000
0000
,
0002
0000
0003
0000
,
2000
0000
3000
0000
,
0020
0000
0030
0000
,
0000
0000
1000
0000
,
1000
0000
0001
0000
,
0001
0000
0010
0020
,
0000
0030
0100
0200
,
0000
0300
0010
0000
,
0010
0000
0100
0000
,
0100
0000
1000
0000
,
0001
0000
1000
0000
,
0000
0000
0001
0000
,
0001
0000
0001
0000
,
0000
0000
1000
0000
,
1000
0000
1000
0000
,
0000
0000
0001
0000
,
0001
0000
1000
0000
,
1000
0000
0010
0000
,
0001
0000
0100
0000
,
1000
0000
0000
0000
0002
0000
0000
0003
;
