#TITLE:Gold Dust;
#SUBTITLE:;
#ARTIST:DJ Fresh;
#TITLETRANSLIT:;
#SUBTITLETRANSLIT:;
#ARTISTTRANSLIT:;
#GENRE:Popular Songs;
#CREDIT:;
#BANNER:Gold Dust.png;
#BACKGROUND:Gold Dust-bg.png;
#LYRICSPATH:;
#CDTITLE:../cdtitle.png;
#MUSIC:Gold Dust.ogg;
#OFFSET:-1.445000;
#SAMPLESTART:46.194000;
#SAMPLELENGTH:15.000000;
#SELECTABLE:YES;
#BPMS:0.000000=177.000000
;
#STOPS:
;
#BGCHANGES:-0.250=Gold Dust.avi=1.000=0=0=0=StretchNoLoop====,
286.000=Gold Dust.avi=1.000=1=0=1===CrossFade=#000000=,
99999=-nosongbg-=1.000=0=0=0 // don't automatically add -songbackground-
;
#KEYSOUNDS:;
#ATTACKS:;

//---------------dance-single - ----------------
#NOTES:
     dance-single:
     :
     Hard:
     12:
     0.499050,0.574047,0.343447,0.372885,0.000000,356.000000,321.000000,35.000000,38.000000,0.000000,0.000000,0.499050,0.574047,0.343447,0.372885,0.000000,356.000000,321.000000,35.000000,38.000000,0.000000,0.000000:
0000
0000
0000
0000
,
0000
0000
0000
0000
,
0000
0000
0000
0000
,
0000
0000
0000
0000
,
0000
0000
0000
0000
,
0000
0000
0000
0000
,
0000
0000
0000
0000
,
0000
0000
0000
0000
,
0000
0000
0000
0000
0000
0000
0000
0010
,
2000
0000
3000
2000
0000
3000
2000
0000
,
3000
2000
0000
3000
0002
0000
0003
0100
,
0020
0000
0030
0020
0000
0030
0020
0000
,
0030
0020
0000
0030
0020
0000
0030
1000
,
0200
0000
0300
0200
0000
0300
0200
0000
,
0300
0200
0000
0300
0200
0000
0300
0010
,
0002
0000
0003
0002
0000
0003
0002
0000
,
0003
0002
0000
0003
0002
0000
0000
0000
,
1003
0010
1000
0010
0001
0010
0001
0010
,
1000
0001
0010
0100
1000
0000
0101
0000
,
0001
0010
0001
0010
1000
0010
1000
0010
,
0001
0100
0010
1000
0001
0000
1100
0000
,
0010
0001
0010
0001
1000
0010
1000
0010
,
0100
0001
0010
0100
1000
0000
0100
0000
,
0021
1030
1020
0031
,
0201
1300
1200
0301
,
0001
0100
0001
0100
1000
0100
1000
0100
,
0001
1000
0100
0010
0001
0000
1010
0000
,
1000
0100
1000
0100
0001
0100
0001
0100
,
1000
0010
0100
0001
1000
0000
0011
0000
,
0100
1000
0100
1000
0001
0100
0001
0100
,
0010
1000
0100
0010
0001
0000
0010
0000
,
1200
0301
0201
1300
,
1020
0000
0031
0000
0001
0010
1000
0000
,
1100
0000
1000
0100
0001
0000
0110
0000
,
0001
0100
0001
0100
0010
1000
0100
0010
,
0001
0011
2010
3001
,
0010
0100
0010
0100
1000
0100
0010
0001
,
0200
0000
0310
1000
0001
0000
1100
0000
,
0001
0010
0100
0010
0001
0000
0100
0010
,
0001
0010
0100
0000
1002
0000
0100
0000
,
0010
0000
0100
0000
1003
0100
0010
0000
,
0011
0000
0001
0010
1000
0000
0110
0000
,
1000
0010
1000
0010
0100
0001
0010
0100
,
1000
1100
0102
1003
,
0100
0010
0100
0010
0001
0010
0100
1000
,
0020
0000
0130
0001
1000
0000
0011
0000
,
1000
0100
0010
0100
1000
0000
0010
0100
,
1000
0100
0010
0000
2001
0000
0010
0000
,
0100
3001
0110
1001
,
1000
0100
1000
0100
0001
0100
0001
0010
,
0001
0010
1000
0010
1000
0100
0010
0001
,
0100
0000
0010
1000
0100
0000
0001
0100
,
1000
0001
0110
1001
,
0001
0010
0001
0010
1000
0010
1000
0100
,
1000
0100
0001
0100
0001
0010
0100
1000
,
0010
0000
0100
0001
0010
0000
1000
0010
,
0001
1000
0110
1001
,
0001
0010
0001
0010
1000
0010
0001
0100
,
0010
1000
0010
1000
0100
0001
0100
1000
,
0001
0000
0100
0010
1000
0000
0010
0100
,
0001
1000
0110
1001
,
1000
0100
1000
0100
0001
0100
1000
0010
,
0100
0001
0100
0001
0010
1000
0010
0001
,
1002
0103
2010
3100
,
0021
0000
0130
1000
0001
0000
0220
0000
,
0330
0000
0000
0000
;

//---------------dance-single - ----------------
#NOTES:
     dance-single:
     :
     Medium:
     9:
     0.358867,0.446481,0.235507,0.500451,0.000000,256.000000,232.000000,24.000000,51.000000,0.000000,0.000000,0.358867,0.446481,0.235507,0.500451,0.000000,256.000000,232.000000,24.000000,51.000000,0.000000,0.000000:
0000
0000
0000
0000
,
0000
0000
0000
0000
,
0000
0000
0000
0000
,
0000
0000
0000
0000
,
0000
0000
0000
0000
,
0000
0000
0000
0000
,
0000
0000
0000
0000
,
0000
0000
0000
0000
,
0000
0000
0000
0000
,
0200
0000
0300
0200
0000
0300
0002
0000
,
0003
0002
0000
0003
2000
0000
3000
1000
,
0200
0000
0300
0200
0000
0300
0020
0000
,
0030
0020
0000
0030
0002
0000
0003
0001
,
0200
0000
0300
0200
0000
0300
2000
0000
,
3000
2000
0000
3000
0200
0000
0300
0100
,
0020
0000
0030
0020
0000
0030
2000
0000
,
3000
2000
0000
3000
0002
0000
0000
0000
,
1003
0100
1000
0000
0100
0001
0100
0000
,
0001
0010
0001
0000
0010
0000
1010
0000
,
0001
0010
0001
0000
0010
1000
0010
0000
,
1000
0100
1000
0000
0100
0000
0101
0000
,
1000
0100
0010
0000
0100
1000
0001
0000
,
0100
0010
0001
0000
0010
0000
1000
0000
,
0022
0033
2200
3300
,
0202
0303
2002
3003
,
1000
0100
1000
0000
0100
0001
0100
0000
,
1000
0001
1000
0000
0010
0000
0110
0000
,
0001
0010
0001
0000
0010
1000
0010
0000
,
0001
1000
0001
0000
0100
0000
0110
0000
,
1000
0001
1000
0000
0100
0010
0100
0000
,
1000
0001
1000
0000
0010
0000
0100
0000
,
2020
3030
0202
0303
,
2200
3300
0020
0031
,
1001
0020
0130
1001
,
0001
0010
0100
0000
1000
0000
0001
0000
,
0100
0100
1200
0301
,
1000
0100
1000
0000
0100
0000
0001
0000
,
2000
0010
0000
3010
,
0001
0100
0010
0000
1000
0000
1100
0000
,
1000
0100
0010
0000
0002
0000
0010
0000
,
0000
0000
0010
0000
1003
0001
0100
0000
,
1001
0200
0310
1001
,
1000
0100
0010
0000
0001
0000
1000
0000
,
0010
0010
0021
1030
,
0001
0010
0001
0000
0010
0000
1000
0000
,
0002
0100
0000
0103
,
1000
0010
0100
0000
0001
0000
0011
0000
,
0001
0010
0100
0000
2000
0000
0100
0000
,
0000
0100
3001
0110
,
1000
0100
1000
0000
0100
0000
0100
0000
,
0001
0000
0001
0000
1000
0010
1000
0000
,
0020
0001
0000
0001
,
0000
1030
0001
0110
,
0001
0100
0001
0000
0100
0000
0100
0000
,
1000
0000
1000
0000
0001
0010
0001
0000
,
0020
1000
0000
1000
,
0000
0031
1000
0110
,
1000
1000
0001
0000
0100
0000
0010
0000
,
1000
0000
0100
0000
0010
0010
0001
0000
,
2000
0100
0000
0010
,
0000
3100
0001
0110
,
0001
0001
1000
0000
0100
0000
0010
0000
,
0001
0000
0100
0000
0010
0010
1000
0000
,
0200
0300
0020
0030
,
0002
0000
0103
0010
0100
0000
2002
0000
,
3003
0000
0000
0000
;

//---------------dance-single - ----------------
#NOTES:
     dance-single:
     :
     Easy:
     6:
     0.264945,0.350807,0.166817,0.392511,0.000000,189.000000,172.000000,17.000000,40.000000,0.000000,0.000000,0.264945,0.350807,0.166817,0.392511,0.000000,189.000000,172.000000,17.000000,40.000000,0.000000,0.000000:
0000
0000
0000
0000
,
0000
0000
0000
0000
,
0000
0000
0000
0000
,
0000
0000
0000
0000
,
0000
0000
0000
0000
,
0000
0000
0000
0000
,
0000
0000
0000
0000
,
0000
0000
0000
0000
,
0000
0000
0000
0000
,
0020
0000
0000
0000
,
0000
0000
0230
0000
,
2300
0000
0000
0000
,
0000
0000
3002
0000
,
0203
0000
0000
0000
,
0000
0000
0320
0000
,
2030
0000
0000
0000
,
0000
0000
3002
0000
,
1003
0100
0010
0001
,
0100
0010
1000
1001
,
0001
0010
0100
1000
,
0010
0100
0001
1001
,
1000
0100
0001
0100
,
1000
0010
0001
0110
,
0200
0300
0020
0030
,
2000
3000
0002
0003
,
0010
0100
1000
0100
,
0010
0010
0001
1100
,
0010
0100
0001
0100
,
0010
0010
1000
0101
,
1000
0100
0010
0100
,
1000
1000
0001
0110
,
2000
3000
0200
0300
,
0002
0003
0020
1030
,
2001
0100
0000
3100
,
0010
0001
0100
0010
,
1000
1000
2200
3300
,
0001
0100
0010
0100
,
0002
0010
0000
0013
,
0100
1000
0001
0100
,
0010
0010
1200
0001
,
0000
1000
0000
0310
,
1002
0010
0000
0013
,
0100
1000
0010
0100
,
0001
0001
0022
0033
,
1000
0010
0100
0010
,
2000
0100
0000
3100
,
0010
0001
1000
0010
,
0100
0100
0021
1000
,
0000
0001
1030
0110
,
0001
0001
0010
0010
,
1000
1000
0100
0001
,
0020
0030
0200
0300
,
0020
0030
0001
1001
,
1000
1000
0100
0100
,
0001
0001
0010
1000
,
0200
0300
0020
0030
,
0200
0300
1000
1001
,
0001
0100
0010
1000
,
0100
0010
0001
1000
,
0020
0030
0002
0003
,
0020
0030
0100
1001
,
1000
0100
0010
0001
,
0100
0010
1000
0001
,
0020
0030
2000
3000
,
0020
0030
0100
2002
,
3003
0000
0000
0000
;

//---------------dance-single - ----------------
#NOTES:
     dance-single:
     :
     Beginner:
     3:
     0.114950,0.191349,0.009813,0.225694,0.000000,82.000000,81.000000,1.000000,23.000000,0.000000,0.000000,0.114950,0.191349,0.009813,0.225694,0.000000,82.000000,81.000000,1.000000,23.000000,0.000000,0.000000:
0000
0000
0000
0000
,
0000
0000
0000
0000
,
0000
0000
0000
0000
,
0000
0000
0000
0000
,
0000
0000
0000
0000
,
0000
0000
0000
0000
,
0000
0000
0000
0000
,
0000
0000
0000
0000
,
0000
0000
0000
0000
,
2000
0000
0000
0000
,
0000
0000
3000
0000
,
0200
0000
0000
0000
,
0000
0000
0300
0000
,
0020
0000
0000
0000
,
0000
0000
0030
0000
,
0002
0000
0000
0000
,
0000
0000
0003
0000
,
1000
0000
1000
0000
,
1000
0000
1000
0000
,
0001
0000
0001
0000
,
0001
0000
0001
0000
,
0010
0000
0010
0000
,
0010
0000
0010
0000
,
0200
0000
0300
0000
,
2000
0000
3000
0000
,
0001
0000
0001
0000
,
0001
0000
0001
0000
,
1000
0000
1000
0000
,
1000
0000
1000
0000
,
0010
0000
0010
0000
,
0010
0000
0010
0000
,
0200
0000
0300
0000
,
0002
0000
0003
0000
,
2000
0000
0000
0000
,
3000
0000
0001
0000
,
0010
0010
0010
0000
,
0100
0000
0010
0000
,
0002
0000
0000
0000
,
0003
0000
0100
0000
,
1000
1000
2000
0000
,
0000
0000
3000
0000
,
0002
0000
0000
0000
,
0003
0000
1000
0000
,
0100
0100
0100
0000
,
0010
0000
0100
0000
,
2000
0000
0000
0000
,
3000
0000
0010
0000
,
0001
0001
0002
0000
,
0000
0000
0003
0000
,
0010
0000
0100
0000
,
0010
0000
0100
0000
,
2000
0000
3000
0000
,
0002
0000
0003
0000
,
0100
0000
0010
0000
,
0100
0000
0010
0000
,
2000
0000
3000
0000
,
0002
0000
0003
0000
,
0010
0000
1000
0000
,
0010
0000
1000
0000
,
0002
0000
0003
0000
,
0200
0000
0300
0000
,
0010
0000
0001
0000
,
0010
0000
0001
0000
,
2000
0000
3000
0000
,
0100
0000
2002
0000
,
3003
0000
0000
0000
;

//---------------dance-double - ----------------
#NOTES:
     dance-double:
     :
     Hard:
     12:
     0.472415,0.542156,0.186443,0.382698,0.000000,337.000000,318.000000,19.000000,39.000000,0.000000,0.000000,0.472415,0.542156,0.186443,0.382698,0.000000,337.000000,318.000000,19.000000,39.000000,0.000000,0.000000:
00000000
00000000
00000000
00000000
,
00000000
00000000
00000000
00000000
,
00000000
00000000
00000000
00000000
,
00000000
00000000
00000000
00000000
,
00000000
00000000
00000000
00000000
,
00000000
00000000
00000000
00000000
,
00000000
00000000
00000000
00000000
,
00000000
00000000
00000000
00000000
,
00000000
00000000
00000000
00000000
00000000
00000000
00000000
00001000
,
00020000
00000000
00030000
00020000
00000000
00030000
00020000
00000000
,
00030000
00020000
00000000
00030000
00000020
00000000
00000030
00001000
,
00000200
00000000
00000300
00000200
00000000
00000300
00000200
00000000
,
00000300
00000200
00000000
00000300
00000200
00000000
00000300
00000010
,
00000002
00000000
00000003
00000002
00000000
00000003
00000002
00000000
,
00000003
00000002
00000000
00000003
00000002
00000000
00000003
00000100
,
00002000
00000000
00003000
00002000
00000000
00003000
00002000
00000000
,
00003000
00002000
00000000
00003000
00002000
00000000
00000000
00000000
,
00013000
00001000
00010000
00001000
00100000
00010000
00100000
00010000
,
10000000
01000000
00100000
00010000
01000000
00000000
10010000
00000000
,
10000000
01000000
10000000
01000000
00010000
01000000
10000000
00010000
,
00100000
10000000
00100000
00010000
10000000
00000000
01100000
00000000
,
00010000
01000000
00010000
01000000
00001000
00010000
00000100
00010000
,
00000010
00001000
00000001
00000100
00000010
00000000
00001000
00000000
,
00001200
00000301
00002000
00003010
,
00000002
00000103
00002000
01003000
,
00001000
00010000
00001000
00010000
00000010
00001000
00000010
00001000
,
00000001
00000100
00000010
00001000
00000100
00000000
00001001
00000000
,
00000001
00000100
00000001
00000100
00001000
00000100
00000001
00001000
,
00000010
00000001
00000010
00001000
00000001
00000000
00000110
00000000
,
00001000
00000100
00001000
00000100
00010000
00001000
01000000
00001000
,
00100000
00010000
10000000
01000000
00100000
00000000
00010000
00000000
,
02010000
13000000
00020000
00130000
,
20000000
00000000
31000000
00000000
00100000
00010000
01000000
00000000
,
01100000
00000000
00010000
00100000
00000000
00100000
00001000
00000000
,
00010000
00000010
00010000
00001000
00100000
00010000
10000000
00100000
,
10000000
10000000
00210000
01300000
,
10000000
00010000
10000000
00010000
00100000
00010000
01000000
00001000
,
00020000
00000000
00030100
00010000
00001000
00000000
00011000
00000000
,
00010000
00000010
00001000
00000010
00000100
00000000
00000001
00000010
,
00000100
00000010
00001000
00000000
00000201
00000000
00000010
00000000
,
00000000
00000000
00001300
00000000
00000010
00000100
00000010
00000000
,
00000110
00000000
00001000
00000010
00000000
00000010
00010000
00000000
,
00001000
00100000
00001000
00010000
00000010
00001000
00000001
00000010
,
00000001
00000001
00001020
00000130
,
00000001
00001000
00000001
00001000
00000010
00001000
00000100
00010000
,
00002000
00000000
01003000
00001000
00010000
00000000
00011000
00000000
,
00001000
00100000
00010000
00100000
01000000
00000000
10000000
00100000
,
01000000
00100000
00010000
00000000
12000000
00000000
00100000
00000000
,
00000000
03010000
00100000
10010000
,
10000000
01000000
10000000
01000000
00010000
01000000
00010000
00001000
,
00010000
00001000
00000100
00000010
00000100
00000001
00000010
00001000
,
00010000
00000000
00001000
00000010
00000001
00000000
00000010
00001000
,
00010000
00001000
00010000
00011000
,
00100000
00010000
10000000
00100000
01000000
00100000
01000000
00010000
,
00100000
00001000
00010000
00000010
00001000
00000001
00000100
00000010
,
00001000
00000000
00000100
00000010
00000001
00000000
00000010
00000100
,
00002000
00003000
00000001
00001001
,
00000001
00000010
00000001
00000010
00001000
00000010
00001000
00010000
,
00001000
00010000
00100000
01000000
00100000
10000000
01000000
00010000
,
00001000
00000000
00010000
01000000
10000000
00000000
01000000
00010000
,
00001000
00010000
00001000
00011000
,
00000100
00001000
00000001
00000100
00000010
00000100
00000010
00001000
,
00000100
00010000
00001000
01000000
00010000
10000000
00100000
01000000
,
00020000
00130000
20000000
30100000
,
00020000
00000000
01030000
00001000
00010000
00000000
00022000
00000000
,
00033000
00000000
00000000
00000000
;

//---------------dance-double - ----------------
#NOTES:
     dance-double:
     :
     Medium:
     9:
     0.367278,0.446481,0.235507,0.520077,0.000000,262.000000,238.000000,24.000000,53.000000,0.000000,0.000000,0.367278,0.446481,0.235507,0.520077,0.000000,262.000000,238.000000,24.000000,53.000000,0.000000,0.000000:
00000000
00000000
00000000
00000000
,
00000000
00000000
00000000
00000000
,
00000000
00000000
00000000
00000000
,
00000000
00000000
00000000
00000000
,
00000000
00000000
00000000
00000000
,
00000000
00000000
00000000
00000000
,
00000000
00000000
00000000
00000000
,
00000000
00000000
00000000
00000000
,
00000000
00000000
00000000
00000000
,
00200000
00000000
00300000
00200000
00000000
00300000
00002000
00000000
,
00003000
00002000
00000000
00003000
00020000
00000000
00030000
00000100
,
00002000
00000000
00003000
00002000
00000000
00003000
00000002
00000000
,
00000003
00000002
00000000
00000003
00000200
00000000
00000300
00000010
,
00020000
00000000
00030000
00020000
00000000
00030000
00002000
00000000
,
00003000
00002000
00000000
00003000
02000000
00000000
03000000
00100000
,
20000000
00000000
30000000
20000000
00000000
30000000
00020000
00000000
,
00030000
00020000
00000000
00030000
20000000
00000000
00000000
00000000
,
30010000
00100000
10000000
00000000
00100000
00000000
00010000
00000000
,
10000000
01000000
00010000
00000000
00001000
00000000
00011000
00000000
,
00100000
00010000
10000000
00000000
01000000
00000000
10000000
00000000
,
00100000
01000000
00001000
00000000
00010000
00000000
00011000
00000000
,
00000100
00010000
00001000
00000000
00100000
00000000
00001000
00000000
,
00010000
00000010
00001000
00000000
00000001
00000000
00000010
00000000
,
00002200
00003300
00022000
00033000
,
00002020
00003030
00000022
00000033
,
00001000
00000100
00000001
00000000
00000100
00000000
00001000
00000000
,
00000001
00000010
00001000
00000000
00010000
00000000
00011000
00000000
,
00000100
00001000
00000001
00000000
00000010
00000000
00000001
00000000
,
00000100
00000010
00010000
00000000
00001000
00000000
00011000
00000000
,
00100000
00001000
00010000
00000000
00000100
00000000
00010000
00000000
,
00001000
01000000
00010000
00000000
10000000
00000000
01000000
00000000
,
00220000
00330000
00022000
00033000
,
02020000
03030000
00200000
10300000
,
00110000
00000000
10000000
02000000
00010000
03000000
01100000
00000000
,
00010000
10000000
01000000
00000000
10000000
00000000
00010000
00000000
,
00100000
00100000
00021000
00130000
,
01000000
00010000
01000000
00000000
00001000
00000000
00010000
00000000
,
00000200
00000000
00001300
00000002
00000010
00000003
00000110
00000000
,
00000100
00001000
00000001
00000000
00001000
00000000
00000001
00000000
,
00000100
00000010
00001000
00000000
00000200
00000000
00000010
00000000
,
00000000
00000000
00000010
00000000
00000301
00000100
00001000
00000000
,
00001100
00000000
00000001
00000020
00001000
00000030
00000110
00000000
,
00001000
00000001
00000010
00000000
00000001
00000000
00001000
00000000
,
00000100
00000100
00012000
00003100
,
00000010
00001000
00000010
00000000
00010000
00000000
00001000
00000000
,
00200000
00000000
00310000
20000000
01000000
30000000
01100000
00000000
,
00100000
00010000
10000000
00000000
00010000
00000000
10000000
00000000
,
00100000
01000000
00010000
00000000
00200000
00000000
01000000
00000000
,
00000000
01000000
00310000
10100000
,
10000000
01000000
00010000
00000000
01000000
00010000
00001000
00000000
,
00010000
00001000
00000100
00000000
00001000
00000100
00000001
00000000
,
00000020
00000100
00000000
00000100
,
00000000
00000031
00000100
00001100
,
00000001
00000010
00001000
00000000
00000010
00001000
00010000
00000000
,
00001000
00010000
00100000
00000000
00010000
00100000
10000000
00000000
,
02000000
00100000
00000000
00100000
,
00000000
13000000
00100000
00110000
,
10000000
01000000
00100000
00000000
01000000
00000000
00100000
00000000
,
00010000
01000000
00001000
00000000
00010000
00000000
00001000
00000000
,
00000020
00000100
00000000
00000100
,
00000000
00000031
00000100
00001010
,
00000001
00000100
00000010
00000000
00000100
00000000
00000010
00000000
,
00001000
00000100
00010000
00000000
00001000
00000000
00010000
00000000
,
00200000
01300000
00020000
10030000
,
02000000
00000000
03010000
00000100
00010000
00000000
00022000
00000000
,
00033000
00000000
00000000
00000000
;

//---------------dance-double - ----------------
#NOTES:
     dance-double:
     :
     Easy:
     6:
     0.255132,0.350807,0.147192,0.412136,0.000000,182.000000,167.000000,15.000000,42.000000,0.000000,0.000000,0.255132,0.350807,0.147192,0.412136,0.000000,182.000000,167.000000,15.000000,42.000000,0.000000,0.000000:
// measure 0
00000000
00000000
00000000
00000000
,  // measure 1
00000000
00000000
00000000
00000000
,  // measure 2
00000000
00000000
00000000
00000000
,  // measure 3
00000000
00000000
00000000
00000000
,  // measure 4
00000000
00000000
00000000
00000000
,  // measure 5
00000000
00000000
00000000
00000000
,  // measure 6
00000000
00000000
00000000
00000000
,  // measure 7
00000000
00000000
00000000
00000000
,  // measure 8
00000000
00000000
00000000
00000000
,  // measure 9
00000020
00000000
00000000
00000000
,  // measure 10
00000000
00000000
00002030
00000000
,  // measure 11
00003002
00000000
00000000
00000000
,  // measure 12
00000000
00000000
00000203
00000000
,  // measure 13
00002300
00000000
00000000
00000000
,  // measure 14
00000000
00000000
00023000
00000000
,  // measure 15
02030000
00000000
00000000
00000000
,  // measure 16
00000000
00000000
23000000
00000000
,  // measure 17
30010000
00100000
01000000
10000000
,  // measure 18
01000000
00100000
00001000
00011000
,  // measure 19
00010000
00000010
00000100
00000001
,  // measure 20
00000100
00000010
00001000
00001001
,  // measure 21
00000001
00000010
00001000
00010000
,  // measure 22
00001000
00000010
00000001
00001000
,  // measure 23
00000220
00000330
00000002
00000003
,  // measure 24
00002000
00003000
00000020
00000030
,  // measure 25
00001000
00000100
00000010
00000001
,  // measure 26
00000010
00000100
00010000
00011000
,  // measure 27
00001000
01000000
00100000
10000000
,  // measure 28
00100000
01000000
00010000
10010000
,  // measure 29
10000000
01000000
00010000
00001000
,  // measure 30
00010000
01000000
10000000
00010000
,  // measure 31
02200000
03300000
20000000
30000000
,  // measure 32
00020000
00030000
02000000
03000000
,  // measure 33
10010000
02000000
00000000
00100000
,  // measure 34
03000000
01000000
10000000
00010000
,  // measure 35
10000000
10000000
22000000
33000000
,  // measure 36
00010000
00010000
00100000
01000000
,  // measure 37
00010000
00002000
00000000
00000010
,  // measure 38
00003000
00001000
00010000
00000010
,  // measure 39
00001000
00000001
00002000
00000100
,  // measure 40
00000000
00000010
00000000
00003100
,  // measure 41
00001001
00000020
00000000
00000100
,  // measure 42
00000030
00000010
00000001
00001000
,  // measure 43
00000001
00000001
00000022
00000033
,  // measure 44
00001000
00001000
00000100
00000010
,  // measure 45
00001000
00020000
00000000
01000000
,  // measure 46
00030000
00010000
00001000
01000000
,  // measure 47
00010000
10000000
00020000
00100000
,  // measure 48
00000000
01030000
00010000
01100000
,  // measure 49
00010000
10000000
01000000
10000000
,  // measure 50
00100000
10000000
01000000
00010000
,  // measure 51
00002000
00003000
00020000
00030000
,  // measure 52
00002000
00003000
00010000
00001010
,  // measure 53
00001000
00000001
00000010
00000001
,  // measure 54
00000100
00000001
00000010
00001000
,  // measure 55
00020000
00030000
00002000
00003000
,  // measure 56
00020000
00030000
00001000
01010000
,  // measure 57
00010000
10000000
01000000
00100000
,  // measure 58
00001000
00010000
00000010
00001000
,  // measure 59
00000002
00000003
00000020
00000030
,  // measure 60
00002000
00003000
00000100
00000110
,  // measure 61
00001000
00000001
00000010
00000100
,  // measure 62
00010000
00001000
01000000
00010000
,  // measure 63
20000000
30000000
02000000
03000000
,  // measure 64
00020000
00030000
00001000
00022000
,  // measure 65
00033000
00000000
00000000
00000000
;
